osu file format v14

[General]
AudioFilename: audio.mp3
AudioLeadIn: 0
PreviewTime: 49043
Countdown: 0
SampleSet: Soft
StackLeniency: 0.2
Mode: 0
LetterboxInBreaks: 0
WidescreenStoryboard: 1

[Editor]
Bookmarks: 11324,22552,33780,45008,49218,50652,73078
DistanceSpacing: 0.8
BeatDivisor: 8
GridSize: 16
TimelineZoom: 4.499999

[Metadata]
Title:Corrupt Rails
TitleUnicode:Corrupt Rails
Artist:Just Greg
ArtistUnicode:Just Greg
Creator:Imprixie
Version:Rusting
Source:
Tags:
BeatmapID:2045683
BeatmapSetID:977388

[Difficulty]
HPDrainRate:4.8
CircleSize:5.1
OverallDifficulty:7.7
ApproachRate:9.4
SliderMultiplier:2
SliderTickRate:1

[Events]
//Background and Video events
0,0,"artwork-fantasy-art-apocalyptic-train-station-wallpaper.jpg",0,0
//Break Periods
//Storyboard Layer 0 (Background)
//Storyboard Layer 1 (Fail)
//Storyboard Layer 2 (Pass)
//Storyboard Layer 3 (Foreground)
//Storyboard Layer 4 (Overlay)
//Storyboard Sound Samples

[TimingPoints]
139,350.877192982456,4,2,0,100,1,0
21893,-66.6666666666667,4,2,0,100,0,0
22244,-100,4,2,0,100,0,0
22595,-66.6666666666667,4,2,0,100,0,0
22770,-133.333333333333,4,2,0,100,0,0
33823,-666.666666666658,4,2,0,100,0,0
35577,-133.333333333333,4,2,0,100,0,0
39437,-666.666666666658,4,2,0,100,0,0
41191,-181.818181818181,4,2,0,100,0,0
45402,-100,4,2,0,100,0,0
46454,-181.818181818181,4,2,0,100,0,0
46805,-100,4,2,0,100,0,0
47858,-181.818181818181,4,2,0,100,0,0
48209,-100,4,2,0,100,0,0
50665,-40,4,2,0,100,0,0
51367,-50,4,2,0,100,0,0
51717,-68.9655172413793,4,2,0,100,0,0
52068,-66.6666666666667,4,2,0,100,0,0
53472,-40,4,2,0,100,0,0
54174,-50,4,2,0,100,0,0
54524,-68.9655172413793,4,2,0,100,0,0
55226,-100,4,2,0,100,0,0
55665,-66.6666666666667,4,2,0,100,0,0
55840,-66.6666666666667,4,2,0,100,0,0
56279,-40,4,2,0,100,0,0
56981,-50,4,2,0,100,0,0
57331,-68.9655172413793,4,2,0,100,0,0
59086,-40,4,2,0,100,0,0
59788,-50,4,2,0,100,0,0
60138,-42.5531914893617,4,2,0,100,0,0
60489,-68.9655172413793,4,2,0,100,0,0
60840,-399.999999999997,4,2,0,100,0,0
61893,-40,4,2,0,100,0,0
62244,-50,4,2,0,100,0,0
63296,-66.6666666666667,4,2,0,100,0,0
63647,-50,4,2,0,100,0,0
64700,-40,4,2,0,100,0,0
65051,-50,4,2,0,100,0,0
66103,-68.9655172413793,4,2,0,100,0,0
66454,-100,4,2,0,100,0,0
67507,-40,4,2,0,100,0,0
67858,-50,4,2,0,100,0,0
68910,-66.6666666666667,4,2,0,100,0,0
70314,-33.3333333333333,4,2,0,100,0,0
71717,-66.6666666666667,4,2,0,100,0,0
72068,-250,4,2,0,100,0,0

[Colours]
Combo1 : 125,125,125
Combo2 : 86,150,169
Combo3 : 165,168,19
Combo4 : 128,0,0
Combo5 : 125,70,105
Combo6 : 189,145,196

[HitObjects]
68,74,139,5,0,0:0:0:0:
68,74,314,1,0,0:0:0:0:
159,56,489,1,0,0:0:0:0:
159,56,665,1,0,0:0:0:0:
204,136,840,1,0,0:0:0:0:
204,136,1016,1,0,0:0:0:0:
293,117,1191,5,0,0:0:0:0:
297,122,1279,1,0,0:0:0:0:
301,127,1367,1,0,0:0:0:0:
305,132,1454,1,0,0:0:0:0:
309,137,1542,1,0,0:0:0:0:
395,134,1717,1,0,0:0:0:0:
365,221,1892,1,0,0:0:0:0:
365,221,2068,1,0,0:0:0:0:
273,220,2243,1,0,0:0:0:0:
273,220,2419,1,0,0:0:0:0:
245,307,2594,5,0,0:0:0:0:
238,308,2682,1,0,0:0:0:0:
232,309,2770,1,0,0:0:0:0:
226,310,2857,1,0,0:0:0:0:
219,311,2945,1,0,0:0:0:0:
127,317,3121,1,0,0:0:0:0:
157,230,3296,1,0,0:0:0:0:
157,230,3472,1,0,0:0:0:0:
249,231,3647,1,0,0:0:0:0:
249,231,3823,1,0,0:0:0:0:
58,126,3998,5,0,0:0:0:0:
65,127,4086,1,0,0:0:0:0:
71,128,4174,1,0,0:0:0:0:
77,129,4261,1,0,0:0:0:0:
84,130,4349,1,0,0:0:0:0:
176,136,4524,1,0,0:0:0:0:
146,49,4699,1,0,0:0:0:0:
146,49,4875,1,0,0:0:0:0:
54,50,5050,1,0,0:0:0:0:
54,50,5226,1,0,0:0:0:0:
320,48,5402,5,0,0:0:0:0:
319,55,5490,1,0,0:0:0:0:
318,61,5578,1,0,0:0:0:0:
317,67,5665,1,0,0:0:0:0:
316,74,5753,1,0,0:0:0:0:
310,166,5928,1,0,0:0:0:0:
397,136,6103,1,0,0:0:0:0:
397,136,6279,1,0,0:0:0:0:
396,44,6454,1,0,0:0:0:0:
396,44,6630,1,0,0:0:0:0:
400,237,6805,5,0,0:0:0:0:
401,244,6893,1,0,0:0:0:0:
402,250,6981,1,0,0:0:0:0:
403,256,7068,1,0,0:0:0:0:
404,263,7156,1,0,0:0:0:0:
410,355,7331,1,0,0:0:0:0:
323,325,7506,1,0,0:0:0:0:
323,325,7682,1,0,0:0:0:0:
324,233,7857,1,0,0:0:0:0:
324,233,8033,1,0,0:0:0:0:
201,254,8209,5,0,0:0:0:0:
194,253,8297,1,0,0:0:0:0:
188,252,8385,1,0,0:0:0:0:
182,251,8472,1,0,0:0:0:0:
175,250,8560,1,0,0:0:0:0:
83,244,8735,1,0,0:0:0:0:
113,331,8910,1,0,0:0:0:0:
113,331,9086,1,0,0:0:0:0:
205,330,9261,1,0,0:0:0:0:
205,330,9437,1,0,0:0:0:0:
146,68,9612,5,0,0:0:0:0:
145,75,9700,1,0,0:0:0:0:
144,81,9788,1,0,0:0:0:0:
143,87,9875,1,0,0:0:0:0:
142,94,9963,1,0,0:0:0:0:
136,186,10138,1,0,0:0:0:0:
223,156,10313,1,0,0:0:0:0:
223,156,10489,1,0,0:0:0:0:
222,64,10664,1,0,0:0:0:0:
222,64,10840,1,0,0:0:0:0:
25,187,11016,5,0,0:0:0:0:
32,188,11104,1,0,0:0:0:0:
38,189,11192,1,0,0:0:0:0:
44,190,11279,1,0,0:0:0:0:
50,191,11367,2,0,L|176:201,1,100
191,258,11717,2,0,P|221:195|181:132,1,150
170,128,12068,1,0,0:0:0:0:
55,67,12331,5,0,0:0:0:0:
48,56,12419,2,0,L|147:48,1,100
323,87,12682,5,0,0:0:0:0:
330,76,12770,2,0,L|230:68,1,100
225,190,13121,2,0,B|209:206|266:150|266:150|359:158,1,150
358,159,13472,1,0,0:0:0:0:
66,307,13735,1,0,0:0:0:0:
77,316,13823,2,0,L|196:307,1,100
405,262,14086,5,0,0:0:0:0:
394,253,14174,2,0,L|279:263,1,100
259,200,14524,2,0,P|229:263|269:326,1,150
280,330,14875,1,0,0:0:0:0:
236,35,15138,1,0,0:0:0:0:
245,45,15226,2,0,B|250:108,1,50
297,140,15402,2,0,B|302:203,1,50
164,164,15577,6,0,B|174:290,1,100
49,328,15928,2,0,L|175:338,1,100
390,358,16279,5,0,0:0:0:0:
375,357,16367,1,0,0:0:0:0:
361,355,16455,1,0,0:0:0:0:
345,353,16542,1,0,0:0:0:0:
330,351,16630,2,0,L|204:341,1,100
335,241,16981,2,0,B|351:225|294:281|294:281|201:273,1,150
202,272,17332,1,0,0:0:0:0:
420,67,17594,5,0,0:0:0:0:
431,60,17682,2,0,L|439:159,1,100
400,335,17945,5,0,0:0:0:0:
411,342,18033,2,0,L|419:242,1,100
480,204,18384,2,0,P|417:174|354:214,1,150
350,225,18735,1,0,0:0:0:0:
179,168,18998,1,0,0:0:0:0:
190,177,19086,2,0,B|316:167,1,100
311,296,19349,5,0,0:0:0:0:
301,305,19437,2,0,B|175:292,1,100
48,326,19788,2,0,B|32:342|89:286|89:286|182:294,1,150
181,295,20139,1,0,0:0:0:0:
67,144,20402,1,0,0:0:0:0:
60,155,20490,2,0,L|159:163,1,100
233,224,20753,5,0,0:0:0:0:
226,213,20841,2,0,L|276:209,1,50
335,246,21016,2,0,L|385:242,1,50
426,25,21191,2,0,L|410:214,1,150
410,187,21542,1,0,0:0:0:0:
410,187,21893,5,0,0:0:0:0:
410,187,22156,1,0,0:0:0:0:
406,203,22244,1,0,0:0:0:0:
59,334,22595,5,0,0:0:0:0:
59,334,22770,2,0,L|101:345,2,37.5000014305115
110,280,23121,2,0,L|145:304,2,37.5000014305115
277,325,23472,5,0,0:0:0:0:
264,327,23560,1,0,0:0:0:0:
249,330,23647,2,0,L|224:365,2,37.5000014305115
201,268,23998,2,0,L|189:309,2,37.5000014305115
137,226,24349,2,0,L|140:268,2,37.5000014305115
60,205,24700,1,0,0:0:0:0:
63,211,24788,1,0,0:0:0:0:
66,216,24876,1,0,0:0:0:0:
69,221,24963,1,0,0:0:0:0:
73,227,25051,1,0,0:0:0:0:
190,99,25402,5,0,0:0:0:0:
190,99,25577,2,0,L|148:110,2,37.5000014305115
233,163,25928,2,0,L|190:159,2,37.5000014305115
254,240,26279,1,0,0:0:0:0:
248,237,26367,1,0,0:0:0:0:
243,234,26455,1,0,0:0:0:0:
238,231,26542,1,0,0:0:0:0:
232,227,26630,1,0,0:0:0:0:
365,105,26805,6,0,L|354:147,2,37.5000014305115
419,156,27156,2,0,L|395:191,2,37.5000014305115
452,222,27507,1,0,0:3:0:0:
447,226,27595,1,0,0:3:0:0:
442,230,27683,1,0,0:3:0:0:
438,233,27770,1,0,0:3:0:0:
432,238,27858,1,0,0:3:0:0:
427,242,27946,1,0,0:3:0:0:
422,246,28034,1,0,0:3:0:0:
418,249,28121,1,0,0:3:0:0:
412,254,28209,1,0,0:3:0:0:
379,354,28384,6,0,L|390:312,2,37.5000014305115
325,303,28735,2,0,L|349:268,2,37.5000014305115
277,325,29086,5,0,0:0:0:0:
264,327,29174,1,0,0:0:0:0:
249,330,29261,2,0,L|224:365,2,37.5000014305115
201,268,29612,2,0,L|189:309,2,37.5000014305115
137,226,29963,2,0,L|140:268,2,37.5000014305115
60,205,30314,1,0,0:0:0:0:
63,211,30402,1,0,0:0:0:0:
66,216,30490,1,0,0:0:0:0:
69,221,30577,1,0,0:0:0:0:
73,227,30665,1,0,0:0:0:0:
318,99,31016,5,0,0:0:0:0:
318,99,31191,2,0,L|360:110,2,37.5000014305115
275,163,31542,2,0,L|318:159,2,37.5000014305115
254,240,31893,1,0,0:0:0:0:
260,237,31981,1,0,0:0:0:0:
265,234,32069,1,0,0:0:0:0:
270,231,32156,1,0,0:0:0:0:
276,227,32244,1,0,0:0:0:0:
143,105,32419,6,0,L|154:147,2,37.5000014305115
89,156,32770,2,0,L|113:191,2,37.5000014305115
56,222,33121,1,0,0:3:0:0:
61,226,33209,1,0,0:3:0:0:
66,230,33296,5,0,0:3:0:0:
70,233,33384,1,0,0:3:0:0:
76,238,33472,1,0,0:3:0:0:
81,242,33560,1,0,0:3:0:0:
86,246,33648,1,0,0:3:0:0:
90,249,33735,1,0,0:3:0:0:
95,253,33823,2,0,L|155:255,2,59.9999981689454
241,150,35577,6,0,L|255:200,3,37.5000014305115
323,185,35928,2,0,L|333:148,3,37.5000014305115
404,159,36279,2,0,L|418:209,3,37.5000014305115
365,253,36630,5,0,0:0:0:0:
365,253,36805,1,0,0:0:0:0:
274,271,36980,1,0,0:0:0:0:
274,271,37156,1,0,0:0:0:0:
229,191,37331,1,0,0:0:0:0:
229,191,37507,1,0,0:0:0:0:
140,210,37682,5,0,0:0:0:0:
136,205,37770,1,0,0:0:0:0:
132,200,37858,1,0,0:0:0:0:
128,195,37945,1,0,0:0:0:0:
124,190,38033,1,0,0:0:0:0:
38,193,38208,1,0,0:0:0:0:
68,106,38383,1,0,0:0:0:0:
68,106,38559,1,0,0:0:0:0:
160,107,38734,1,0,0:0:0:0:
160,107,38910,1,0,0:0:0:0:
254,113,39086,5,0,0:0:0:0:
258,118,39174,1,0,0:0:0:0:
262,123,39261,1,0,0:0:0:0:
266,128,39349,1,0,0:0:0:0:
270,133,39437,2,0,L|329:137,2,59.9999981689454
206,147,41191,6,0,L|213:226,1,55.0000016784668
131,124,41542,2,0,L|145:202,1,55.0000016784668
55,108,41893,2,0,L|75:184,1,55.0000016784668
112,314,42244,1,0,0:0:0:0:
112,314,42595,1,0,0:0:0:0:
112,314,42771,1,0,0:0:0:0:
142,227,42946,1,0,0:0:0:0:
142,227,43122,1,0,0:0:0:0:
234,228,43297,1,0,0:0:0:0:
234,228,43473,1,0,0:0:0:0:
57,121,43647,5,0,0:0:0:0:
64,122,43736,1,0,0:0:0:0:
70,123,43824,1,0,0:0:0:0:
76,124,43911,1,0,0:0:0:0:
83,125,43999,1,0,0:0:0:0:
162,136,44174,1,0,0:0:0:0:
170,138,44262,1,0,0:0:0:0:
179,139,44350,1,0,0:0:0:0:
281,154,44524,5,0,0:0:0:0:
274,153,44613,1,0,0:0:0:0:
268,152,44701,1,0,0:0:0:0:
262,151,44788,1,0,0:0:0:0:
255,150,44876,1,0,0:0:0:0:
346,76,45051,6,0,L|348:151,1,55.0000016784668
52,251,45402,6,0,P|64:304|53:359,1,100
46,176,45665,2,0,P|34:229|45:284,1,100
158,240,45928,1,0,0:0:0:0:
18,105,46103,2,0,P|29:153|23:202,1,100
158,240,46454,6,0,L|156:315,1,55.0000016784668
460,251,46805,6,0,P|448:304|459:359,1,100
466,176,47068,2,0,P|478:229|467:284,1,100
354,240,47331,1,0,0:0:0:0:
494,105,47506,2,0,P|483:153|489:202,1,100
354,240,47858,6,0,L|356:315,1,55.0000016784668
185,145,48209,6,0,P|173:198|184:253,1,100
318,144,48472,2,0,P|330:197|319:252,1,100
254,192,48735,1,0,0:0:0:0:
254,352,48910,2,0,L|254:240,2,100
280,273,50313,5,0,0:0:0:0:
249,222,50401,1,0,0:0:0:0:
258,164,50489,1,0,0:0:0:0:
302,125,50576,1,0,0:0:0:0:
354,105,50665,6,0,B|393:118|418:89|418:89|401:29|269:36|251:96|214:152|96:75,1,375
130,91,51191,5,0,0:0:0:0:
86,174,51279,1,0,0:0:0:0:
42,257,51367,2,0,P|117:327|91:206,1,300
53,268,51717,2,0,P|131:312|130:222,1,217.500006637573
450,212,52068,6,0,B|424:230|424:230|419:291,1,75.0000028610231
436,322,52244,2,0,B|412:299|412:299|418:239,1,75.0000028610231
385,101,52419,6,0,B|367:127|367:127|306:132,1,75.0000028610231
167,209,52595,2,0,B|175:241|175:241|230:266,1,75.0000028610231
282,108,52770,6,0,B|250:99|250:99|201:134,1,75.0000028610231
267,350,52946,2,0,B|253:322|253:322|279:267,1,75.0000028610231
109,124,53121,6,0,B|141:126|141:126|176:176,1,75.0000028610231
312,258,53296,2,0,B|336:235|336:235|330:175,1,75.0000028610231
366,128,53472,6,0,B|351:100|370:70|370:70|404:41|404:41|433:75|433:75|446:108|428:139|428:139|360:181|360:181|343:206|354:245|354:245|383:280|383:280|418:251|418:251|438:214|424:187,1,500
430,208,53998,5,0,0:0:0:0:
336,211,54086,1,0,0:0:0:0:
242,214,54174,2,0,P|218:313|310:230,1,300
238,229,54524,2,0,P|252:324|309:248,1,217.500006637573
135,76,54875,6,0,B|158:52|158:52|218:58,1,72.5000022125245
252,87,55051,2,0,B|270:113|270:113|331:118,1,72.5000022125245
482,187,55226,6,0,B|386:185|386:185|351:226,1,150
180,237,55577,2,0,P|225:270|259:225,1,125
260,211,55840,1,0,0:0:0:0:
222,166,55927,1,0,0:0:0:0:
164,155,56015,1,0,0:0:0:0:
113,183,56103,1,0,0:0:0:0:
91,238,56190,1,0,0:0:0:0:
80,294,56279,6,0,B|41:281|16:310|16:310|33:370|165:363|183:303|220:247|338:324,1,375
313,309,56805,5,0,0:0:0:0:
382,246,56893,1,0,0:0:0:0:
452,183,56981,2,0,P|405:91|388:214,1,300
446,168,57331,2,0,P|387:99|357:184,1,217.500006637573
384,239,57682,6,0,B|402:265|402:265|463:270,1,72.5000022125245
324,234,57858,2,0,B|301:258|301:258|246:253,1,72.5000022125245
228,107,58033,6,0,B|233:75|233:75|200:33,1,72.5000022125245
200,257,58209,2,0,B|194:288|194:288|230:333,1,72.5000022125245
168,150,58384,6,0,B|143:129|143:129|83:142,1,72.5000022125245
284,250,58560,2,0,B|308:270|308:270|365:258,1,72.5000022125245
132,226,58735,6,0,B|102:236|102:236|83:291,1,72.5000022125245
277,176,58910,2,0,B|306:165|306:165|325:108,1,72.5000022125245
387,352,59086,6,0,B|415:367|445:348|445:348|474:314|474:314|440:285|440:285|407:272|376:290|376:290|334:358|334:358|309:375|270:364|270:364|235:335|235:335|264:300|264:300|301:280|328:294,1,500
307,288,59612,5,0,0:0:0:0:
304,194,59700,1,0,0:0:0:0:
301,100,59788,2,0,P|202:76|285:168,1,300
307,94,60138,6,0,P|198:67|298:166,1,352.499994621277
30,35,60489,6,0,B|48:61|48:61|109:66,1,72.5000022125245
140,49,60665,2,0,B|117:73|117:73|57:67,1,72.5000022125245
38,123,60840,6,0,L|34:160,1,37.5
77,212,61191,6,0,L|79:238,1,25
44,291,61454,2,0,L|43:298,1,6.25
104,334,61542,6,0,L|141:337,1,37.5
255,71,61893,6,0,B|243:98|243:98|266:143|266:143|312:143|312:143|334:98|334:98|357:52|357:52|403:52|403:52|426:98|426:98|403:143|403:143,1,375
358,226,62244,6,0,L|355:183,1,25
342,231,62361,1,0,0:0:0:0:
328,236,62477,1,0,0:0:0:0:
266,212,62594,1,0,0:0:0:0:
252,217,62711,1,0,0:0:0:0:
238,222,62828,6,0,L|235:179,1,25
126,284,62945,6,0,L|129:241,1,25
142,289,63062,1,0,0:0:0:0:
156,294,63179,1,0,0:0:0:0:
296,355,63296,6,0,B|283:325|283:325|224:309,1,75.0000028610231
358,303,63472,2,0,B|332:321|332:321|273:306,1,75.0000028610231
386,238,63647,6,0,L|343:235,1,25
391,222,63764,1,0,0:0:0:0:
396,208,63880,1,0,0:0:0:0:
342,155,63997,1,0,0:0:0:0:
337,141,64114,1,0,0:0:0:0:
332,127,64231,6,0,L|375:124,1,25
212,129,64348,6,0,L|255:132,1,25
207,145,64465,1,0,0:0:0:0:
202,159,64582,1,0,0:0:0:0:
62,208,64700,6,0,B|62:240|62:240|94:272|94:272|142:272|142:272|173:240|173:240|174:208|174:208|142:176|142:176|75:167|60:114|60:114,1,312.5
129,63,65051,6,0,L|132:20,1,25
145,68,65168,1,0,0:0:0:0:
159,73,65284,1,0,0:0:0:0:
236,77,65402,5,0,0:0:0:0:
250,72,65518,1,0,0:0:0:0:
265,67,65614,2,0,L|264:43,1,25
350,144,65753,6,0,L|393:141,1,25
345,128,65870,1,0,0:0:0:0:
340,114,65986,1,0,0:0:0:0:
413,84,66103,6,0,B|414:51|414:51|461:15,1,72.5000022125245
286,47,66279,2,0,B|314:60|314:60|366:37,1,72.5000022125245
191,132,66454,6,0,B|189:228|189:228|230:263,1,150
277,325,66805,2,0,P|310:280|265:246,1,125
258,257,67068,1,0,0:0:0:0:
199,338,67156,2,0,P|244:371|278:326,1,125
199,338,67507,6,0,B|211:311|211:311|188:266|188:266|142:266|142:266|120:311|120:311|97:357|97:357|51:357|51:357|28:311|28:311|51:266|51:266,1,375
40,190,67858,6,0,L|43:147,1,25
56,195,67975,1,0,0:0:0:0:
70,200,68091,1,0,0:0:0:0:
132,176,68208,1,0,0:0:0:0:
146,181,68325,1,0,0:0:0:0:
160,186,68442,6,0,L|163:143,1,25
188,75,68559,6,0,L|185:32,1,25
172,80,68676,1,0,0:0:0:0:
158,85,68793,1,0,0:0:0:0:
54,73,68910,6,0,B|41:103|41:103|-18:119,1,75.0000028610231
116,125,69086,2,0,B|90:107|90:107|31:122,1,75.0000028610231
235,26,69261,6,0,B|261:44|261:44|266:105,1,75.0000028610231
343,244,69437,2,0,B|375:236|375:236|400:181,1,75.0000028610231
242,129,69612,6,0,B|233:161|233:161|268:210,1,75.0000028610231
484,144,69788,2,0,B|456:158|456:158|401:132,1,75.0000028610231
258,302,69963,6,0,B|260:270|260:270|310:235,1,75.0000028610231
392,99,70138,2,0,B|369:75|369:75|309:81,1,75.0000028610231
110,264,70314,6,0,B|95:292|114:322|114:322|148:351|148:351|177:317|177:317|190:284|172:253|172:253|104:211|104:211|87:186|98:147|98:147|127:112|127:112|181:139|181:139,1,450.000017166138
225,162,70665,6,0,L|268:165,1,25
220,178,70782,1,0,0:0:0:0:
215,192,70898,1,0,0:0:0:0:
269,245,71015,1,0,0:0:0:0:
274,259,71132,1,0,0:0:0:0:
279,273,71249,6,0,L|236:276,1,25
399,271,71366,6,0,L|356:268,1,25
404,255,71483,1,0,0:0:0:0:
409,241,71600,1,0,0:0:0:0:
470,210,71717,6,0,B|452:184|452:184|391:179,1,75.0000028610231
360,196,71893,2,0,B|383:172|383:172|443:178,1,75.0000028610231
469,324,72068,6,0,L|336:328,1,130
305,267,72682,2,0,L|304:281,1,10
261,320,72770,6,0,L|191:322,1,70
195,332,73121,1,0,0:0:0:0:
