osu file format v14

[General]
AudioFilename: audio.mp3
AudioLeadIn: 0
PreviewTime: 48858
Countdown: 0
SampleSet: None
StackLeniency: 0.6
Mode: 0
LetterboxInBreaks: 0
WidescreenStoryboard: 1

[Editor]
DistanceSpacing: 1.1
BeatDivisor: 4
GridSize: 32
TimelineZoom: 1

[Metadata]
Title:Orange Sunshine
TitleUnicode:オレンジサンシャイン
Artist:Junpei Fujita
ArtistUnicode:藤田淳平
Creator:sinn
Version:Hard
Source:グリザイアの果実 -LE FRUIT DE LA GRISAIA-
Tags:eroge the fruit of grisaia no kajitsu frontwing visual novel game vn scarlet instrumental video game elements garden galgame ost bgm [_-scarlet-_]
BeatmapID:3432349
BeatmapSetID:1509471

[Difficulty]
HPDrainRate:5
CircleSize:3.5
OverallDifficulty:6.2
ApproachRate:7.2
SliderMultiplier:1.63
SliderTickRate:1

[Events]
//Background and Video events
0,0,"makina.jpg",0,0
//Break Periods
//Storyboard Layer 0 (Background)
//Storyboard Layer 1 (Fail)
//Storyboard Layer 2 (Pass)
//Storyboard Layer 3 (Foreground)
//Storyboard Layer 4 (Overlay)
//Storyboard Sound Samples

[TimingPoints]
1024,472.44094488189,4,2,2,50,1,0
35039,-100,4,2,2,40,0,0
42598,-100,4,2,2,50,0,0
49212,-100,4,2,2,60,0,0
49685,-100,4,2,2,70,0,0
50157,-100,4,2,2,75,0,1
76614,-100,4,2,2,60,0,0
80394,-100,4,2,2,50,0,0
95511,-100,4,2,2,5,0,0

[Colours]
Combo1 : 255,255,128
Combo2 : 255,85,170
Combo3 : 193,132,132

[HitObjects]
78,32,1023,6,0,B|109:70|109:70|65:191,1,163,4|4,0:0|0:0,0:0:0:0:
109,352,1968,2,0,B|75:324|75:324|-1:344,2,122.25,4|4|4,0:0|0:0|0:0,0:0:0:0:
243,232,3149,1,2,0:0:0:0:
243,232,3268,1,2,0:0:0:0:
243,232,3386,1,2,0:0:0:0:
270,317,3622,1,0,0:0:0:0:
330,250,3858,5,4,0:0:0:0:
208,382,4331,1,4,0:0:0:0:
121,224,4803,6,0,P|109:185|110:145,1,81.5,4|0,0:0|0:0,0:0:0:0:
163,73,5275,2,0,L|246:90,1,81.5,8|0,0:0|0:0,0:0:0:0:
324,48,5748,1,2,3:2:0:0:
324,48,5984,1,2,0:0:0:0:
377,126,6220,1,10,0:0:0:0:
377,126,6457,1,0,0:0:0:0:
458,46,6693,6,0,P|503:120|496:212,2,163,2|8|2,3:2|0:0|3:2,0:0:0:0:
388,102,7874,1,0,0:0:0:0:
432,192,8110,2,0,L|403:283,1,81.5,8|0,0:0|0:0,0:0:0:0:
407,269,8464,1,2,0:0:0:0:
407,269,8583,6,0,P|369:259|249:308,1,163,2|8,3:2|0:0,0:0:0:0:
189,244,9291,1,2,0:0:0:0:
189,244,9409,1,2,0:0:0:0:
189,244,9527,2,0,L|58:273,2,122.25,2|2|0,3:2|0:0|0:0,0:0:0:0:
248,176,10472,6,0,P|259:140|244:97,1,81.5,2|0,3:2|0:0,0:0:0:0:
172,46,10945,2,0,L|89:30,1,81.5,8|0,0:0|0:0,0:0:0:0:
8,15,11417,1,2,3:2:0:0:
8,15,11653,1,2,0:0:0:0:
47,101,11890,1,10,0:0:0:0:
47,101,12126,1,2,0:0:0:0:
0,205,12362,6,0,P|71:229|110:324,1,163,2|8,3:2|0:0,0:0:0:0:
271,381,13307,1,2,3:2:0:0:
292,294,13543,1,2,0:0:0:0:
312,206,13779,1,8,0:0:0:0:
277,97,14016,6,0,B|383:117|332:152|422:171,1,163,2|0,0:0|0:0,0:0:0:0:
480,234,14724,2,0,P|461:275|454:316,1,81.5,8|0,0:0|0:0,0:0:0:0:
375,266,15197,1,2,3:2:0:0:
358,359,15433,1,2,0:0:0:0:
358,359,15551,1,2,0:0:0:0:
358,359,15669,1,10,0:0:0:0:
271,381,15905,1,2,0:0:0:0:
294,269,16142,6,0,P|289:208|262:146,2,122.25,2|2|2,3:2|0:0|0:0,0:0:0:0:
210,235,17086,1,6,0:0:0:0:
107,322,17441,1,4,0:0:0:0:
97,188,17795,1,4,0:0:0:0:
97,188,18268,2,0,L|89:239,1,40.75,2|2,3:2|0:0,0:0:0:0:
15,258,18504,6,0,P|-11:185|12:103,1,163,4|2,2:3|3:2,0:0:0:0:
58,29,19212,2,0,L|102:17,1,40.75,2|2,0:2|3:2,0:0:0:0:
172,52,19449,1,6,3:2:0:0:
168,71,19567,1,2,0:2:0:0:
164,90,19685,1,2,0:2:0:0:
160,109,19803,1,2,0:2:0:0:
156,128,19921,6,0,L|136:221,1,81.5,6|0,0:0|0:0,0:0:0:0:
56,242,20394,2,0,P|76:282|66:332,1,81.5,8|0,0:0|0:0,0:0:0:0:
141,384,20866,1,2,3:2:0:0:
141,384,21102,1,2,0:0:0:0:
191,311,21338,1,8,0:0:0:0:
191,311,21575,1,2,0:0:0:0:
283,378,21811,6,0,P|297:294|332:216,2,163,2|8|2,3:2|0:0|3:2,0:0:0:0:
208,328,22992,1,2,0:0:0:0:
229,241,23228,1,8,0:0:0:0:
140,188,23464,1,2,0:0:0:0:
140,188,23583,1,2,0:0:0:0:
140,188,23701,6,0,L|55:209,1,81.5,2|0,3:2|0:0,0:0:0:0:
9,281,24173,2,0,P|45:300|91:297,1,81.5,8|0,0:0|0:0,0:0:0:0:
171,272,24646,1,4,0:0:0:0:
276,355,25000,1,4,0:0:0:0:
287,221,25354,6,0,B|384:223|345:268|441:271,1,163,6|0,0:0|0:0,0:0:0:0:
504,210,26063,2,0,P|488:173|488:129,1,81.5,8|0,0:0|0:0,0:0:0:0:
488,133,26417,1,2,0:0:0:0:
488,133,26535,6,0,L|403:112,1,81.5,2|0,3:2|0:0,0:0:0:0:
326,150,27008,1,8,0:0:0:0:
292,67,27244,1,2,0:0:0:0:
228,161,27480,6,0,B|125:136|125:136|93:86,1,163,2|8,3:2|0:0,0:0:0:0:
32,152,28189,1,2,0:0:0:0:
32,152,28307,1,2,0:0:0:0:
32,152,28425,2,0,P|59:186|63:232,1,81.5,2|0,3:2|0:0,0:0:0:0:
42,310,28898,1,8,0:0:0:0:
134,289,29134,1,2,0:0:0:0:
134,289,29252,1,2,0:0:0:0:
134,289,29370,6,0,B|191:308|191:308|212:342|212:342|277:361,2,163,2|8|2,3:2|0:0|3:2,0:0:0:0:
42,310,30551,1,2,0:0:0:0:
64,222,30787,1,8,0:0:0:0:
85,134,31024,1,2,0:0:0:0:
43,28,31260,6,0,P|119:38|158:123,1,163,6|8,0:0|0:0,0:0:0:0:
245,131,31968,2,0,P|189:135|147:195,1,122.25,6|0,0:0|0:0,0:0:0:0:
149,184,32441,2,0,L|125:325,1,122.25,6|0,0:0|0:0,0:0:0:0:
128,304,32913,2,0,P|144:360|239:366,1,163,6|0,0:0|0:0,0:0:0:0:
287,293,33622,6,0,L|269:213,1,81.5,8|0,0:0|0:0,0:0:0:0:
345,166,34094,2,0,L|362:245,1,81.5,2|0,3:2|0:0,0:0:0:0:
416,318,34567,1,8,0:0:0:0:
491,249,34803,1,2,0:0:0:0:
491,249,34921,1,2,0:0:0:0:
491,249,35039,6,0,L|510:160,1,81.5,4|0,0:0|0:0,0:0:0:0:
508,169,35394,1,2,0:0:0:0:
508,169,35512,1,2,0:0:0:0:
457,109,35748,1,2,0:0:0:0:
389,166,35984,5,2,3:2:0:0:
389,166,36220,2,0,B|357:189|357:189|317:177,1,81.5,2|2,0:0|0:0,0:0:0:0:
250,117,36693,2,0,B|281:162|281:162|240:268,1,163,2|0,0:0|0:0,0:0:0:0:
178,326,37401,2,0,L|88:294,1,81.5,2|0,0:0|0:0,0:0:0:0:
18,266,37874,1,2,3:2:0:0:
45,180,38110,2,0,L|61:135,2,40.75,2|0|2,0:0|0:0|0:0,0:0:0:0:
134,185,38583,1,2,0:0:0:0:
134,185,38701,1,2,0:0:0:0:
134,185,38819,6,0,L|216:166,1,81.5,2|0,3:2|0:0,0:0:0:0:
213,166,39173,1,2,0:0:0:0:
213,166,39291,1,2,0:0:0:0:
234,256,39527,1,2,0:0:0:0:
333,198,39764,5,2,3:2:0:0:
333,198,40000,2,0,P|342:160|365:120,1,81.5,2|2,0:0|0:0,0:0:0:0:
448,99,40472,2,0,P|396:109|307:41,1,163,2|0,0:0|0:0,0:0:0:0:
253,118,41181,1,2,0:0:0:0:
234,30,41417,1,0,0:0:0:0:
153,68,41653,2,0,L|31:42,2,122.25,2|2|0,3:2|0:0|0:0,0:0:0:0:
66,143,42598,6,0,B|105:182|105:182|76:294,1,163,6|2,0:0|0:0,0:0:0:0:
244,218,43543,2,0,L|367:240,2,122.25,6|2|2,0:0|0:0|0:0,0:0:0:0:
168,267,44488,5,6,0:0:0:0:
301,147,44961,1,4,3:2:0:0:
240,97,45197,1,2,3:2:0:0:
240,97,45315,1,2,0:0:0:0:
240,97,45433,6,0,B|160:97|195:127|115:126,2,122.25,4|6|4,3:2|3:2|3:2,0:0:0:0:
324,255,46614,1,2,0:0:0:0:
401,210,46850,2,0,L|443:223,2,40.75,2|2|2,3:2|0:0|0:0,0:0:0:0:
374,124,47323,6,0,P|344:74|337:5,2,122.25,2|2|2,3:2|3:2|3:2,0:0:0:0:
271,102,48268,1,4,0:0:0:0:
271,102,48386,1,4,0:0:0:0:
271,102,48504,2,0,L|228:114,1,40.75,6|6,0:0|0:0,0:0:0:0:
115,46,48976,5,2,3:2:0:0:
73,125,49212,2,0,P|109:197|124:284,1,163,2|12,0:0|0:3,0:0:0:0:
123,277,50157,6,0,P|158:260|201:260,1,81.5,4|0,0:0|0:0,0:0:0:0:
272,313,50630,2,0,L|285:228,1,81.5,8|0,0:0|0:0,0:0:0:0:
284,232,50984,1,2,0:0:0:0:
284,232,51102,1,2,3:2:0:0:
217,172,51338,1,2,0:0:0:0:
295,128,51575,1,8,0:0:0:0:
209,53,51811,6,0,B|96:33|96:33|48:57,1,163,2|0,0:0|0:0,0:0:0:0:
112,122,52520,2,0,L|92:204,1,81.5,8|0,0:0|0:0,0:0:0:0:
39,273,52992,2,0,P|88:235|187:247,1,163,2|8,3:2|0:0,0:0:0:0:
252,303,53701,1,0,0:0:0:0:
324,215,53937,6,0,L|355:48,1,163,2|8,3:2|0:0,0:0:0:0:
266,77,54646,1,0,0:0:0:0:
196,20,54882,2,0,P|180:54|182:99,1,81.5,2|0,3:2|0:0,0:0:0:0:
245,160,55354,1,8,0:0:0:0:
165,185,55590,1,2,0:0:0:0:
165,185,55709,1,2,0:0:0:0:
165,185,55827,2,0,L|79:165,1,81.5,2|0,3:2|0:0,0:0:0:0:
7,209,56299,2,0,B|30:239|30:239|14:290,1,81.5,8|0,0:0|0:0,0:0:0:0:
129,258,56772,5,4,0:0:0:0:
266,373,57244,1,4,0:0:0:0:
392,326,57598,6,0,P|410:269|405:192,1,122.25,4|0,0:0|0:0,0:0:0:0:
350,138,58188,2,0,L|261:152,1,81.5,8|0,0:0|0:0,0:0:0:0:
269,150,58542,1,2,0:0:0:0:
269,150,58660,1,2,3:2:0:0:
204,212,58897,1,2,0:0:0:0:
145,143,59133,2,0,P|139:105|145:56,1,81.5,8|0,0:0|0:0,0:0:0:0:
143,62,59487,1,2,0:0:0:0:
143,62,59606,6,0,L|314:33,1,163,2|8,3:2|0:0,0:0:0:0:
386,69,60314,1,0,0:0:0:0:
456,14,60551,2,0,P|474:50|470:96,1,81.5,2|0,3:2|0:0,0:0:0:0:
408,153,61023,1,8,0:0:0:0:
484,200,61259,1,2,0:0:0:0:
411,288,61496,6,0,B|301:254|301:254|246:278,1,163,2|8,3:2|0:0,0:0:0:0:
236,360,62205,2,0,L|205:200,1,163,2|0,0:0|0:0,0:0:0:0:
143,135,62912,1,8,0:0:0:0:
183,54,63149,2,0,P|106:54|52:124,1,163,2|0,0:0|0:0,0:0:0:0:
86,199,63857,2,0,L|61:286,1,81.5,8|0,0:0|0:0,0:0:0:0:
129,338,64330,2,0,L|255:313,2,122.25,2|2|2,3:2|0:0|0:0,0:0:0:0:
173,232,65275,6,0,B|234:220|234:220|267:237|267:237|334:223,1,163,4|8,0:0|0:0,0:0:0:0:
410,261,65983,1,0,0:0:0:0:
470,195,66220,2,0,P|479:140|465:74,2,122.25,2|2|2,3:2|0:0|0:0,0:0:0:0:
395,143,67164,5,2,3:2:0:0:
329,85,67401,1,2,0:0:0:0:
329,85,67519,1,2,0:0:0:0:
329,85,67638,2,0,L|245:107,1,81.5,8|0,0:0|0:0,0:0:0:0:
161,118,68110,2,0,B|222:138|222:138|243:164|243:164|309:181,1,163,2|8,3:2|0:0,0:0:0:0:
388,137,68818,1,2,0:0:0:0:
388,137,68936,1,2,0:0:0:0:
388,137,69055,6,0,P|397:180|382:225,1,81.5,2|0,3:2|0:0,0:0:0:0:
305,258,69527,2,0,P|296:215|311:170,1,81.5,8|0,0:0|0:0,0:0:0:0:
388,137,70000,2,0,L|412:5,2,122.25,2|2|2,3:2|0:0|0:0,0:0:0:0:
316,81,70944,5,2,3:2:0:0:
237,124,71180,1,2,0:0:0:0:
184,51,71417,2,0,L|96:69,1,81.5,8|0,0:0|0:0,0:0:0:0:
37,128,71889,1,2,3:2:0:0:
91,198,72126,2,0,P|98:235|88:282,2,81.5,2|8|2,0:0|0:0|0:0,0:0:0:0:
185,131,72835,6,0,P|210:200|298:201,1,163,4|10,0:0|0:0,0:0:0:0:
365,156,73543,1,2,0:0:0:0:
424,222,73779,2,0,L|442:352,2,122.25,4|4|4,0:0|0:0|0:0,0:0:0:0:
494,58,74961,1,6,0:0:0:0:
494,58,75197,1,14,0:0:0:0:
358,175,75669,2,0,B|289:165|320:137|246:126,2,122.25,2|2|2,0:0|0:0|0:0,0:0:0:0:
471,194,76614,6,0,P|407:206|370:300,1,163,4|8,0:0|0:0,0:0:0:0:
398,373,77322,1,6,0:0:0:0:
267,250,77794,1,6,0:0:0:0:
123,357,78267,6,0,P|98:285|106:193,1,163,4|0,0:0|0:0,0:0:0:0:
142,118,78975,2,0,L|229:100,1,81.5,8|0,0:0|0:0,0:0:0:0:
221,101,79330,1,2,0:0:0:0:
221,101,79448,1,2,3:2:0:0:
290,43,79684,1,0,0:0:0:0:
376,64,79920,1,8,0:0:0:0:
315,163,80156,1,2,0:0:0:0:
315,163,80275,1,2,0:0:0:0:
315,163,80393,6,0,P|371:183|432:218,2,122.25,6|2|2,0:0|0:0|0:0,0:0:0:0:
254,229,81338,1,2,3:2:0:0:
254,229,81574,1,2,0:0:0:0:
316,293,81810,1,8,0:0:0:0:
225,361,82047,6,0,P|147:348|81:288,1,163,2|0,0:0|0:0,0:0:0:0:
159,243,82755,1,8,0:0:0:0:
81,198,82992,2,0,L|54:27,1,163,2|0,0:0|0:0,0:0:0:0:
143,56,83700,2,0,L|155:136,1,81.5,8|0,0:0|0:0,0:0:0:0:
246,68,84173,6,0,P|303:84|367:73,2,122.25,2|2|2,3:2|0:0|0:0,0:0:0:0:
258,161,85117,1,2,3:2:0:0:
258,161,85353,1,2,0:0:0:0:
227,245,85590,1,8,0:0:0:0:
340,228,85827,6,0,P|403:243|493:295,1,163,2|0,0:0|0:0,0:0:0:0:
414,341,86535,2,0,P|378:321|335:311,1,81.5,8|0,0:0|0:0,0:0:0:0:
270,253,87008,2,0,P|219:279|151:285,2,122.25,2|2|2,3:2|0:0|0:0,0:0:0:0:
361,184,87953,6,0,P|369:127|386:60,2,122.25,4|2|2,0:0|0:0|0:0,0:0:0:0:
401,265,88898,2,0,P|446:300|495:348,2,122.25,4|2|2,0:0|0:0|0:0,0:0:0:0:
312,248,89841,1,6,0:0:0:0:
153,332,90314,1,8,0:0:0:0:
211,162,90787,6,0,P|200:104|171:46,2,122.25,4|6|6,0:0|0:0|0:0,0:0:0:0:
77,280,91967,1,2,0:0:0:0:
77,280,92086,1,2,0:0:0:0:
77,280,92204,1,10,0:0:0:0:
159,244,92440,1,0,0:0:0:0:
230,298,92677,6,0,B|290:318|290:318|309:349|309:349|369:367,2,163,6|14|6,0:0|0:0|0:0,0:0:0:0:
143,322,93857,1,2,0:0:0:0:
169,236,94093,1,8,0:0:0:0:
61,275,94331,6,0,P|41:200|65:114,1,163,4|2,0:0|0:0,0:0:0:0:
97,36,95038,1,8,0:0:0:0:
178,74,95275,1,12,0:3:0:0:
256,192,95394,12,0,97165,0:0:0:0:
