osu file format v14

[General]
AudioFilename: audio.mp3
AudioLeadIn: 0
PreviewTime: 39945
Countdown: 0
SampleSet: Soft
StackLeniency: 0.4
Mode: 0
LetterboxInBreaks: 0
WidescreenStoryboard: 1

[Editor]
Bookmarks: 3173,68486,85465
DistanceSpacing: 1
BeatDivisor: 4
GridSize: 4
TimelineZoom: 1.1

[Metadata]
Title:Deadlock
TitleUnicode:デッドロック
Artist:Junpei Fujita
ArtistUnicode:藤田淳平
Creator:Naotoshi
Version:Angelic
Source:グリザイアの果実 -LE FRUIT DE LA GRISAIA-
Tags:eroge the fruit of the grisaia visual novel game yahuri hobbes2
BeatmapID:1301662
BeatmapSetID:527942

[Difficulty]
HPDrainRate:5
CircleSize:4.4
OverallDifficulty:7.7
ApproachRate:8
SliderMultiplier:1.6
SliderTickRate:1

[Events]
//Background and Video events
0,0,"707279.png",0,0
//Break Periods
//Storyboard Layer 0 (Background)
//Storyboard Layer 1 (Fail)
//Storyboard Layer 2 (Pass)
//Storyboard Layer 3 (Foreground)
//Storyboard Sound Samples

[TimingPoints]
372,416.666666666667,4,2,1,27,1,0
67038,-100,4,2,1,41,0,0
93705,-100,4,2,1,5,0,0

[Colours]
Combo1 : 47,109,193
Combo2 : 193,0,0
Combo3 : 114,18,114
Combo4 : 227,124,11

[HitObjects]
118,152,372,6,0,P|125:195|124:251,1,80,2|0,0:2|0:2,0:0:0:0:
221,154,788,2,0,L|228:75,1,80,0|0,0:2|0:2,0:0:0:0:
345,121,1205,2,0,P|319:196|310:276,1,160,2|0,0:2|0:2,0:0:0:0:
241,358,1830,1,0,0:2:0:0:
240,348,1934,1,0,0:2:0:0:
239,338,2038,1,2,0:2:0:0:
159,202,2455,6,0,P|97:217|68:216,2,80,0|0|0,0:2|0:2|0:2,0:0:0:0:
111,48,3080,2,0,P|99:86|99:126,2,80,0|0|0,0:2|0:2|0:2,0:0:0:0:
196,102,3705,1,2,0:2:0:0:
363,139,4122,6,0,P|367:179|367:219,1,80,0|0,0:2|0:2,0:0:0:0:
279,153,4539,2,0,P|283:113|293:74,2,80,2|0|0,0:2|0:2|0:2,0:0:0:0:
193,224,5163,2,0,P|193:184|196:145,1,80,0|2,0:2|0:2,0:0:0:0:
315,252,5788,5,0,0:2:0:0:
262,323,5997,2,0,L|257:363,1,40,0|0,0:2|0:2,0:0:0:0:
239,291,6205,2,0,P|195:283|143:284,1,80,2|0,0:2|0:2,0:0:0:0:
77,346,6622,2,0,P|67:309|67:241,1,80,0|0,0:2|0:2,0:0:0:0:
128,188,7038,5,2,0:2:0:0:
3,100,7455,1,0,0:2:0:0:
97,102,7663,2,0,P|80:56|78:16,2,80,0|2|0,0:2|0:2|0:2,0:0:0:0:
171,40,8288,1,0,0:2:0:0:
251,173,8497,6,0,P|254:103|274:8,1,160,0|0,0:2|0:2,0:0:0:0:
365,117,9122,2,0,P|360:196|344:274,1,160,0|0,0:2|0:2,0:0:0:0:
472,220,9747,2,0,P|459:182|455:143,1,80,2|0,0:2|0:2,0:0:0:0:
427,294,10163,2,0,L|421:345,3,26.6666666666667,0|0|0|2,0:0|0:0|0:0|0:2,0:0:0:0:
271,296,10788,5,0,0:2:0:0:
266,186,10997,2,0,P|246:147|225:117,2,80,0|2|0,0:2|0:2|0:2,0:0:0:0:
342,102,11622,2,0,P|393:155|413:167,2,80,0|0|2,0:2|0:2|0:2,0:0:0:0:
422,38,12247,1,2,0:2:0:0:
304,193,12663,1,0,0:2:0:0:
342,102,13080,1,2,0:2:0:0:
230,115,13288,5,2,0:2:0:0:
379,191,13497,1,8,3:2:0:0:
379,191,13913,5,2,0:2:0:0:
202,248,14122,1,0,0:2:0:0:
272,160,14330,1,2,0:2:0:0:
318,288,14538,2,0,P|388:303|428:301,2,80,0|2|0,0:2|0:2|0:2,0:0:0:0:
476,252,15163,2,0,P|454:175|449:83,1,160,0|0,0:2|0:2,0:0:0:0:
256,165,15997,5,2,0:2:0:0:
337,314,16413,1,2,0:2:0:0:
360,221,16622,1,0,0:2:0:0:
378,228,16726,1,0,0:2:0:0:
396,241,16830,2,0,P|450:245|480:236,1,80
459,341,17247,1,0,0:0:0:0:
443,350,17351,1,0,0:0:0:0:
423,348,17455,6,0,B|347:326|247:345,1,160,2|0,0:2|0:2,0:0:0:0:
166,384,18080,2,0,P|160:329|170:294,1,80,2|0,0:2|0:2,0:0:0:0:
252,165,18497,2,0,P|257:204|250:243,1,80,0|2,0:2|0:2,0:0:0:0:
163,201,18913,1,0,0:2:0:0:
223,81,19122,2,0,P|262:81|301:91,1,80,2|0,0:2|0:2,0:0:0:0:
409,268,19747,6,0,P|335:251|240:243,1,160,2|0,0:2|0:2,0:0:0:0:
191,338,20372,1,6,0:2:0:0:
100,159,20788,1,4,0:2:0:0:
40,235,20997,2,0,P|8:187|33:89,1,160,2|0,0:2|0:2,0:0:0:0:
179,100,21622,1,0,0:2:0:0:
100,159,21831,2,0,P|144:188|246:167,1,160,2|0,0:2|0:2,0:0:0:0:
312,102,22455,6,0,P|336:176|303:247,1,160,2|0,0:2|0:2,0:0:0:0:
370,317,23080,2,0,P|295:341|225:307,1,160,2|0,0:2|0:2,0:0:0:0:
152,376,23705,2,0,P|127:301|161:231,1,160,2|0,0:2|0:2,0:0:0:0:
93,162,24330,2,0,P|167:137|237:171,1,160,10|0,0:2|0:2,0:0:0:0:
301,251,24955,1,0,0:2:0:0:
361,173,25164,2,0,P|401:248|372:318,1,160,10|0,3:2|0:2,0:0:0:0:
303,383,25788,5,0,0:2:0:0:
468,323,25997,1,0,0:2:0:0:
301,251,26205,2,0,P|234:259|189:264,1,80,2|0,0:2|0:2,0:0:0:0:
143,175,26622,1,2,0:2:0:0:
3,365,27038,5,10,3:2:0:0:
252,366,27455,1,10,3:2:0:0:
164,298,27663,2,0,P|227:262|329:282,1,160,2|8,0:2|3:2,0:0:0:0:
402,205,28288,1,0,0:2:0:0:
413,321,28497,1,0,0:2:0:0:
305,176,28705,6,0,P|266:169|202:175,1,80,2|0,0:2|0:2,0:0:0:0:
58,205,29122,2,0,P|97:212|161:206,1,80,2|0,0:2|0:2,0:0:0:0:
297,14,29747,5,2,0:2:0:0:
114,21,29955,1,2,0:2:0:0:
225,170,30163,1,2,0:2:0:0:
0,114,30580,5,8,3:2:0:0:
171,85,30788,1,8,3:2:0:0:
396,199,31205,5,8,3:2:0:0:
225,170,31413,1,2,0:2:0:0:
337,293,31622,1,8,3:2:0:0:
316,121,31830,1,2,0:2:0:0:
133,340,32247,5,0,3:2:0:0:
85,210,32455,1,0,0:2:0:0:
242,268,32663,2,0,P|264:177|292:105,1,160,2|0,0:2|0:2,0:0:0:0:
237,16,33288,1,0,0:2:0:0:
393,79,33497,1,0,0:2:0:0:
418,90,33601,1,0,0:2:0:0:
443,101,33705,1,10,3:2:0:0:
267,190,34122,5,2,0:2:0:0:
408,173,34330,1,0,0:2:0:0:
232,267,34538,2,0,P|228:358|235:375,1,80,2|0,0:2|0:2,0:0:0:0:
346,347,34955,2,0,P|348:307|338:268,1,80,0|0,0:2|0:2,0:0:0:0:
232,267,35372,6,0,P|145:280|68:262,1,160,2|0,0:2|0:2,0:0:0:0:
24,156,35997,1,0,0:2:0:0:
22,134,36101,1,0,0:2:0:0:
20,112,36205,1,2,0:2:0:0:
144,60,36413,1,2,0:2:0:0:
155,90,36517,1,0,0:0:0:0:
153,122,36621,1,2,0:2:0:0:
261,161,36830,1,0,0:2:0:0:
264,132,36934,1,0,0:0:0:0:
273,107,37038,6,0,P|322:104|369:107,1,80,2|0,0:2|0:2,0:0:0:0:
478,106,37455,1,2,0:2:0:0:
401,267,37663,2,0,P|423:171|425:165,2,80,2|0|8,0:2|0:2|3:2,0:0:0:0:
477,346,38288,1,2,0:2:0:0:
336,344,38497,2,0,L|299:345,8,30,0|0|0|0|0|0|0|0|0,0:2|0:2|0:2|0:2|0:2|0:2|0:2|0:2|0:2,0:0:0:0:
168,175,39747,5,2,0:2:0:0:
92,375,39955,1,2,0:2:0:0:
225,294,40163,1,2,0:2:0:0:
49,217,40372,6,0,P|47:151|58:118,1,80,6|0,3:2|0:2,0:0:0:0:
279,136,40788,2,0,P|285:175|280:214,1,80,4|0,3:2|0:2,0:0:0:0:
168,175,41205,1,8,3:3:0:0:
299,29,41413,2,4,P|353:57|385:97,1,80,10|0,3:3|0:2,0:0:0:0:
391,241,41830,1,10,3:3:0:0:
480,113,42038,5,8,3:3:0:0:
279,136,42247,1,8,3:3:0:0:
481,204,42455,1,2,0:2:0:0:
277,286,42663,2,0,P|256:228|299:112,1,160,8|2,3:3|0:2,0:0:0:0:
78,120,43288,5,4,0:2:0:0:
177,125,43497,2,0,P|164:69|148:39,2,80,2|0|0,0:2|0:2|0:2,0:0:0:0:
97,330,44122,2,0,P|110:274|126:244,1,80,6|0,3:2|0:2,0:0:0:0:
192,316,44538,1,8,3:3:0:0:
189,136,44747,2,0,P|204:172|211:211,1,80,2|8,0:2|3:3,0:0:0:0:
14,383,45163,6,0,P|6:317|72:234,1,160,8|0,3:3|0:2,0:0:0:0:
184,341,45788,2,0,P|221:325|253:301,1,80,8|0,3:3|0:0,0:0:0:0:
97,330,46205,1,8,0:2:0:0:
247,195,46413,2,0,P|331:232|357:304,1,160,8|0,3:3|0:2,0:0:0:0:
252,301,47038,1,4,0:2:0:0:
362,204,47247,5,2,0:2:0:0:
367,374,47455,1,0,0:2:0:0:
488,168,47663,1,2,0:2:0:0:
483,338,47871,1,0,0:2:0:0:
362,204,48080,2,0,P|311:195|258:196,1,80,2|0,0:2|0:2,0:0:0:0:
173,310,48497,2,0,P|212:308|252:300,1,80,2|0,0:2|0:2,0:0:0:0:
94,233,48913,5,2,0:2:0:0:
98,382,49122,1,2,0:2:0:0:
206,215,49330,1,2,0:2:0:0:
206,215,49747,5,2,0:2:0:0:
202,364,49956,1,2,0:2:0:0:
94,197,50164,1,2,0:2:0:0:
94,197,50580,5,2,0:2:0:0:
216,134,50788,1,2,0:2:0:0:
99,75,50997,1,2,0:2:0:0:
96,60,51101,1,0,0:2:0:0:
93,45,51205,1,0,0:2:0:0:
94,197,51413,1,2,0:2:0:0:
263,276,51830,5,2,0:2:0:0:
377,99,52247,1,0,0:2:0:0:
412,196,52455,1,2,0:2:0:0:
482,116,52663,1,0,0:2:0:0:
267,100,53080,2,0,P|261:152|269:187,1,80,2|0,0:2|0:2,0:0:0:0:
180,77,53497,6,0,P|230:18|307:19,1,160,0|0,0:2|0:2,0:0:0:0:
267,100,54122,1,8,3:3:0:0:
94,47,54330,1,2,0:2:0:0:
67,205,54538,1,0,0:2:0:0:
180,77,54747,6,0,P|170:179|171:245,2,160,2|2|2,0:2|0:2|0:2,0:0:0:0:
269,150,55788,2,0,P|278:230|279:310,1,160,2|0,0:2|0:2,0:0:0:0:
362,218,56413,2,0,P|363:141|366:120,1,80,2|0,0:2|0:2,0:0:0:0:
446,306,56830,2,0,P|449:228|467:114,2,160,2|0|0,0:2|0:2|0:2,0:0:0:0:
335,198,57872,5,2,0:2:0:0:
490,228,58080,1,2,0:2:0:0:
344,333,58288,1,2,0:2:0:0:
427,167,58497,6,0,P|375:111|279:121,1,160,6|0,0:2|0:2,0:0:0:0:
263,20,59122,2,0,P|207:72|217:168,1,160,2|0,0:2|0:2,0:0:0:0:
116,184,59747,2,0,P|168:239|264:230,1,160,2|2,0:2|0:2,0:0:0:0:
427,167,60372,6,0,P|436:220|427:270,1,80,4|0,0:2|0:2,0:0:0:0:
241,317,60788,2,0,P|239:277|247:238,1,80,4|0,0:2|0:2,0:0:0:0:
362,363,61205,1,10,0:2:0:0:
459,346,61413,2,0,P|416:286|300:285,1,160,10|0,0:2|0:2,0:0:0:0:
241,317,62038,1,2,0:2:0:0:
185,237,62247,2,0,P|146:304|164:381,2,160,8|0|0,0:2|0:2|0:2,0:0:0:0:
81,224,63288,1,10,0:2:0:0:
241,317,63497,1,8,0:2:0:0:
216,133,63705,6,0,P|227:79|239:37,1,80,4|8,0:1|0:2,0:0:0:0:
122,103,64122,1,2,0:2:0:0:
313,129,64330,1,8,3:3:0:0:
338,130,64434,1,8,3:3:0:0:
364,132,64538,1,8,3:3:0:0:
224,256,64747,1,8,3:3:0:0:
404,315,64955,6,0,P|377:268|345:249,1,80,2|8,0:2|3:3,0:0:0:0:
215,380,65372,2,0,P|254:383|291:369,1,80,0|0,0:2|0:2,0:0:0:0:
252,184,65788,2,0,P|230:216|223:255,1,80,8|0,3:3|0:2,0:0:0:0:
404,315,66205,2,0,P|377:268|345:249,1,80,0|8,0:2|3:3,0:0:0:0:
222,255,66622,1,4,0:1:0:0:
313,332,66830,1,8,3:3:0:0:
29,323,67038,6,0,P|15:286|8:247,1,80,6|0,3:2|0:2,0:0:0:0:
187,58,67455,2,0,P|178:97|164:134,1,80,4|0,3:2|0:2,0:0:0:0:
3,140,67872,1,8,0:2:0:0:
78,0,68080,2,0,P|86:95|82:111,1,80,2|0,3:2|0:2,0:0:0:0:
47,236,68497,6,0,P|37:274|36:314,1,80,2|0,3:2|0:2,0:0:0:0:
170,184,68913,1,0,0:2:0:0:
137,289,69122,2,0,P|204:290|232:277,2,80,0|0|0,3:2|0:2|0:2,0:0:0:0:
313,344,69747,1,8,0:2:0:0:
319,309,69851,1,8,0:2:0:0:
328,276,69955,1,8,0:2:0:0:
230,376,70163,1,8,3:3:0:0:
462,280,70372,6,0,P|471:219|469:180,1,80,6|0,0:2|0:2,0:0:0:0:
347,82,70788,2,0,P|348:121|355:161,1,80,12|0,3:3|0:2,0:0:0:0:
441,46,71205,1,8,0:2:0:0:
274,13,71413,2,0,P|223:18|180:35,1,80,0|0,3:2|0:2,0:0:0:0:
277,147,71830,6,0,P|315:158|355:161,1,80,0|0,3:2|0:2,0:0:0:0:
171,196,72247,1,8,0:2:0:0:
277,339,72455,2,0,P|265:300|262:260,1,80,0|0,3:2|0:2,0:0:0:0:
76,313,72872,2,0,P|114:301|154:298,1,80,8|0,0:2|0:2,0:0:0:0:
48,210,73288,1,0,0:2:0:0:
100,98,73497,1,0,3:2:0:0:
262,260,73705,6,0,P|262:190|249:157,1,80,4|0,3:2|0:2,0:0:0:0:
402,269,74122,2,0,P|395:308|399:347,1,80,0|0,3:2|0:2,0:0:0:0:
371,165,74538,1,8,0:2:0:0:
477,317,74747,2,0,L|480:356,1,40,0|0,0:0|0:0,0:0:0:0:
499,237,74955,5,0,0:2:0:0:
402,269,75163,1,0,3:2:0:0:
441,167,75372,1,0,3:2:0:0:
345,174,75580,1,8,0:2:0:0:
505,95,75788,5,4,0:2:0:0:
345,174,75997,1,8,3:3:0:0:
346,12,76205,1,0,0:2:0:0:
242,220,76413,2,0,P|208:238|168:243,1,80,0|8,3:2|3:3,0:0:0:0:
160,19,76830,2,0,P|199:24|234:43,1,80,0|0,0:2|0:2,0:0:0:0:
5,127,77247,5,2,0:2:0:0:
170,123,77455,1,0,3:2:0:0:
26,243,77663,1,0,0:2:0:0:
88,46,77872,1,8,0:2:0:0:
168,243,78080,1,0,0:2:0:0:
92,150,78288,1,2,0:2:0:0:
332,289,78497,6,0,P|345:228|385:124,1,160,4|0,3:2|0:2,0:0:0:0:
447,257,79122,1,8,0:2:0:0:
479,145,79330,1,2,0:2:0:0:
244,226,79538,5,4,0:2:0:0:
282,121,79747,1,0,0:2:0:0:
157,205,79955,2,0,P|163:261|192:308,1,80,0|0,3:2|0:2,0:0:0:0:
202,49,80372,1,4,0:2:0:0:
282,121,80580,1,0,0:2:0:0:
104,117,80788,2,0,P|51:114|4:97,1,80,0|0,3:2|0:2,0:0:0:0:
202,49,81205,2,0,P|240:36|302:33,1,80,8|0,0:2|0:2,0:0:0:0:
204,170,81622,5,0,0:2:0:0:
309,143,81830,1,8,3:3:0:0:
278,245,82038,2,0,P|276:297|293:350,1,80,0|0,0:2|3:2,0:0:0:0:
393,204,82455,1,0,0:2:0:0:
368,299,82663,1,8,0:2:0:0:
300,155,82872,2,0,L|305:105,2,40,8|0|0,3:3|0:0|0:2,0:0:0:0:
278,245,83288,1,0,0:0:0:0:
478,247,83497,6,0,L|472:75,1,160,10|0,3:3|0:2,0:0:0:0:
292,183,84122,2,0,L|287:263,1,80,2|0,0:2|0:0,0:0:0:0:
303,90,84538,1,12,0:2:0:0:
388,154,84747,2,4,P|405:104|423:74,1,80,0|0,0:2|0:2,0:0:0:0:
146,106,85163,6,0,P|234:87|307:91,1,160,4|0,3:2|0:2,0:0:0:0:
118,215,85788,1,0,0:2:0:0:
37,90,85997,1,0,0:2:0:0:
231,141,86205,2,0,L|219:37,1,80,12|0,0:2|0:2,0:0:0:0:
389,169,86622,2,0,L|408:91,1,80,8|0,3:3|0:2,0:0:0:0:
281,265,87038,5,4,3:2:0:0:
439,299,87247,1,0,0:2:0:0:
459,298,87351,1,0,0:2:0:0:
479,298,87455,1,4,0:2:0:0:
448,203,87663,1,0,0:2:0:0:
350,330,87872,1,8,0:2:0:0:
263,332,88080,2,0,P|295:263|379:250,1,160,0|0,3:2|0:2,0:0:0:0:
195,243,88705,1,0,0:2:0:0:
274,163,88913,1,0,3:2:0:0:
91,154,89122,6,0,P|140:138|184:130,1,80,4|0,3:2|0:2,0:0:0:0:
344,78,89538,2,0,P|295:62|251:54,1,80,8|0,0:2|0:2,0:0:0:0:
466,80,89955,1,8,3:3:0:0:
438,271,90163,2,0,L|441:164,1,80,8|0,3:3|0:2,0:0:0:0:
307,276,90580,2,0,L|310:356,1,80,8|0,3:3|0:2,0:0:0:0:
282,165,90996,1,2,0:2:0:0:
181,295,91205,5,0,3:2:0:0:
146,129,91413,1,0,3:2:0:0:
48,290,91622,1,8,0:2:0:0:
282,165,91830,5,6,0:2:0:0:
256,192,91934,12,0,93705,0:2:0:0:
