osu file format v14

[General]
AudioFilename: audio.mp3
AudioLeadIn: 0
PreviewTime: 155282
Countdown: 0
SampleSet: Soft
StackLeniency: 0.7
Mode: 0
LetterboxInBreaks: 0
WidescreenStoryboard: 0

[Editor]
Bookmarks: 59227,454751
DistanceSpacing: 1
BeatDivisor: 8
GridSize: 8
TimelineZoom: 3.299999

[Metadata]
Title:Magnetic
TitleUnicode:Magnetic
Artist:Juno Reactor
ArtistUnicode:Juno Reactor
Creator:PandaHero
Version:Insane
Source:
Tags:instrumental Beyond the Infinite electronic trance ambient electronica psytrance Brighton
BeatmapID:2788786
BeatmapSetID:1346647

[Difficulty]
HPDrainRate:6
CircleSize:5
OverallDifficulty:8
ApproachRate:9
SliderMultiplier:1.4
SliderTickRate:1

[Events]
//Background and Video events
0,0,"Ho1xrCcUK_U.jpg",0,0
//Break Periods
2,64087,67199
2,73088,74431
2,94731,102074
//Storyboard Layer 0 (Background)
//Storyboard Layer 1 (Fail)
//Storyboard Layer 2 (Pass)
//Storyboard Layer 3 (Foreground)
//Storyboard Layer 4 (Overlay)
//Storyboard Sound Samples

[TimingPoints]
1102,428.577551107873,4,2,0,15,1,0
59227,-1000,4,2,2,10,0,0
59602,-1000,4,2,2,5,0,0
62602,-1000,4,2,0,5,0,0
62612,-1000,4,2,2,10,0,0
63888,-1000,4,2,2,5,0,0
67799,-1000,4,2,2,10,0,0
69887,-1000,4,1,2,10,0,0
71603,-1000,4,2,0,10,0,0
71613,-1000,4,2,2,10,0,0
72031,-1000,4,2,0,10,0,0
72041,-1000,4,2,2,10,0,0
72460,-1000,4,2,0,5,0,0
72470,-1000,4,2,2,5,0,0
76745,-1000,4,2,2,10,0,0
77603,-1000,4,2,2,15,0,0
78460,-1000,4,2,2,20,0,0
81031,-1000,4,2,2,15,0,0
81674,-1000,4,2,2,10,0,0
82317,-1000,4,2,2,5,0,0
86174,-1000,4,2,0,5,0,0
86184,-1000,4,2,2,5,0,0
88317,-1000,4,2,0,5,0,0
88327,-1000,4,2,2,5,0,0
92174,-1000,4,2,0,5,0,0
92184,-1000,4,2,2,5,0,0
93889,-1000,4,2,0,5,0,0
93899,-1000,4,2,2,5,0,0
106103,-1000,4,1,2,10,0,0
106746,-1000,4,2,2,15,0,0
107389,-1000,4,1,2,20,0,0
108032,-1000,4,2,2,25,0,0
108674,-1000,4,2,2,5,0,0
109317,-1000,4,2,2,10,0,0
109960,-1000,4,2,2,15,0,0
110603,-1000,4,2,2,20,0,0
111460,-1000,4,2,2,25,0,0
112746,-1000,4,2,2,30,0,0
114139,-1000,4,2,2,10,0,0
114246,-200,4,2,0,10,0,0
115960,-200,4,2,0,15,0,0
117675,-200,4,2,0,17,0,0
121103,-200,4,2,0,19,0,0
127960,-142.857142857143,4,2,0,25,0,0
141675,-142.857142857143,4,3,0,20,0,0
148532,-142.857142857143,4,2,0,25,0,0
155389,-100,4,2,1,40,0,0
169104,-100,4,2,1,35,0,0
196104,-142.857142857143,4,2,1,20,0,0
196158,-142.857142857143,4,2,2,25,0,0
196211,-142.857142857143,4,2,1,40,0,0
196265,-142.857142857143,4,2,2,50,0,0
196319,-142.857142857143,4,2,1,60,0,0
196372,-142.857142857143,4,2,2,70,0,0
196426,-142.857142857143,4,2,1,20,0,0
196533,-100,4,2,1,35,0,0
210247,-100,4,2,1,40,0,0
220533,-100,4,2,1,45,0,1
223962,-83.3333333333333,4,2,1,50,0,0
235962,-83.3333333333333,4,2,1,55,0,1
237676,-83.3333333333333,4,2,1,45,0,0
237998,-83.3333333333333,4,2,2,45,0,0
242819,-83.3333333333333,4,2,2,45,0,0
243676,-83.3333333333333,4,2,1,40,0,0
247962,-83.3333333333333,4,2,2,40,0,0
249676,-83.3333333333333,4,2,2,45,0,0
251391,-71.4285714285714,4,2,1,55,0,1
258248,-83.3333333333333,4,2,1,45,0,0
258569,-83.3333333333333,4,2,2,45,0,0
265105,-142.857142857143,4,2,1,40,0,0
271963,-100,4,2,1,45,0,0
278820,-83.3333333333333,4,2,1,45,0,0
292534,-83.3333333333333,4,2,1,40,0,0
304534,-83.3333333333333,4,2,1,50,0,1
305392,-83.3333333333333,4,2,1,55,0,1
305820,-83.3333333333333,4,2,1,60,0,1
306142,-83.3333333333333,4,2,1,60,0,0
306249,-71.4285714285714,4,2,1,60,0,1
319535,-200,4,2,1,30,0,0
319963,-142.857142857143,4,1,0,20,0,0
330356,-142.857142857143,4,1,0,10,0,0
338821,-142.857142857143,4,1,0,15,0,0
340535,-142.857142857143,4,1,0,10,0,0
342249,-142.857142857143,4,1,0,15,0,0
343964,-142.857142857143,4,1,0,20,0,0
345678,-142.857142857143,4,1,0,15,0,0
347392,-111.111111111111,4,1,0,20,0,0
349106,-111.111111111111,4,1,0,15,0,0
350821,-111.111111111111,4,1,0,10,0,0
352535,-111.111111111111,4,1,0,15,0,0
354249,-111.111111111111,4,2,0,20,0,0
356821,-111.111111111111,4,1,0,15,0,0
358535,-111.111111111111,4,1,0,20,0,0
359821,-111.111111111111,4,2,0,15,0,0
361107,-111.111111111111,4,2,0,25,0,0
374821,-83.3333333333333,4,2,0,30,0,0
380821,-83.3333333333333,4,2,0,20,0,0
381678,-83.3333333333333,4,2,0,30,0,0
384678,-83.3333333333333,4,2,0,20,0,0
385107,-83.3333333333333,4,2,0,30,0,0
388536,-76.9230769230769,4,2,0,30,0,0
400536,-500,4,2,2,30,0,0
402250,-71.4285714285714,4,2,1,50,0,0
415965,-55.5555555555556,4,2,1,60,0,1
417679,-71.4285714285714,4,2,1,50,0,0
419393,-55.5555555555556,4,2,1,60,0,1
421108,-71.4285714285714,4,2,1,50,0,0
422822,-55.5555555555556,4,2,1,60,0,1
424536,-71.4285714285714,4,2,1,50,0,0
426250,-55.5555555555556,4,2,1,60,0,1
429679,-71.4285714285714,4,2,1,60,0,0
443394,-71.4285714285714,4,2,2,40,0,0
443501,-71.4285714285714,4,2,2,20,0,0
444894,-71.4285714285714,4,2,2,25,0,0
446179,-71.4285714285714,4,2,2,30,0,0
447251,-71.4285714285714,4,2,2,35,0,0
448536,-71.4285714285714,4,2,2,40,0,0
453679,-71.4285714285714,4,2,2,35,0,0
454108,-71.4285714285714,4,2,2,30,0,0
454751,-71.4285714285714,4,2,2,5,0,0

[Colours]
Combo1 : 209,46,50
Combo2 : 192,192,192
Combo3 : 128,128,128
Combo4 : 237,148,150

[HitObjects]
181,335,59227,5,4,1:0:0:0:
181,335,59602,2,0,L|337:357,1,140,0|0,1:0|0:0,0:0:0:0:
336,48,67799,5,4,1:0:0:0:
336,48,68174,2,0,L|184:66,1,154,0|0,1:0|0:0,0:0:0:0:
256,192,75031,12,0,83174,0:0:0:0:
257,46,84942,5,4,1:0:0:0:
257,46,85317,2,0,L|235:346,1,301,0|2,1:0|0:0,0:0:0:0:
290,200,102674,6,2,L|193:187,2,98,0|0|0,0:0|1:0|0:0,2:2:0:0:
256,192,108782,12,0,114139,1:0:0:0:
52,149,114353,5,0,0:0:0:0:
52,149,114460,2,0,P|62:187|71:221,1,70,0|0,3:0|1:0,0:0:0:0:
121,84,115210,1,0,0:0:0:0:
121,84,115317,1,0,0:0:0:0:
121,84,115425,1,0,3:0:0:0:
29,45,115639,1,0,0:0:0:0:
29,45,115746,1,0,3:0:0:0:
52,149,115960,6,0,L|67:193,1,35,0|0,1:0|0:0,0:0:0:0:
78,191,116282,2,0,L|65:249,1,52.5,0|0,3:0|1:0,0:0:0:0:
168,151,116925,1,0,0:0:0:0:
168,151,117032,1,0,0:0:0:0:
168,151,117139,1,0,3:0:0:0:
92,82,117353,1,0,0:0:0:0:
92,82,117460,1,0,3:0:0:0:
107,208,117675,5,0,1:0:0:0:
255,140,117889,1,0,0:0:0:0:
255,140,117996,2,0,L|230:82,1,52.5,0|0,3:0|1:0,0:0:0:0:
352,207,118639,1,0,0:0:0:0:
352,207,118746,1,0,0:0:0:0:
352,207,118853,1,0,3:0:0:0:
258,246,119067,1,0,0:0:0:0:
258,246,119175,1,0,3:0:0:0:
326,324,119389,6,0,L|370:315,1,35,0|0,1:0|0:0,0:0:0:0:
377,312,119710,2,0,L|439:323,1,52.5,0|0,3:0|1:0,0:0:0:0:
265,253,120353,1,0,0:0:0:0:
265,253,120460,1,0,0:0:0:0:
265,253,120567,1,0,3:0:0:0:
249,352,120782,1,0,0:0:0:0:
249,352,120889,1,0,3:0:0:0:
188,185,121103,5,0,1:0:0:0:
346,240,121318,1,0,0:0:0:0:
346,240,121425,2,0,L|290:263,1,52.5,0|0,3:0|1:0,0:0:0:0:
361,117,122068,1,0,0:0:0:0:
361,117,122175,1,0,0:0:0:0:
361,117,122282,1,0,3:0:0:0:
429,189,122496,1,0,0:0:0:0:
429,189,122603,1,0,3:0:0:0:
491,45,122818,6,0,L|449:40,1,35,0|0,1:0|0:0,0:0:0:0:
442,30,123139,2,0,L|375:39,1,52.5,0|0,3:0|1:0,0:0:0:0:
226,75,123782,1,0,0:0:0:0:
226,75,123889,1,0,0:0:0:0:
226,75,123996,1,0,3:0:0:0:
292,152,124210,1,0,0:0:0:0:
292,152,124318,1,0,3:0:0:0:
224,229,124532,5,0,1:0:0:0:
136,186,124746,1,0,0:0:0:0:
136,186,124853,1,0,3:0:0:0:
297,308,125175,1,0,1:0:0:0:
224,229,125496,1,0,0:0:0:0:
224,229,125603,1,0,0:0:0:0:
224,229,125710,1,0,3:0:0:0:
141,299,125925,1,0,0:0:0:0:
141,299,126032,1,0,3:0:0:0:
205,368,126246,6,0,L|221:307,2,52.5,0|0|0,1:0|3:0|1:0,0:0:0:0:
24,246,127210,1,0,0:0:0:0:
24,228,127318,1,0,0:0:0:0:
23,210,127425,1,0,3:0:0:0:
133,136,127639,1,0,0:0:0:0:
130,153,127746,1,0,3:0:0:0:
26,70,127960,6,0,B|50:28|50:28|115:24,1,97.9999970092774,0|0,1:0|3:0,0:0:0:0:
99,24,128603,1,0,1:0:0:0:
191,100,128818,1,0,3:0:0:0:
172,105,128925,1,0,3:0:0:0:
152,109,129032,1,0,3:0:0:0:
270,51,129246,1,0,1:0:0:0:
289,56,129353,1,0,1:0:0:0:
308,60,129460,2,0,L|303:84,2,16.3333328348796,0|0|0,3:0|3:0|3:0,3:0:0:0:
331,47,129675,6,0,B|304:93|304:93|334:145,1,97.9999970092774,0|0,1:0|3:0,0:0:0:0:
326,131,130318,1,0,1:0:0:0:
429,161,130532,2,0,L|435:132,2,24.4999992523194,0|0|0,3:0|3:0|3:0,0:0:0:0:
356,229,130960,1,0,1:0:0:0:
365,246,131068,1,0,3:0:0:0:
373,263,131175,1,0,3:0:0:0:
381,280,131282,1,0,3:0:0:0:
391,296,131389,6,0,B|341:274|341:274|284:294,1,97.9999970092774,0|0,1:0|3:0,0:0:0:0:
300,288,132032,1,0,1:0:0:0:
221,357,132246,1,0,3:0:0:0:
201,353,132353,1,0,3:0:0:0:
181,349,132461,1,0,3:0:0:0:
55,291,132675,1,0,1:0:0:0:
73,286,132782,1,0,1:0:0:0:
91,278,132889,2,0,L|86:251,2,16.3333328348796,0|0|0,3:0|3:0|3:0,3:0:0:0:
115,288,133103,6,0,B|134:246|134:246|110:184,1,97.9999970092774,0|0,1:0|3:0,0:0:0:0:
115,197,133746,1,0,1:0:0:0:
29,140,133961,2,0,L|20:178,2,24.4999992523194,0|0|0,3:0|3:0|3:0,3:0:0:0:
124,99,134389,1,0,1:0:0:0:
118,80,134496,1,0,3:0:0:0:
111,61,134603,1,0,3:0:0:0:
104,42,134711,1,0,3:0:0:0:
97,23,134818,6,0,B|52:43|52:43|-9:22,1,97.9999970092774,0|0,1:0|3:0,0:0:0:0:
5,27,135461,1,0,1:0:0:0:
17,130,135675,1,0,3:0:0:0:
35,135,135782,1,0,3:0:0:0:
53,141,135889,1,0,3:0:0:0:
166,199,136103,1,0,1:0:0:0:
147,205,136211,1,0,1:0:0:0:
128,211,136318,2,0,L|122:186,2,16.3333328348796,0|0|0,3:0|3:0|3:0,3:0:0:0:
101,207,136532,6,0,B|73:251|73:251|94:304,1,97.9999970092775,0|0,1:0|3:0,0:0:0:0:
89,293,137175,1,0,1:0:0:0:
170,350,137389,2,0,L|181:305,2,24.4999992523194,0|0|0,1:0|3:0|3:0,0:0:0:0:
294,261,137818,1,0,1:0:0:0:
298,280,137925,1,0,3:0:0:0:
301,299,138032,1,0,3:0:0:0:
305,317,138139,1,0,3:0:0:0:
311,335,138246,6,0,B|362:350|362:350|409:328,1,97.9999970092774,0|0,1:0|3:0,0:0:0:0:
402,330,138889,1,0,1:0:0:0:
465,252,139103,1,0,3:0:0:0:
445,247,139211,1,0,3:0:0:0:
425,243,139318,1,0,3:0:0:0:
330,175,139532,1,0,1:0:0:0:
348,167,139639,1,0,1:0:0:0:
366,161,139746,2,0,L|361:189,2,16.3333328348796,0|0|0,3:0|3:0|3:0,3:0:0:0:
392,162,139961,6,0,B|414:119|414:119|395:62,1,97.9999970092775,0|0,1:0|3:0,0:0:0:0:
398,71,140603,1,0,1:0:0:0:
298,40,140818,1,0,3:0:0:0:
279,46,140925,1,0,3:0:0:0:
260,52,141032,1,0,3:0:0:0:
199,131,141246,1,0,1:0:0:0:
179,128,141354,1,0,3:0:0:0:
159,124,141461,1,0,3:0:0:0:
139,120,141568,1,0,3:0:0:0:
102,120,141675,5,0,1:0:0:0:
66,129,141782,1,0,0:0:0:0:
49,161,141889,2,0,L|52:180,4,12.2499996261597,0|0|0|0|0,0:0|0:0|1:0|0:0|0:0,0:0:0:0:
122,224,142318,1,0,1:0:0:0:
122,224,142425,2,0,L|130:288,1,48.9999985046387,2|0,0:0|0:0,0:0:0:0:
134,291,142746,2,0,L|85:292,1,48.9999985046387,2|0,0:0|0:0,0:0:0:0:
85,291,143068,1,0,0:0:0:0:
85,291,143175,1,2,0:0:0:0:
207,354,143389,5,0,1:0:0:0:
237,333,143496,1,0,0:0:0:0:
241,296,143604,2,0,L|237:282,4,12.2499996261597,0|0|0|0|0,0:0|0:0|1:0|0:0|0:0,0:0:0:0:
325,361,144032,1,0,1:0:0:0:
325,361,144139,2,0,P|354:353|372:333,1,48.9999985046387,2|0,0:0|0:0,0:0:0:0:
368,320,144461,2,0,L|420:333,1,48.9999985046387
415,331,144782,1,0,0:0:0:0:
415,331,144889,1,2,0:0:0:0:
487,258,145104,5,0,1:0:0:0:
467,226,145211,1,0,0:0:0:0:
432,212,145318,2,0,L|430:228,4,12.2499996261597,0|0|0|0|0,0:0|0:0|1:0|0:0|0:0,0:0:0:0:
365,141,145746,1,0,1:0:0:0:
365,141,145854,2,0,L|308:155,1,48.9999985046387,2|0,0:0|0:0,0:0:0:0:
297,155,146175,2,0,L|311:107,1,48.9999985046387,2|0,0:0|0:0,0:0:0:0:
310,107,146496,1,0,0:0:0:0:
310,107,146604,1,2,0:0:0:0:
224,25,146818,5,0,1:0:0:0:
194,47,146925,1,0,0:0:0:0:
158,56,147032,2,0,L|143:52,4,12.2499996261597,0|0|0|0|0,0:0|0:0|1:0|0:0|0:0,0:0:0:0:
202,154,147461,1,0,1:0:0:0:
202,154,147568,1,2,0:0:0:0:
126,227,147782,1,0,0:0:0:0:
126,227,147889,1,2,0:0:0:0:
31,182,148104,1,0,0:0:0:0:
25,158,148211,1,0,0:0:0:0:
18,134,148318,1,2,0:0:0:0:
10,110,148425,1,0,0:0:0:0:
2,73,148532,5,2,1:2:0:0:
13,38,148639,1,0,3:0:0:0:
45,21,148746,1,0,3:0:0:0:
82,20,148854,1,0,1:0:0:0:
113,39,148961,2,0,L|151:30,1,24.4999992523194,0|0,3:0|0:0,0:0:0:0:
201,86,149175,1,2,1:3:0:0:
201,86,149282,2,0,L|157:102,1,24.4999992523194,0|0,3:0|0:0,0:0:0:0:
141,168,149496,1,0,3:0:0:0:
141,168,149604,2,0,L|158:198,1,24.4999992523194,0|0,3:0|0:0,0:0:0:0:
218,230,149818,1,0,0:0:0:0:
214,249,149925,1,0,0:0:0:0:
210,268,150032,1,0,3:0:0:0:
205,287,150139,1,0,3:0:0:0:
200,323,150246,5,2,1:2:0:0:
222,352,150354,1,0,0:0:0:0:
256,365,150461,1,0,3:0:0:0:
292,362,150568,1,0,3:0:0:0:
326,349,150675,2,0,L|325:311,1,24.4999992523194,0|0,3:0|0:0,0:0:0:0:
393,288,150889,1,2,1:3:0:0:
393,288,150996,2,0,L|397:326,1,24.4999992523194,0|0,3:0|0:0,0:0:0:0:
459,358,151211,1,0,3:0:0:0:
464,360,151318,2,0,L|468:326,1,24.4999992523194,0|0,3:0|0:0,0:0:0:0:
483,258,151532,1,0,0:0:0:0:
477,239,151639,1,0,0:0:0:0:
471,220,151747,1,0,3:0:0:0:
464,201,151854,1,0,3:0:0:0:
443,170,151961,5,2,1:2:0:0:
406,163,152068,1,0,0:0:0:0:
369,168,152175,1,0,3:0:0:0:
337,186,152282,1,0,3:0:0:0:
328,221,152389,2,0,L|338:267,1,24.4999992523194,0|0,3:0|0:0,0:0:0:0:
272,287,152604,1,2,1:3:0:0:
272,287,152711,2,0,L|247:255,1,24.4999992523194,0|0,3:0|0:0,0:0:0:0:
196,316,152925,1,0,3:0:0:0:
196,316,153032,2,0,L|221:354,1,24.4999992523194,0|0,3:0|0:0,0:0:0:0:
132,376,153247,1,0,0:0:0:0:
113,369,153354,1,0,0:0:0:0:
94,361,153461,1,0,3:0:0:0:
75,353,153568,1,0,3:0:0:0:
39,344,153675,5,2,1:2:0:0:
22,311,153782,1,0,0:0:0:0:
23,274,153889,1,0,3:0:0:0:
35,239,153997,1,0,3:0:0:0:
55,208,154104,2,0,L|99:217,1,24.4999992523194,0|0,3:0|0:0,0:0:0:0:
140,159,154318,1,2,1:3:0:0:
140,159,154425,2,0,L|97:145,1,24.4999992523194,0|0,3:0|0:0,0:0:0:0:
62,98,154639,1,0,3:0:0:0:
62,98,154747,2,0,L|19:112,1,24.4999992523194,0|0,3:0|0:0,0:0:0:0:
94,24,154961,1,0,0:0:0:0:
130,21,155068,1,0,0:0:0:0:
166,25,155175,1,0,3:0:0:0:
199,40,155282,1,0,3:0:0:0:
226,63,155389,6,0,L|213:155,1,70,4|0,1:3|3:0,0:0:0:0:
226,158,155711,1,0,1:0:0:0:
247,176,155818,1,4,1:3:0:0:
330,125,156032,1,2,1:2:0:0:
330,125,156139,2,0,L|341:82,1,35,2|0,1:0|0:0,0:0:0:0:
403,163,156354,2,0,L|419:115,1,35,2|0,1:0|0:0,0:0:0:0:
354,229,156568,2,0,P|359:273|386:307,1,70,8|0,1:2|0:0,0:0:0:0:
393,312,156889,1,0,1:0:0:0:
417,325,156997,1,0,1:0:0:0:
443,333,157104,6,0,L|470:252,1,70,4|0,1:3|3:0,0:0:0:0:
466,238,157425,1,0,1:0:0:0:
457,211,157532,1,4,1:3:0:0:
285,157,157747,1,2,0:0:0:0:
285,157,157854,1,0,1:0:0:0:
285,157,157961,2,0,L|275:215,1,35,4|0,1:3|1:0,0:0:0:0:
213,224,158175,1,2,0:0:0:0:
213,224,158282,2,0,P|191:171|174:136,1,70,0|0,1:0|1:0,0:0:0:0:
106,136,158604,1,2,1:0:0:0:
69,157,158711,1,0,1:0:0:0:
42,189,158818,6,0,L|113:203,1,70,4|0,1:3|3:0,0:0:0:0:
119,229,159139,1,0,1:0:0:0:
127,255,159247,1,4,1:3:0:0:
156,353,159461,1,2,0:0:0:0:
156,353,159568,2,0,L|107:355,1,35,2|0,1:0|0:0,0:0:0:0:
53,316,159782,2,0,L|7:318,1,35,2|0,1:0|0:0,0:0:0:0:
5,240,159997,2,0,P|10:170|13:152,1,70,8|0,1:2|0:0,0:0:0:0:
26,147,160318,1,0,1:0:0:0:
42,124,160425,1,0,1:0:0:0:
66,110,160532,6,0,P|62:144|61:179,1,70,4|0,1:3|3:0,0:0:0:0:
76,203,160854,1,0,1:0:0:0:
95,223,160961,1,4,1:3:0:0:
198,255,161175,1,2,0:0:0:0:
219,237,161282,1,0,1:0:0:0:
228,210,161390,1,4,1:3:0:0:
226,182,161497,1,0,1:0:0:0:
300,38,161711,2,0,P|304:83|327:123,1,70,0|0,1:0|1:0,0:0:0:0:
338,118,162032,1,2,1:0:0:0:
364,127,162140,1,0,1:0:0:0:
395,132,162247,6,0,L|492:115,1,70,4|0,1:3|3:0,0:0:0:0:
489,131,162568,1,0,1:0:0:0:
489,131,162675,2,0,L|475:203,1,70,4|2,1:3|0:0,0:0:0:0:
444,279,162997,1,2,1:0:0:0:
444,279,163104,1,4,1:3:0:0:
444,279,163211,2,0,P|406:244|364:232,1,70,2|8,1:0|1:2,0:0:0:0:
318,260,163532,2,0,L|269:273,1,35,4|0,1:3|0:0,0:0:0:0:
178,236,163747,2,0,L|230:220,1,35,0|0,1:0|1:0,0:0:0:0:
243,153,163961,6,0,P|246:87|222:34,1,105,4|0,1:3|1:0,0:0:0:0:
206,42,164390,1,4,1:3:0:0:
178,37,164497,1,2,0:0:0:0:
12,101,164711,1,0,1:0:0:0:
39,107,164818,1,4,1:3:0:0:
66,113,164925,1,0,0:0:0:0:
92,122,165032,1,2,0:0:0:0:
116,136,165140,2,0,L|97:196,1,35,0|4,1:0|0:3,0:0:0:0:
111,249,165354,1,0,1:0:0:0:
83,280,165461,1,2,1:0:0:0:
41,280,165568,1,0,1:0:0:0:
4,258,165675,6,0,L|-4:184,1,70,4|0,1:3|3:0,0:0:0:0:
4,161,165997,1,0,1:0:0:0:
14,134,166104,1,4,1:3:0:0:
222,132,166318,1,2,0:0:0:0:
213,158,166425,2,0,L|192:217,1,35,2|0,1:0|0:0,0:0:0:0:
232,257,166640,2,0,L|215:302,1,35,2|0,1:0|0:0,0:0:0:0:
311,222,166854,2,0,L|350:141,1,70,8|0,1:2|0:0,0:0:0:0:
380,144,167175,1,0,1:0:0:0:
421,150,167282,1,0,1:0:0:0:
457,170,167390,6,0,L|408:180,3,35,4|0|0|0,1:3|3:0|3:0|3:0,0:0:0:0:
495,242,167818,2,0,L|459:250,1,35,4|0,1:3|0:0,0:0:0:0:
386,273,168032,1,2,0:0:0:0:
361,306,168140,1,0,1:0:0:0:
352,347,168247,1,4,1:3:0:0:
381,377,168354,2,0,L|410:335,1,35,0|0,1:0|0:0,0:0:0:0:
268,198,168568,2,0,L|276:264,1,35,0|0,1:0|0:0,0:0:0:0:
182,151,168782,1,0,1:0:0:0:
187,109,168890,2,0,L|192:59,1,35,2|0,1:0|1:0,0:0:0:0:
117,33,169104,5,4,1:3:0:0:
117,33,169211,2,0,L|5:73,1,105,2|4,1:2|1:3,0:0:0:0:
142,172,169747,1,2,0:0:0:0:
142,172,169854,2,0,L|188:159,1,35,2|0,1:0|0:0,0:0:0:0:
240,210,170068,2,0,L|221:262,1,35,2|2,1:0|0:0,0:0:0:0:
176,352,170282,2,0,P|162:294|148:267,1,70,8|0,1:2|0:0,0:0:0:0:
132,272,170604,1,2,1:2:0:0:
104,265,170711,1,0,1:0:0:0:
76,266,170818,6,0,L|32:279,1,35,4|0,1:3|0:0,0:0:0:0:
8,211,171032,2,0,L|57:188,1,35,2|0,1:2|0:0,0:0:0:0:
90,140,171247,2,0,P|135:157|184:162,1,70,4|2,1:3|0:0,0:0:0:0:
231,140,171568,1,0,1:0:0:0:
231,140,171675,2,0,L|227:77,1,35,4|0,1:3|0:0,0:0:0:0:
301,182,171890,1,2,1:2:0:0:
301,182,171997,2,0,L|284:256,1,70,0|0,1:0|1:0,0:0:0:0:
314,321,172318,1,2,1:0:0:0:
354,332,172425,1,0,1:0:0:0:
395,326,172533,6,0,L|417:280,1,35,4|0,1:3|0:0,0:0:0:0:
477,257,172747,2,0,L|461:206,1,35,2|0,1:2|0:0,0:0:0:0:
401,120,172961,2,0,L|385:221,1,70,4|2,1:3|0:0,0:0:0:0:
323,233,173283,1,2,1:0:0:0:
323,233,173390,1,4,1:3:0:0:
323,233,173497,2,0,L|261:224,1,35,2|2,1:0|0:0,0:0:0:0:
234,175,173711,2,0,L|153:193,1,70,8|0,1:2|0:0,0:0:0:0:
93,164,174033,2,0,L|104:126,1,35,2|0,1:2|1:0,0:0:0:0:
136,54,174247,6,0,L|217:72,1,70,4|0,1:3|0:0,0:0:0:0:
232,70,174568,1,2,1:2:0:0:
257,58,174675,1,4,1:3:0:0:
406,128,174890,1,2,1:2:0:0:
380,139,174997,1,0,1:0:0:0:
355,153,175104,1,4,1:3:0:0:
329,165,175211,1,2,1:2:0:0:
168,220,175425,1,0,1:0:0:0:
291,359,175640,1,0,1:0:0:0:
309,321,175747,1,2,1:0:0:0:
289,283,175854,1,0,1:0:0:0:
252,262,175961,6,0,L|233:369,1,105,4|2,1:3|0:0,0:0:0:0:
233,365,176390,2,0,L|156:351,1,70,4|2,1:3|0:0,0:0:0:0:
114,301,176711,1,2,1:2:0:0:
114,301,176818,2,0,L|30:316,1,70,4|2,1:3|0:0,0:0:0:0:
1,249,177140,1,8,1:2:0:0:
11,222,177247,1,4,1:3:0:0:
20,195,177354,1,0,1:0:0:0:
29,168,177461,1,2,1:2:0:0:
38,141,177568,1,0,1:0:0:0:
48,114,177675,6,0,L|-9:111,2,35,4|0|0,1:3|0:0|0:0,0:0:0:0:
109,58,177997,1,2,1:2:0:0:
109,58,178104,2,0,L|180:76,1,70,4|2,1:3|0:0,0:0:0:0:
252,79,178425,1,2,1:0:0:0:
279,78,178533,1,4,1:3:0:0:
304,67,178640,2,0,L|314:17,1,35,2|0,1:0|0:0,0:0:0:0:
366,133,178854,2,0,L|382:89,1,35,0|0,1:0|0:0,0:0:0:0:
473,200,179068,1,0,1:0:0:0:
436,220,179175,1,2,1:0:0:0:
406,250,179283,1,0,1:0:0:0:
385,286,179390,6,0,L|401:380,1,70,4|0,1:3|0:0,0:0:0:0:
371,366,179711,1,2,1:2:0:0:
343,372,179818,1,4,1:3:0:0:
245,261,180033,1,2,1:2:0:0:
245,261,180140,2,0,L|257:201,1,35,2|0,1:0|0:0,0:0:0:0:
205,164,180354,2,0,L|220:111,1,35,0|2,1:0|0:0,0:0:0:0:
226,55,180568,2,0,L|157:66,1,70,8|0,1:2|1:0,0:0:0:0:
115,68,180890,1,2,1:2:0:0:
75,81,180997,1,0,1:0:0:0:
45,110,181104,6,0,L|112:114,1,35,4|0,1:3|0:0,0:0:0:0:
125,181,181318,2,0,L|78:188,1,35,2|0,1:2|0:0,0:0:0:0:
26,235,181533,2,0,L|35:325,1,70,4|2,1:3|0:0,0:0:0:0:
86,366,181854,1,2,1:0:0:0:
124,348,181961,1,4,1:3:0:0:
160,327,182068,2,0,L|169:273,1,35,2|2,1:0|0:0,0:0:0:0:
221,188,182283,2,0,L|237:273,1,70,0|0,1:0|1:0,0:0:0:0:
326,308,182604,2,0,L|353:291,1,17.5,2|0,1:0|0:0,0:0:0:0:
342,322,182711,2,0,L|366:305,1,17.5,0|0,1:0|0:0,0:0:0:0:
356,335,182818,6,0,B|424:290|424:290|460:324,1,105,0|0,1:0|0:0,0:0:0:0:
432,332,183247,2,0,L|358:373,1,70,2|2,0:3|0:0,0:0:0:0:
473,224,183676,1,0,1:0:0:0:
387,172,183890,1,0,0:3:0:0:
387,172,183997,1,2,0:3:0:0:
304,236,184211,1,0,0:3:0:0:
304,236,184318,1,2,0:3:0:0:
245,124,184533,6,0,B|200:56|200:56|234:20,1,105,0|0,1:0|0:0,0:0:0:0:
242,48,184961,2,0,L|289:121,1,70,2|2,0:3|0:0,0:0:0:0:
165,235,185390,1,0,1:0:0:0:
165,235,185604,2,0,L|164:155,1,70,2|2,0:3|0:0,0:0:0:0:
33,305,186033,1,2,0:3:0:0:
33,305,186140,1,0,3:0:0:0:
33,305,186247,6,0,B|112:321|112:321|114:370,1,105,0|0,1:0|0:0,0:0:0:0:
88,356,186676,2,0,L|8:337,1,70,2|2,0:3|0:0,0:0:0:0:
188,271,187104,1,0,1:0:0:0:
245,358,187318,1,0,0:0:0:0:
245,358,187426,1,2,0:3:0:0:
343,316,187640,1,0,0:0:0:0:
343,316,187747,1,2,0:3:0:0:
302,193,187961,6,0,B|318:113|318:113|367:111,1,105,0|0,1:0|0:0,0:0:0:0:
353,138,188390,2,0,L|334:218,1,70,2|2,0:3|0:0,0:0:0:0:
467,61,188818,1,0,1:0:0:0:
467,61,189033,2,0,L|370:40,1,70,2|0,0:3|0:0,0:0:0:0:
238,31,189461,1,2,0:3:0:0:
238,31,189568,1,0,3:0:0:0:
238,31,189676,6,0,L|254:117,1,70,4|0,1:3|0:0,0:0:0:0:
190,151,189997,1,0,1:0:0:0:
190,151,190104,2,0,L|195:201,1,35,2|0,1:3|0:0,0:0:0:0:
254,237,190318,2,0,L|246:276,1,35,2|0,1:2|0:0,0:0:0:0:
185,338,190533,1,0,1:0:0:0:
50,267,190747,1,0,3:0:0:0:
50,267,190854,1,2,1:3:0:0:
10,360,191068,1,0,3:0:0:0:
10,360,191176,1,2,1:3:0:0:
118,216,191390,6,0,L|99:125,1,70,4|0,1:3|0:0,0:0:0:0:
44,101,191711,1,0,1:0:0:0:
44,101,191819,2,0,L|50:50,1,35,2|0,1:3|0:0,0:0:0:0:
111,8,192033,2,0,L|120:52,1,35,2|0,1:2|0:0,0:0:0:0:
182,84,192247,2,0,P|240:77|272:57,1,70,0|2,1:0|0:3,0:0:0:0:
455,167,192676,2,0,L|407:158,1,35,0|0,1:0|0:0,0:0:0:0:
333,212,192890,2,0,L|397:224,1,35,2|0,1:3|0:0,0:0:0:0:
421,273,193104,6,0,L|403:366,1,70,4|0,1:3|0:0,0:0:0:0:
382,354,193426,1,0,1:0:0:0:
356,366,193533,1,2,1:3:0:0:
264,303,193747,1,2,1:2:0:0:
320,218,193961,1,0,1:0:0:0:
140,300,194176,1,0,3:0:0:0:
140,300,194283,1,2,0:3:0:0:
243,319,194497,1,0,3:0:0:0:
243,319,194604,1,2,0:3:0:0:
47,361,194819,5,0,1:0:0:0:
32,169,195033,1,2,1:2:0:0:
17,193,195140,1,0,1:0:0:0:
10,221,195247,1,2,1:3:0:0:
9,250,195354,1,0,1:0:0:0:
23,273,195461,2,0,L|63:280,1,35,2|0,1:2|0:0,0:0:0:0:
122,228,195676,1,0,1:0:0:0:
127,200,195783,2,0,L|118:168,2,17.5,0|0|0,3:0|3:0|3:0,3:0:0:0:
170,82,196104,6,2,P|215:77|242:55,1,73.4999977569581,4|0,1:3|0:0,2:2:0:0:
255,39,196533,6,2,L|172:15,1,70,4|0,1:2|0:0,0:0:0:0:
305,153,196961,1,4,1:3:0:0:
321,130,197069,1,0,1:0:0:0:
336,106,197176,1,2,0:0:0:0:
476,239,197390,1,4,1:3:0:0:
338,294,197604,1,0,1:0:0:0:
338,294,197711,1,0,1:0:0:0:
437,364,197926,1,0,1:0:0:0:
437,364,198033,1,2,1:2:0:0:
437,364,198140,1,0,3:0:0:0:
437,364,198247,6,2,L|422:277,1,70,4|0,1:3|0:0,0:0:0:0:
246,191,198676,1,4,1:3:0:0:
243,218,198783,1,0,1:0:0:0:
238,245,198890,1,2,0:0:0:0:
113,354,199104,1,4,1:3:0:0:
18,246,199319,1,0,1:0:0:0:
18,246,199426,1,0,1:0:0:0:
165,105,199640,1,0,1:0:0:0:
149,113,199747,1,2,1:2:0:0:
134,122,199854,1,0,3:0:0:0:
117,128,199961,6,2,L|29:139,1,70,4|0,1:2|0:0,0:0:0:0:
220,22,200390,1,4,1:3:0:0:
247,25,200497,1,0,1:0:0:0:
275,26,200604,1,2,0:0:0:0:
392,130,200819,1,4,1:3:0:0:
207,242,201033,1,0,1:0:0:0:
207,242,201140,1,0,1:0:0:0:
311,360,201354,1,0,1:0:0:0:
311,360,201462,1,2,1:2:0:0:
311,360,201569,1,0,3:0:0:0:
311,360,201676,6,2,L|309:270,1,70,4|0,1:3|0:0,0:0:0:0:
112,191,202104,1,4,1:3:0:0:
109,218,202212,1,0,1:0:0:0:
106,245,202319,1,2,0:0:0:0:
95,348,202533,1,4,1:3:0:0:
1,207,202747,1,0,1:0:0:0:
1,207,202854,1,0,1:0:0:0:
183,65,203069,1,0,1:0:0:0:
190,80,203176,1,2,1:2:0:0:
195,96,203283,1,0,3:0:0:0:
202,111,203390,6,2,L|217:195,1,70,4|0,1:2|0:0,0:0:0:0:
358,355,203819,1,4,1:3:0:0:
365,328,203926,1,0,1:0:0:0:
370,300,204033,1,2,0:0:0:0:
472,143,204247,1,4,1:3:0:0:
354,85,204462,1,0,1:0:0:0:
354,85,204569,1,0,1:0:0:0:
203,296,204783,1,0,1:0:0:0:
203,296,204890,1,2,1:2:0:0:
203,296,204997,1,0,3:0:0:0:
203,296,205104,6,2,L|279:285,1,70,4|0,1:3|0:0,0:0:0:0:
91,150,205533,1,4,1:3:0:0:
63,155,205640,1,0,1:0:0:0:
35,162,205747,1,2,0:0:0:0:
256,33,205962,1,4,1:3:0:0:
213,162,206176,1,0,1:0:0:0:
213,162,206283,1,0,1:0:0:0:
275,367,206497,1,0,1:0:0:0:
277,349,206604,1,2,1:2:0:0:
277,331,206712,1,0,3:0:0:0:
277,313,206819,6,2,L|268:227,1,70,4|0,1:2|0:0,0:0:0:0:
464,229,207247,1,4,1:3:0:0:
460,257,207354,1,0,1:0:0:0:
456,284,207462,1,2,0:0:0:0:
349,133,207676,1,4,1:3:0:0:
452,57,207890,1,0,1:0:0:0:
452,57,207997,1,0,1:0:0:0:
232,167,208212,1,0,1:0:0:0:
232,167,208319,1,2,1:2:0:0:
232,167,208426,1,0,3:0:0:0:
232,167,208533,6,2,L|136:157,1,70,4|0,1:3|0:0,0:0:0:0:
13,57,208962,1,4,1:3:0:0:
40,52,209069,1,0,1:0:0:0:
67,47,209176,1,2,0:0:0:0:
261,22,209390,1,4,1:3:0:0:
293,251,209604,1,0,1:0:0:0:
293,251,209712,1,0,1:0:0:0:
72,278,209926,1,0,1:0:0:0:
54,280,210033,1,2,1:2:0:0:
36,281,210140,1,0,3:0:0:0:
18,282,210247,6,0,L|34:205,1,70,4|0,1:2|0:0,0:0:0:0:
201,357,210676,2,0,L|102:374,1,70,8|2,1:2|0:0,0:0:0:0:
206,220,211105,1,4,1:3:0:0:
233,224,211212,1,0,1:0:0:0:
260,229,211319,1,2,1:3:0:0:
287,233,211426,1,2,1:3:0:0:
314,237,211533,2,0,L|400:218,1,70,8|2,1:2|0:0,0:0:0:0:
474,292,211962,5,4,1:3:0:0:
387,348,212176,1,2,0:0:0:0:
397,144,212390,1,8,1:2:0:0:
407,117,212497,1,0,1:0:0:0:
414,89,212605,1,2,1:2:0:0:
426,63,212712,1,0,1:0:0:0:
435,36,212819,2,0,L|451:4,1,35,4|0,1:3|0:0,0:0:0:0:
319,91,213033,1,2,0:3:0:0:
291,95,213140,1,2,0:3:0:0:
263,100,213247,1,8,1:2:0:0:
234,98,213355,1,0,1:0:0:0:
206,91,213462,1,2,1:2:0:0:
180,79,213569,1,0,1:0:0:0:
156,64,213676,6,0,L|90:21,1,70,4|0,1:3|0:0,0:0:0:0:
15,175,214105,1,8,1:2:0:0:
42,178,214212,1,0,1:0:0:0:
67,190,214319,1,2,1:2:0:0:
90,205,214426,1,0,1:0:0:0:
101,230,214533,2,0,L|88:279,3,35,4|0|2|2,1:3|3:0|0:3|0:3,0:0:0:0:
187,227,214962,2,0,L|181:171,3,35,8|0|2|0,1:2|3:0|3:2|3:0,0:0:0:0:
212,315,215390,6,0,P|231:355|284:363,1,70,4|0,1:3|0:0,0:0:0:0:
413,331,215819,1,8,1:2:0:0:
409,303,215926,1,0,1:0:0:0:
391,281,216033,1,2,1:2:0:0:
370,262,216140,1,0,1:0:0:0:
342,254,216247,2,0,L|296:249,1,35,4|0,1:3|0:0,0:0:0:0:
355,159,216462,1,2,1:3:0:0:
379,171,216569,1,2,1:3:0:0:
405,180,216676,1,8,1:2:0:0:
432,181,216783,1,0,1:0:0:0:
459,176,216890,1,2,1:2:0:0:
479,159,216997,1,0,1:0:0:0:
484,131,217105,6,0,L|461:32,1,70,4|0,1:3|0:0,0:0:0:0:
282,16,217533,2,0,L|274:149,1,105,8|0,1:2|0:0,0:0:0:0:
264,146,217962,1,4,1:3:0:0:
246,167,218069,1,0,1:0:0:0:
220,178,218176,1,2,1:3:0:0:
192,183,218283,1,2,1:3:0:0:
164,180,218390,2,0,L|110:168,1,35,8|0,1:2|0:0,0:0:0:0:
63,129,218605,1,2,1:2:0:0:
35,127,218712,1,0,1:0:0:0:
13,144,218819,6,0,L|24:231,1,70,4|0,1:3|0:0,0:0:0:0:
144,346,219247,2,0,L|199:330,3,35,8|0|2|0,1:2|3:0|3:2|3:0,0:0:0:0:
237,260,219676,2,0,L|292:276,3,35,4|0|2|2,1:3|3:0|3:0|3:0,0:0:0:0:
322,344,220105,1,8,1:2:0:0:
348,351,220212,1,0,1:0:0:0:
375,357,220319,1,2,0:2:0:0:
402,352,220426,1,0,1:0:0:0:
428,342,220533,6,0,L|417:299,1,35,4|2,1:3|0:0,0:0:0:0:
473,260,220747,2,0,L|460:210,1,35,2|0,1:2|0:0,0:0:0:0:
453,149,220962,1,8,1:2:0:0:
426,139,221069,1,2,1:2:0:0:
447,121,221176,1,2,1:2:0:0:
421,110,221283,1,2,1:2:0:0:
398,64,221390,5,4,1:3:0:0:
359,81,221498,1,2,1:2:0:0:
318,91,221605,1,2,1:3:0:0:
276,82,221712,1,2,1:3:0:0:
235,43,221819,5,8,1:2:0:0:
193,36,221926,1,2,1:2:0:0:
151,40,222033,1,2,1:2:0:0:
112,57,222140,1,2,1:2:0:0:
74,98,222248,5,4,1:3:0:0:
125,120,222355,1,2,1:2:0:0:
135,175,222462,1,2,1:0:0:0:
93,212,222569,1,2,1:2:0:0:
48,185,222676,5,8,1:2:0:0:
94,153,222783,1,2,1:2:0:0:
148,163,222890,1,2,1:0:0:0:
183,205,222998,1,2,1:2:0:0:
201,265,223105,5,4,1:3:0:0:
238,306,223212,1,2,1:2:0:0:
292,318,223319,1,2,1:0:0:0:
343,297,223426,1,2,1:2:0:0:
394,260,223533,5,8,1:2:0:0:
449,270,223640,1,2,1:2:0:0:
471,321,223748,2,0,L|464:336,2,17.5,2|0|0,1:0|3:0|3:0,3:0:0:0:
417,381,223962,6,0,L|446:245,1,125.999996154785,4|2,1:0|0:3,0:0:0:0:
450,224,224390,1,4,1:3:0:0:
374,168,224605,1,2,0:3:0:0:
464,111,224819,1,4,1:3:0:0:
261,191,225033,1,2,0:3:0:0:
228,184,225140,1,2,0:3:0:0:
194,179,225248,1,4,1:3:0:0:
279,84,225462,1,2,0:3:0:0:
69,224,225676,6,0,L|40:88,1,125.999996154785,4|2,1:3|0:3,0:0:0:0:
36,67,226105,1,4,1:3:0:0:
112,11,226319,1,2,0:3:0:0:
279,84,226533,1,4,1:3:0:0:
201,242,226748,1,2,0:3:0:0:
190,274,226855,1,2,0:3:0:0:
177,305,226962,2,0,L|185:350,1,41.9999987182618,4|0,1:3|0:0,0:0:0:0:
303,365,227176,2,0,L|308:329,2,20.9999993591309,2|0|0,3:3|3:0|3:0,3:0:0:0:
335,272,227390,6,0,L|465:295,1,125.999996154785,4|2,1:2|0:3,0:0:0:0:
483,317,227819,2,0,L|459:219,1,83.9999974365235,4|2,1:3|0:3,0:0:0:0:
420,122,228248,1,4,1:3:0:0:
262,144,228462,1,2,0:3:0:0:
262,144,228569,1,2,0:3:0:0:
283,246,228783,1,2,0:3:0:0:
283,246,228890,1,2,0:3:0:0:
216,48,229105,6,0,L|67:69,1,125.999996154785,4|2,1:3|0:3,0:0:0:0:
66,42,229533,2,0,L|39:142,1,83.9999974365235,4|2,1:3|0:3,0:0:0:0:
15,236,229962,1,4,1:3:0:0:
152,202,230176,1,2,0:3:0:0:
183,191,230283,1,2,0:3:0:0:
215,182,230390,2,0,L|262:184,1,41.9999987182618,4|0,1:3|0:0,0:0:0:0:
377,269,230605,2,0,L|341:272,2,20.9999993591309,2|0|0,3:0|3:0|3:0,3:0:0:0:
307,365,230819,6,0,L|317:231,1,125.999996154785,4|2,1:0|0:3,0:0:0:0:
329,208,231248,1,4,1:3:0:0:
446,166,231462,1,2,1:3:0:0:
205,19,231676,2,0,L|195:153,1,125.999996154785,4|2,1:3|0:3,0:0:0:0:
183,176,232105,1,4,1:3:0:0:
64,199,232319,1,2,1:3:0:0:
151,266,232533,6,0,L|129:377,1,83.9999974365235,4|0,1:3|0:0,0:0:0:0:
134,348,232855,1,2,1:3:0:0:
134,348,232962,1,4,1:3:0:0:
25,224,233176,2,0,L|22:168,1,41.9999987182618,2|0,1:3|0:0,0:0:0:0:
81,126,233391,2,0,L|76:78,1,41.9999987182618,4|0,1:3|0:0,0:0:0:0:
214,26,233605,1,2,1:3:0:0:
210,59,233712,1,2,1:3:0:0:
204,92,233819,2,0,L|195:152,1,41.9999987182618,4|0,1:3|0:0,0:0:0:0:
317,150,234033,2,0,L|313:111,2,20.9999993591309,2|0|0,1:3|3:0|3:0,3:0:0:0:
329,225,234248,6,0,L|473:208,1,125.999996154785,4|2,1:2|0:3,0:0:0:0:
483,227,234676,1,4,1:3:0:0:
423,347,234891,1,2,1:3:0:0:
389,344,234998,1,2,1:3:0:0:
355,341,235105,2,0,L|304:336,1,41.9999987182618,4|0,1:3|0:0,0:0:0:0:
145,259,235319,1,2,1:3:0:0:
177,251,235426,1,2,1:3:0:0:
207,237,235533,1,4,1:3:0:0:
230,213,235641,1,0,0:0:0:0:
243,182,235748,1,2,1:3:0:0:
247,148,235855,1,0,0:0:0:0:
245,114,235962,6,0,L|234:53,1,41.9999987182618,4|0,1:3|0:0,0:0:0:0:
160,31,236176,2,0,L|171:99,1,41.9999987182618,2|0,1:2|0:0,0:0:0:0:
321,204,236391,6,0,L|332:134,1,41.9999987182618,8|0,1:2|0:0,0:0:0:0:
410,129,236605,2,0,L|401:189,1,41.9999987182618,2|0,1:2|0:0,0:0:0:0:
201,257,236819,5,4,1:3:0:0:
157,232,236926,1,2,1:2:0:0:
107,224,237033,1,2,1:0:0:0:
57,234,237141,1,2,1:2:0:0:
26,274,237248,5,8,1:2:0:0:
35,297,237355,1,2,1:2:0:0:
44,320,237462,1,2,1:0:0:0:
53,343,237569,1,2,1:2:0:0:
59,367,237676,6,0,B|93:275|93:275|70:238,2,125.999996154785,4|8|8,1:3|0:0|0:0,0:0:0:0:
160,248,238533,2,0,B|126:156|126:156|149:119,2,125.999996154785,0|8|8,1:0|0:0|0:0,0:0:0:0:
162,50,239391,6,0,B|183:42|183:42|285:93,1,125.999996154785,0|8,1:0|0:0,0:0:0:0:
348,138,239926,1,0,1:0:0:0:
348,138,240033,1,8,0:0:0:0:
427,91,240248,5,4,1:3:0:0:
378,15,240462,1,2,0:3:0:0:
378,15,240569,1,2,1:3:0:0:
294,49,240783,1,0,0:0:0:0:
294,49,240891,1,2,1:3:0:0:
318,130,241105,6,0,B|284:222|284:222|307:259,2,125.999996154785,4|8|8,1:2|0:0|0:0,0:0:0:0:
410,367,241962,2,0,B|444:275|444:275|421:238,2,125.999996154785,4|8|8,1:2|0:0|0:0,0:0:0:0:
374,186,242819,5,0,1:0:0:0:
464,143,243034,1,0,0:0:0:0:
464,143,243141,1,2,1:3:0:0:
381,81,243355,1,0,0:0:0:0:
381,81,243462,1,2,1:3:0:0:
209,116,243676,6,0,L|303:130,1,83.9999974365235,4|2,1:3|0:3,0:0:0:0:
292,128,243998,1,2,0:3:0:0:
292,128,244105,1,8,0:0:0:0:
196,227,244319,1,2,1:2:0:0:
125,149,244534,6,0,L|108:12,1,125.999996154785,4|2,1:3|0:0,0:0:0:0:
24,89,245069,1,0,1:0:0:0:
24,89,245176,1,2,1:3:0:0:
37,186,245391,2,0,L|54:286,1,83.9999974365235,4|2,1:3|0:3,0:0:0:0:
51,268,245712,1,2,0:3:0:0:
51,268,245819,1,8,1:2:0:0:
180,201,246034,1,2,1:2:0:0:
370,307,246248,6,0,B|337:304|337:304|256:356,1,125.999996154785,4|2,1:3|0:3,0:0:0:0:
259,354,246676,2,0,L|249:252,1,83.9999974365235,4|2,1:3|0:3,0:0:0:0:
450,220,247105,1,4,1:3:0:0:
454,322,247319,1,2,0:3:0:0:
454,322,247426,1,2,1:3:0:0:
369,285,247641,1,2,0:3:0:0:
369,285,247748,1,2,1:3:0:0:
350,186,247962,6,0,B|258:220|258:220|221:197,2,125.999996154785,4|8|8,1:2|0:0|0:0,0:0:0:0:
156,222,248819,2,0,B|172:125|172:125|210:104,2,125.999996154785,4|8|8,1:2|0:0|0:0,0:0:0:0:
203,25,249676,6,0,B|278:87|278:87|277:131,1,125.999996154785,4|8,1:2|0:0,0:0:0:0:
277,115,250105,2,0,L|305:32,1,83.9999974365235,0|8,1:0|0:0,0:0:0:0:
383,188,250534,2,0,B|307:250|307:250|308:278,1,125.999996154785,4|8,1:2|0:0,0:0:0:0:
308,278,250962,2,0,L|281:198,1,83.9999974365235,0|8,1:0|0:0,0:0:0:0:
172,330,251391,5,4,1:2:0:0:
131,356,251498,1,2,1:2:0:0:
84,338,251605,1,2,1:2:0:0:
65,292,251712,1,2,1:2:0:0:
88,248,251819,2,0,L|144:233,2,48.9999985046387,8|2|2,1:2|0:0|1:0,0:0:0:0:
17,218,252141,1,2,1:2:0:0:
17,218,252248,2,0,L|1:136,1,48.9999985046387,4|2,1:3|0:0,0:0:0:0:
50,120,252462,2,0,L|39:63,1,48.9999985046387,2|2,1:0|0:0,0:0:0:0:
93,17,252677,1,8,1:2:0:0:
153,48,252784,2,0,L|265:32,1,97.9999970092774,2|2,1:0|0:0,0:0:0:0:
312,75,253105,5,4,1:3:0:0:
312,75,253319,1,2,1:2:0:0:
312,75,253427,2,0,L|296:135,1,48.9999985046387,2|8,1:0|0:0,0:0:0:0:
367,182,253641,2,0,L|382:119,1,48.9999985046387,2|0,1:0|0:0,0:0:0:0:
272,209,253855,2,0,L|279:271,1,48.9999985046387,2|4,1:0|0:3,0:0:0:0:
352,287,254069,2,0,L|351:246,2,24.4999992523194,2|0|0,3:0|3:0|3:0,3:0:0:0:
404,337,254284,1,2,1:2:0:0:
465,308,254391,2,0,L|459:281,1,24.4999992523194,8|0,1:2|0:0,0:0:0:0:
484,324,254498,2,0,L|477:353,1,24.4999992523194,2|0,1:0|0:0,0:0:0:0:
443,319,254605,5,2,1:2:0:0:
419,276,254712,1,2,1:2:0:0:
426,227,254819,1,4,1:3:0:0:
450,184,254927,2,0,P|463:161|484:129,1,48.9999985046387,2|2,1:0|0:0,0:0:0:0:
359,197,255141,1,2,1:0:0:0:
359,197,255248,2,0,L|287:184,1,48.9999985046387,8|2,1:2|0:0,0:0:0:0:
249,147,255462,5,2,1:0:0:0:
228,102,255569,1,2,1:2:0:0:
237,53,255677,1,4,1:3:0:0:
276,24,255784,1,2,1:2:0:0:
324,28,255891,2,0,L|377:37,1,48.9999985046387,2|2,1:3|0:3,0:0:0:0:
394,101,256105,1,8,1:2:0:0:
325,107,256212,1,2,1:0:0:0:
284,162,256319,5,2,1:2:0:0:
330,176,256427,1,2,1:2:0:0:
348,221,256534,2,0,L|325:300,1,48.9999985046387,4|2,1:3|0:0,0:0:0:0:
274,308,256748,1,2,1:0:0:0:
274,308,256855,2,0,L|241:247,1,48.9999985046387,2|8,1:0|0:0,0:0:0:0:
188,221,257069,2,0,L|179:292,1,48.9999985046387,2|2,1:0|0:0,0:0:0:0:
129,313,257284,1,2,1:0:0:0:
82,296,257391,1,4,1:3:0:0:
81,247,257498,2,0,L|92:216,2,24.4999992523194,2|2|2,1:3|0:0|0:0,0:0:0:0:
14,266,257712,5,2,1:0:0:0:
54,314,257819,2,0,L|54:274,1,24.4999992523194,8|0,1:2|0:0,0:0:0:0:
39,331,257927,2,0,L|48:363,1,24.4999992523194,2|0,1:0|0:0,0:0:0:0:
15,303,258034,5,2,1:2:0:0:
20,254,258141,1,2,1:0:0:0:
28,212,258248,6,0,B|50:192|50:192|44:115|44:115|82:94,2,125.999996154785,4|8|8,1:0|0:0|0:0,0:0:0:0:
117,10,259105,2,0,B|139:30|139:30|133:106|133:106|171:127,2,125.999996154785,0|8|8,1:0|0:0|0:0,0:0:0:0:
165,205,259962,6,0,B|185:183|185:183|261:188|261:188|282:150,1,125.999996154785,0|8,1:0|0:0,0:0:0:0:
298,140,260391,1,0,1:0:0:0:
261,63,260605,1,8,0:0:0:0:
381,165,260819,2,0,B|354:190|354:190|346:260,1,83.9999974365235,0|0,1:0|0:0,0:0:0:0:
348,236,261141,1,8,0:0:0:0:
348,236,261248,1,0,1:0:0:0:
442,325,261462,1,8,0:0:0:0:
489,250,261677,6,0,B|503:208|503:208|465:117,1,125.999996154785,0|8,1:0|0:0,0:0:0:0:
447,110,262105,1,0,1:0:0:0:
354,148,262320,1,8,0:0:0:0:
242,89,262534,2,0,B|251:60|251:60|324:35|324:35|328:-7,2,125.999996154785,0|8|8,1:0|0:0|0:0,0:0:0:0:
188,242,263391,6,0,B|166:222|166:222|171:145|171:145|133:124,2,125.999996154785,4|8|8,1:2|0:0|0:0,0:0:0:0:
299,362,264248,2,0,B|321:342|321:342|315:265|315:265|353:244,2,125.999996154785,4|8|8,1:2|0:0|0:0,0:0:0:0:
161,371,265105,6,0,B|125:344|125:344|66:352,1,97.9999970092774,4|0,1:2|1:0,0:0:0:0:
21,295,265748,1,0,1:0:0:0:
21,295,265855,1,2,0:0:0:0:
90,240,266070,1,2,0:0:0:0:
6,185,266284,2,0,L|10:219,2,24.4999992523194,0|0|0,1:0|0:0|0:0,0:0:0:0:
57,133,266605,2,0,L|48:101,1,24.4999992523194,0|0,1:0|0:0,0:0:0:0:
84,31,266820,6,0,B|120:58|120:58|179:50,1,97.9999970092774,4|0,1:2|1:0,0:0:0:0:
394,104,267570,2,0,L|356:107,2,24.4999992523194,2|0|2,0:0|1:0|0:0,0:0:0:0:
289,175,267998,1,2,0:0:0:0:
418,235,268212,1,0,1:0:0:0:
433,243,268320,1,2,1:0:0:0:
448,249,268427,1,0,1:0:0:0:
463,257,268534,6,0,B|490:221|490:221|482:162,1,97.9999970092774,4|0,1:0|1:0,0:0:0:0:
363,97,269177,1,0,1:0:0:0:
363,97,269284,1,2,0:0:0:0:
282,149,269498,1,2,0:0:0:0:
247,56,269712,2,0,L|288:61,2,24.4999992523194,2|0|2,0:0|1:0|0:0,0:0:0:0:
190,21,270034,2,0,L|157:26,1,24.4999992523194,2|0,0:0|0:0,0:0:0:0:
105,66,270248,6,0,B|132:102|132:102|124:161,1,97.9999970092774,0|0,1:0|1:0,0:0:0:0:
280,319,270998,2,0,L|290:276,2,24.4999992523194,2|0|2,0:0|1:0|0:0,0:0:0:0:
197,362,271427,1,2,0:0:0:0:
94,316,271641,1,0,1:0:0:0:
78,309,271748,1,2,1:0:0:0:
61,304,271855,1,0,1:0:0:0:
44,299,271963,6,0,P|34:231|34:199,1,70,4|0,1:3|0:0,0:0:0:0:
52,200,272284,2,0,P|42:143|34:121,1,70,2|0,1:2|0:0,0:0:0:0:
18,107,272605,1,2,1:2:0:0:
18,107,272713,2,0,L|97:121,1,70,0|0,1:0|1:0,0:0:0:0:
181,128,273141,1,2,0:0:0:0:
181,128,273248,2,0,P|168:73|155:36,1,70,0|2,1:0|0:0,0:0:0:0:
235,209,273677,6,0,P|287:205|314:194,1,70,4|0,1:3|0:0,0:0:0:0:
326,225,273998,2,0,P|378:229|430:250,1,105,2|2,1:2|1:2,0:0:0:0:
446,256,274427,1,0,1:0:0:0:
461,270,274534,1,0,1:0:0:0:
468,289,274641,2,0,L|445:332,1,35,0|0,1:0|0:0,0:0:0:0:
373,350,274855,2,0,L|396:307,1,35,2|0,1:2|0:0,0:0:0:0:
333,286,275070,1,0,1:0:0:0:
302,303,275177,1,2,1:0:0:0:
268,313,275284,1,0,1:0:0:0:
235,324,275391,6,0,P|165:318|144:311,1,70,4|0,1:3|0:0,0:0:0:0:
145,289,275713,2,0,P|75:295|54:302,1,70,2|0,1:2|0:0,0:0:0:0:
44,311,276034,1,2,1:2:0:0:
44,311,276141,2,0,P|33:255|32:220,1,70,0|0,1:0|1:0,0:0:0:0:
104,137,276570,1,2,1:2:0:0:
104,137,276677,2,0,P|115:193|116:228,1,70,0|2,1:0|0:0,0:0:0:0:
106,18,277105,6,0,P|53:45|0:55,1,105,4|2,1:3|0:0,0:0:0:0:
34,77,277534,2,0,P|76:70|107:73,1,70,0|2,1:0|0:0,0:0:0:0:
254,47,277963,1,0,1:0:0:0:
254,47,278070,2,0,L|239:-20,1,35,0|0,1:0|0:0,0:0:0:0:
327,83,278284,2,0,P|314:124|310:168,1,70,2|0,1:2|1:0,0:0:0:0:
328,180,278605,1,2,1:0:0:0:
361,191,278713,1,0,1:0:0:0:
402,193,278820,6,0,P|428:181|478:147,1,83.9999974365235,4|2,1:3|0:0,0:0:0:0:
336,254,279248,2,0,P|345:310|349:358,1,83.9999974365235,8|0,1:2|0:0,0:0:0:0:
326,363,279570,1,0,1:0:0:0:
326,363,279677,2,0,P|274:351|228:335,1,83.9999974365235,4|2,1:3|0:0,0:0:0:0:
109,278,280105,1,8,1:2:0:0:
141,268,280213,1,0,1:0:0:0:
167,247,280320,1,0,1:0:0:0:
185,219,280427,1,0,1:0:0:0:
193,186,280534,6,0,P|188:127|176:68,1,83.9999974365235,4|2,1:3|0:0,0:0:0:0:
28,27,280963,2,0,P|33:86|45:145,1,83.9999974365235,8|2,1:2|0:0,0:0:0:0:
55,143,281284,1,0,1:0:0:0:
84,158,281391,2,0,L|134:128,1,41.9999987182618,4|0,1:3|0:0,0:0:0:0:
163,77,281606,2,0,L|147:14,1,41.9999987182618,2|0,1:2|0:0,0:0:0:0:
249,74,281820,2,0,P|243:163|248:182,1,83.9999974365235,8|2,1:2|1:0,0:0:0:0:
263,182,282141,1,0,1:0:0:0:
284,207,282248,6,0,P|230:213|166:240,1,83.9999974365235,4|2,1:3|0:0,0:0:0:0:
342,288,282677,2,0,P|396:282|460:255,1,83.9999974365235,8|2,1:2|0:0,0:0:0:0:
456,266,282998,1,0,1:0:0:0:
456,266,283106,2,0,P|472:314|474:353,1,83.9999974365235,4|2,1:3|0:0,0:0:0:0:
385,195,283534,1,8,1:2:0:0:
380,161,283641,1,0,1:0:0:0:
385,127,283748,1,0,1:0:0:0:
398,95,283856,1,0,1:0:0:0:
415,66,283963,6,0,P|439:35|489:-1,2,83.9999974365235,4|2|8,1:3|0:0|1:2,0:0:0:0:
308,163,284606,1,2,1:2:0:0:
308,163,284713,1,0,1:0:0:0:
308,163,284820,2,0,P|243:144|209:125,1,83.9999974365235,4|2,1:3|0:0,0:0:0:0:
202,115,285141,1,0,1:0:0:0:
202,115,285248,2,0,L|130:114,1,41.9999987182618,8|0,1:2|1:0,0:0:0:0:
94,83,285463,2,0,L|37:100,1,41.9999987182618,2|0,1:0|1:0,0:0:0:0:
22,157,285677,6,0,P|46:205|55:262,1,83.9999974365235,4|2,1:3|0:0,0:0:0:0:
113,351,286106,2,0,P|137:303|146:246,1,83.9999974365235,8|2,1:2|0:0,0:0:0:0:
141,240,286427,1,0,1:0:0:0:
134,207,286534,2,0,L|119:160,1,41.9999987182618,4|0,1:3|0:0,0:0:0:0:
246,229,286748,2,0,L|232:279,1,41.9999987182618,2|0,1:2|0:0,0:0:0:0:
241,339,286963,2,0,P|286:344|354:322,1,83.9999974365235,8|2,1:2|0:0,0:0:0:0:
427,266,287391,6,0,L|361:257,3,41.9999987182618,4|0|2|0,0:3|3:0|3:2|3:0,0:0:0:0:
479,220,287820,2,0,P|459:164|441:118,1,83.9999974365235,8|2,1:2|0:0,0:0:0:0:
423,120,288141,1,0,1:0:0:0:
423,120,288248,2,0,P|405:157|395:190,1,41.9999987182618,4|0,1:3|0:0,0:0:0:0:
336,189,288463,2,0,L|332:137,1,41.9999987182618,2|0,1:2|0:0,0:0:0:0:
319,73,288677,1,8,1:2:0:0:
350,60,288784,1,0,1:0:0:0:
382,52,288891,1,2,1:0:0:0:
414,44,288998,1,0,1:0:0:0:
446,35,289106,6,0,P|368:22|331:24,1,83.9999974365235,4|2,1:3|0:0,0:0:0:0:
166,104,289534,2,0,P|244:117|281:115,1,83.9999974365235,8|2,1:2|0:0,0:0:0:0:
271,141,289856,1,0,1:0:0:0:
271,141,289963,2,0,P|253:192|253:225,1,83.9999974365235,4|2,1:3|0:0,0:0:0:0:
181,300,290391,2,8,L|163:232,1,41.9999987182618,8|0,1:2|0:0,0:0:0:0:
101,305,290606,2,0,L|124:367,1,41.9999987182618,2|0,1:2|0:0,0:0:0:0:
31,251,290820,6,0,L|91:233,3,41.9999987182618,4|0|2|0,1:3|3:0|3:2|3:0,0:0:0:0:
131,175,291249,2,0,L|71:157,3,41.9999987182618,8|0|2|0,1:2|3:0|3:2|3:0,0:0:0:0:
199,229,291677,1,4,1:3:0:0:
231,219,291784,1,0,1:0:0:0:
259,201,291891,1,2,1:2:0:0:
283,177,291999,1,0,1:0:0:0:
300,148,292106,5,8,1:2:0:0:
316,151,292213,1,0,1:0:0:0:
332,155,292320,1,2,1:0:0:0:
348,158,292427,1,0,1:0:0:0:
388,145,292534,6,0,L|380:88,3,41.9999987182618,4|0|0|0,1:3|3:0|3:0|3:0,0:0:0:0:
454,183,292963,2,0,L|446:240,3,41.9999987182618,8|0|2|0,1:2|3:0|3:2|3:0,0:0:0:0:
488,120,293391,5,4,1:3:0:0:
486,99,293499,1,0,1:0:0:0:
482,78,293606,1,2,1:3:0:0:
475,57,293713,1,2,1:3:0:0:
439,34,293820,5,8,1:2:0:0:
418,35,293927,1,0,1:0:0:0:
397,39,294034,1,2,1:2:0:0:
376,40,294141,1,0,1:0:0:0:
335,48,294249,6,0,L|353:3,3,41.9999987182618,4|0|0|0,1:3|3:0|3:0|3:0,0:0:0:0:
271,118,294677,2,0,L|253:73,3,41.9999987182618,8|0|2|0,1:2|3:0|3:2|3:0,0:0:0:0:
325,171,295106,5,4,1:3:0:0:
314,189,295213,1,0,1:0:0:0:
306,208,295320,1,2,1:3:0:0:
300,228,295427,1,2,1:3:0:0:
275,261,295534,5,8,1:2:0:0:
286,279,295641,1,0,1:0:0:0:
294,298,295749,1,2,1:2:0:0:
300,318,295856,1,0,1:0:0:0:
281,356,295963,6,0,L|229:348,1,41.9999987182618,4|0,1:3|0:0,0:0:0:0:
181,312,296177,2,0,L|132:319,1,41.9999987182618,2|0,1:2|0:0,0:0:0:0:
67,325,296391,2,0,L|53:375,3,41.9999987182618,8|0|2|0,1:2|3:0|3:2|3:0,0:0:0:0:
35,257,296820,6,0,L|46:193,1,41.9999987182618,4|0,1:3|0:0,0:0:0:0:
83,157,297034,2,0,L|141:162,1,41.9999987182618,2|2,1:3|0:3,0:0:0:0:
182,204,297249,2,0,L|161:253,3,41.9999987182618,8|0|2|0,1:2|3:0|3:2|3:0,0:0:0:0:
191,128,297677,5,4,1:3:0:0:
191,128,297784,2,0,P|177:51|164:20,1,83.9999974365235,2|0,1:2|0:0,0:0:0:0:
142,19,298106,5,8,1:2:0:0:
121,23,298213,1,0,1:0:0:0:
100,27,298320,1,2,1:2:0:0:
79,32,298427,1,0,1:0:0:0:
53,65,298534,5,4,1:3:0:0:
74,69,298641,1,0,1:0:0:0:
95,73,298749,1,2,1:3:0:0:
116,78,298856,1,2,1:3:0:0:
145,108,298963,5,8,1:2:0:0:
104,120,299070,1,0,1:0:0:0:
66,138,299177,1,2,1:2:0:0:
31,161,299284,1,0,1:0:0:0:
16,200,299391,6,0,L|46:254,3,41.9999987182618,4|0|0|0,1:3|3:0|3:0|3:0,0:0:0:0:
86,296,299820,2,0,L|106:259,3,41.9999987182618,8|0|2|0,1:2|3:0|3:2|3:0,0:0:0:0:
175,224,300249,5,4,1:3:0:0:
194,231,300356,1,0,1:0:0:0:
213,239,300463,1,2,1:3:0:0:
231,248,300570,1,2,1:3:0:0:
262,275,300677,5,8,1:2:0:0:
281,268,300784,1,0,1:0:0:0:
300,260,300891,1,2,1:2:0:0:
318,251,300999,1,0,1:0:0:0:
355,232,301106,6,0,L|419:238,3,41.9999987182618,4|0|0|0,1:3|3:0|3:0|3:0,0:0:0:0:
472,305,301534,2,0,L|408:311,3,41.9999987182618,8|0|2|0,1:2|3:0|3:2|3:0,0:0:0:0:
482,229,301963,5,0,1:0:0:0:
481,208,302070,1,0,1:0:0:0:
478,187,302177,1,2,1:3:0:0:
472,166,302284,1,2,1:3:0:0:
438,140,302392,5,8,1:2:0:0:
417,146,302499,1,0,1:0:0:0:
396,149,302606,1,2,1:2:0:0:
375,150,302713,1,0,1:0:0:0:
332,153,302820,6,0,L|322:98,1,41.9999987182618,4|0,1:3|0:0,0:0:0:0:
332,42,303034,2,0,L|348:-2,1,41.9999987182618,2|0,1:2|0:0,0:0:0:0:
210,69,303249,2,0,L|268:74,3,41.9999987182618,8|0|2|0,1:2|3:0|3:2|3:0,0:0:0:0:
121,107,303677,2,0,L|150:161,1,41.9999987182618,4|0,1:3|0:0,0:0:0:0:
181,209,303892,1,2,1:3:0:0:
169,226,303999,1,2,1:3:0:0:
156,242,304106,2,0,L|98:240,1,41.9999987182618,8|0,1:2|0:0,0:0:0:0:
11,292,304320,2,0,L|72:304,1,41.9999987182618,2|0,1:2|0:0,0:0:0:0:
108,349,304534,5,4,1:0:0:0:
128,354,304642,1,2,1:2:0:0:
148,354,304749,1,2,1:2:0:0:
168,349,304856,1,2,1:2:0:0:
202,325,304963,5,8,1:2:0:0:
233,314,305070,1,2,1:2:0:0:
266,314,305177,1,2,1:2:0:0:
298,324,305284,1,2,1:2:0:0:
360,347,305392,5,4,1:3:0:0:
412,312,305499,1,2,1:2:0:0:
410,248,305606,1,2,1:2:0:0:
364,204,305713,1,2,1:2:0:0:
303,187,305820,5,8,1:2:0:0:
249,154,305927,1,0,1:2:0:0:
240,91,306034,1,0,1:2:0:0:
273,37,306142,1,0,1:2:0:0:
340,37,306249,6,0,L|330:106,1,48.9999985046387,4|0,1:0|0:0,0:0:0:0:
393,173,306463,1,2,1:2:0:0:
414,153,306570,1,2,1:3:0:0:
436,134,306677,2,0,L|501:147,1,48.9999985046387,8|0,1:0|0:0,0:0:0:0:
348,228,306892,2,0,L|283:215,1,48.9999985046387,2|0,1:3|0:0,0:0:0:0:
154,335,307106,2,0,P|208:359|261:362,1,97.9999970092774,4|2,1:3|1:3,0:0:0:0:
263,299,307427,1,2,1:3:0:0:
224,242,307534,2,2,L|191:192,1,48.9999985046387,10|2,1:0|0:1,0:0:0:0:
133,175,307749,2,0,L|73:205,1,48.9999985046387,2|2,1:3|0:1,0:0:0:0:
6,108,307963,6,0,P|50:54|58:10,1,97.9999970092774,4|2,1:3|0:0,0:0:0:0:
128,13,308284,1,2,1:3:0:0:
128,13,308392,2,0,L|121:76,1,48.9999985046387,8|0,1:0|0:0,0:0:0:0:
171,118,308606,2,0,L|202:69,1,48.9999985046387,2|0,1:3|0:0,0:0:0:0:
274,64,308820,1,4,1:3:0:0:
274,64,308927,2,0,L|259:102,2,24.4999992523194,2|0|2,1:0|0:0|1:3,0:0:0:0:
270,172,309142,1,2,1:3:0:0:
326,210,309249,2,0,L|381:200,1,48.9999985046387,10|2,1:0|0:1,0:0:0:0:
470,151,309463,2,0,L|415:141,1,48.9999985046387,2|0,1:3|0:0,0:0:0:0:
239,256,309677,5,4,1:3:0:0:
271,316,309784,2,0,L|299:376,1,48.9999985046387,2|0,1:0|0:0,0:0:0:0:
307,248,309999,5,2,1:3:0:0:
239,232,310106,2,0,L|184:214,1,48.9999985046387,8|0,1:0|0:0,0:0:0:0:
131,141,310320,2,0,L|200:133,1,48.9999985046387,2|0,1:3|0:0,0:0:0:0:
23,54,310534,2,0,P|47:121|36:166,1,97.9999970092774,4|2,1:3|0:3,0:0:0:0:
34,217,310856,1,2,1:3:0:0:
34,217,310963,2,0,L|75:208,1,24.4999992523194,8|0,1:0|0:0,0:0:0:0:
35,238,311070,2,0,L|6:237,1,24.4999992523194,2|0,1:0|0:0,0:0:0:0:
54,273,311177,1,2,1:3:0:0:
92,303,311285,1,2,1:0:0:0:
138,286,311392,6,0,L|144:222,1,48.9999985046387,4|0,1:3|0:0,0:0:0:0:
233,167,311606,1,2,1:0:0:0:
233,167,311713,2,0,L|245:238,1,48.9999985046387,2|8,1:3|0:1,0:0:0:0:
305,249,311927,2,0,L|298:308,1,48.9999985046387,2|2,1:0|1:3,0:0:0:0:
325,363,312142,2,0,L|406:348,1,48.9999985046387,2|4,1:0|0:3,0:0:0:0:
425,300,312356,2,0,L|468:306,2,24.4999992523194,2|0|2,1:0|3:0|0:3,0:0:0:0:
384,244,312570,1,2,1:3:0:0:
420,181,312677,2,0,L|435:147,1,24.4999992523194,8|0,1:0|0:0,0:0:0:0:
440,179,312785,2,0,L|449:201,1,24.4999992523194,2|0,1:0|0:0,0:0:0:0:
468,156,312892,1,2,1:3:0:0:
468,107,312999,1,2,1:0:0:0:
425,81,313106,5,4,1:2:0:0:
354,104,313213,2,0,L|274:100,1,48.9999985046387,2|0,1:0|0:0,0:0:0:0:
196,47,313427,5,2,1:3:0:0:
267,24,313535,2,0,L|347:28,1,48.9999985046387,8|0,1:0|0:0,0:0:0:0:
220,122,313749,6,0,L|203:190,1,48.9999985046387,2|0,1:3|0:0,0:0:0:0:
141,210,313963,2,0,L|158:278,1,48.9999985046387,4|0,1:3|0:0,0:0:0:0:
119,321,314177,1,2,1:3:0:0:
92,308,314285,1,2,1:3:0:0:
64,297,314392,1,8,1:0:0:0:
7,335,314499,2,0,L|6:397,1,48.9999985046387,2|2,1:0|0:3,0:0:0:0:
0,265,314713,1,2,1:0:0:0:
47,215,314820,6,0,L|49:146,1,48.9999985046387,4|0,1:3|0:0,0:0:0:0:
115,130,315035,1,2,1:0:0:0:
115,130,315142,2,0,L|185:144,1,48.9999985046387,2|8,1:3|0:1,0:0:0:0:
287,180,315356,2,0,L|217:194,1,48.9999985046387,2|0,1:3|0:0,0:0:0:0:
342,121,315570,2,0,L|412:135,1,48.9999985046387,2|4,1:0|0:3,0:0:0:0:
445,182,315785,2,0,L|433:212,2,24.4999992523194,2|0|2,1:0|3:0|0:3,0:0:0:0:
383,274,315999,1,2,1:3:0:0:
383,274,316106,2,0,L|391:308,1,24.4999992523194,8|0,1:0|0:0,0:0:0:0:
356,263,316213,2,0,L|361:239,1,24.4999992523194,2|0,1:0|0:0,0:0:0:0:
331,291,316320,1,2,1:3:0:0:
327,339,316427,1,2,1:0:0:0:
366,367,316535,5,4,1:3:0:0:
430,345,316642,2,0,L|494:325,1,48.9999985046387,2|0,1:0|0:0,0:0:0:0:
409,215,316856,5,2,1:3:0:0:
345,193,316963,2,0,L|281:173,1,48.9999985046387,8|0,1:0|0:0,0:0:0:0:
238,132,317177,2,0,L|174:152,1,48.9999985046387,2|0,1:3|0:0,0:0:0:0:
121,114,317392,2,0,P|114:66|120:6,1,97.9999970092774,4|2,1:3|0:3,0:0:0:0:
35,108,317713,1,2,1:3:0:0:
67,173,317820,2,0,L|70:229,1,48.9999985046387,10|2,1:0|0:1,0:0:0:0:
122,273,318035,2,0,L|165:208,1,48.9999985046387,2|2,1:3|0:1,0:0:0:0:
197,318,318249,5,4,1:3:0:0:
130,350,318356,2,0,L|73:369,1,48.9999985046387,2|0,1:0|0:0,0:0:0:0:
233,242,318570,5,2,1:3:0:0:
271,304,318677,2,0,L|299:351,1,48.9999985046387,8|0,1:0|0:0,0:0:0:0:
304,211,318892,6,0,L|305:148,1,48.9999985046387,2|0,1:3|0:0,0:0:0:0:
366,121,319106,1,4,1:3:0:0:
366,121,319213,2,0,L|411:128,2,24.4999992523194,2|0|2,1:0|3:0|1:3,0:0:0:0:
380,192,319427,1,2,1:3:0:0:
440,221,319535,6,2,L|497:212,1,52.5,4|0,1:3|0:0,0:0:0:0:
497,282,319963,5,0,0:0:0:0:
497,282,320392,1,0,0:0:0:0:
497,282,320820,2,0,B|470:295|470:295|455:374,1,97.9999970092774,2|0,0:2|1:0,0:0:0:0:
457,361,321463,1,0,3:0:0:0:
322,185,321678,5,0,0:0:0:0:
322,185,322106,1,0,0:0:0:0:
322,185,322535,1,0,0:0:0:0:
361,246,322963,1,0,0:0:0:0:
235,25,323392,5,0,1:0:0:0:
235,25,323820,1,0,1:0:0:0:
235,25,324249,2,0,B|262:38|262:38|277:117,1,97.9999970092774,2|0,0:2|1:0,0:0:0:0:
275,104,324892,1,0,3:0:0:0:
93,238,325106,5,0,0:0:0:0:
93,238,325535,1,0,0:0:0:0:
93,238,325963,1,0,0:0:0:0:
32,199,326392,1,0,0:0:0:0:
162,282,326820,5,0,0:0:0:0:
162,282,327249,1,0,0:0:0:0:
162,282,327678,2,0,B|190:290|190:290|254:241,1,97.9999970092774,2|0,0:2|0:0,0:0:0:0:
244,248,328320,1,0,0:0:0:0:
365,122,328535,5,0,0:0:0:0:
365,122,328963,1,0,0:0:0:0:
365,122,329392,1,2,0:2:0:0:
311,72,329820,1,0,0:0:0:0:
429,170,330249,5,0,0:0:0:0:
256,192,330356,12,0,333249,2:0:0:0:
172,209,333678,6,0,L|249:175,2,73.4999977569581,0|2|0,0:0|0:3|0:0,0:0:0:0:
102,191,334535,2,0,L|144:96,1,97.9999970092774,4|2,0:3|0:3,0:0:0:0:
141,101,335178,1,0,0:0:0:0:
101,41,335392,6,0,L|13:58,2,73.4999977569581,0|2|0,0:0|0:3|0:0,0:0:0:0:
170,21,336249,2,0,B|191:44|191:44|271:28,1,97.9999970092774,2|2,0:2|0:3,0:0:0:0:
256,30,336892,1,0,0:0:0:0:
306,93,337106,6,0,L|281:168,2,73.4999977569581,0|2|0,0:0|0:3|0:0,0:0:0:0:
372,51,337963,2,0,L|385:159,1,97.9999970092774,4|0,0:3|0:0,0:0:0:0:
414,220,338606,1,0,3:0:0:0:
414,220,338713,1,0,3:0:0:0:
414,220,338821,6,0,L|471:207,1,48.9999985046387,0|0,0:0|3:0,0:0:0:0:
482,221,339142,2,0,L|459:305,1,73.4999977569581,2|0,0:3|0:0,0:0:0:0:
408,342,339678,2,0,B|387:318|387:318|304:331,1,97.9999970092774,2|0,0:2|0:0,0:0:0:0:
321,328,340321,1,0,3:0:0:0:
248,346,340535,6,0,L|254:280,1,48.9999985046387,0|0,0:0|3:0,0:0:0:0:
255,272,340856,2,0,L|166:286,1,73.4999977569581,2|0,0:3|0:0,0:0:0:0:
139,229,341392,2,0,P|168:190|199:137,1,97.9999970092774,2|0,0:2|0:0,0:0:0:0:
161,85,342035,1,0,3:0:0:0:
161,85,342142,1,0,3:0:0:0:
161,85,342249,6,0,L|105:82,1,48.9999985046387,0|0,0:0|3:0,0:0:0:0:
88,73,342571,2,0,L|98:156,1,73.4999977569581,2|0,0:3|0:0,0:0:0:0:
38,194,343106,2,0,L|18:142,2,48.9999985046387,4|0|0,0:3|3:0|0:0,0:0:0:0:
73,260,343749,1,0,3:0:0:0:
73,260,343856,1,0,3:0:0:0:
73,260,343964,6,0,L|126:240,1,48.9999985046387,0|0,1:0|3:0,3:0:0:0:
140,253,344285,2,0,L|120:337,1,73.4999977569581,2|0,0:3|0:0,0:0:0:0:
180,364,344821,2,0,L|232:351,1,48.9999985046387,0|0,0:0|3:0,0:0:0:0:
249,362,345142,2,0,L|237:279,1,73.4999977569581
232,209,345678,6,0,L|239:169,2,24.4999992523194,0|0|0,0:0|3:0|3:0,0:0:0:0:
295,245,346106,2,0,L|375:228,1,73.4999977569581,2|0,0:3|3:0,0:0:0:0:
390,236,346535,2,0,L|378:276,2,24.4999992523194,0|0|0,0:0|3:0|3:0,0:0:0:0:
446,182,346964,2,0,L|459:106,1,73.4999977569581,2|0,0:3|0:0,0:0:0:0:
445,80,347392,6,0,L|400:86,2,31.4999990386963,0|0|0,0:0|3:0|3:0,0:0:0:0:
346,29,347821,2,0,P|302:68|283:97,1,94.499997116089,2|0,0:3|3:0,0:0:0:0:
280,128,348249,2,0,L|339:119,2,31.4999990386963,0|0|0,0:0|3:0|3:0,0:0:0:0:
167,169,348678,2,0,P|200:229|210:269,1,94.499997116089,2|0,0:3|0:0,0:0:0:0:
205,285,349106,6,0,L|139:277,1,62.9999980773926,0|0,0:0|3:0,0:0:0:0:
111,283,349428,2,0,P|115:330|145:371,1,94.499997116089,2|0,0:3|0:0,0:0:0:0:
31,263,349964,2,0,P|44:222|39:192,1,62.9999980773926,2|0,0:2|0:0,0:0:0:0:
98,165,350392,2,0,L|110:198,2,31.4999990386963,2|0|0,0:3|3:0|3:0,0:0:0:0:
171,229,350821,6,0,L|183:196,2,31.4999990386963,0|0|0,1:0|3:0|3:0,0:0:0:0:
243,148,351249,2,0,P|277:146|344:159,1,94.499997116089,2|0,1:3|3:0,0:0:0:0:
349,185,351678,2,0,L|306:205,2,31.4999990386963,0|0|0,1:0|3:0|3:0,0:0:0:0:
461,258,352107,2,0,P|427:256|360:269,1,94.499997116089,2|0,1:3|0:0,0:0:0:0:
339,279,352535,6,0,L|352:344,1,62.9999980773926,0|0,0:0|3:0,0:0:0:0:
336,369,352857,2,0,P|298:324|256:282,1,94.499997116089,2|0,0:3|0:0,0:0:0:0:
192,201,353392,2,0,P|226:215|262:219,1,62.9999980773926,2|0,0:2|0:0,0:0:0:0:
295,157,353821,2,0,L|280:125,2,31.4999990386963,2|0|0,0:3|3:0|3:0,0:0:0:0:
244,31,354249,6,0,L|230:59,2,31.4999990386963,0|0|0,1:0|3:0|0:0,0:0:0:0:
129,118,354678,2,0,L|175:105,2,31.4999990386963,2|0|0,1:3|0:0|0:0,0:0:0:0:
59,89,355107,2,0,L|-6:104,1,62.9999980773926,0|0,1:0|3:0,0:0:0:0:
14,129,355428,2,0,L|33:200,1,62.9999980773926,2|0,1:3|3:0,0:0:0:0:
48,215,355749,2,0,L|102:198,1,31.4999990386963,2|0,1:3|3:0,0:0:0:0:
143,235,355964,2,0,L|132:273,3,31.4999990386963,0|0|0|0,1:0|0:0|0:0|0:0,0:0:0:0:
209,211,356392,2,0,L|204:175,3,31.4999990386963,2|0|0|0,1:3|0:0|0:0|0:0,0:0:0:0:
229,282,356821,6,0,P|266:293|341:280,1,94.499997116089,0|0,0:0|3:0,0:0:0:0:
345,307,357249,2,0,P|389:297|435:302,1,62.9999980773926,2|0,0:3|0:0,0:0:0:0:
485,206,357678,2,0,P|430:208|407:197,1,62.9999980773926,0|0,0:0|3:0,0:0:0:0:
392,210,357999,2,0,L|412:107,1,94.499997116089,2|2,0:3|0:2,0:0:0:0:
421,24,358535,5,0,0:0:0:0:
421,24,358857,2,0,P|351:43|323:40,1,94.499997116089,2|0,0:3|3:0,0:0:0:0:
299,33,359285,1,0,0:0:0:0:
299,33,359392,2,0,L|305:106,1,62.9999980773926,2|0,0:3|3:0,0:0:0:0:
280,116,359714,1,0,0:0:0:0:
280,116,359821,6,0,L|222:111,3,31.4999990386963,0|0|0|0,1:0|0:0|0:0|0:0,0:0:0:0:
197,191,360249,2,0,L|255:186,3,31.4999990386963,2|0|0|0,1:3|0:0|0:0|0:0,0:0:0:0:
280,268,360678,2,0,L|222:263,3,31.4999990386963,0|0|0|0,1:0|0:0|0:0|0:0,0:0:0:0:
218,342,361107,6,0,L|147:333,1,62.9999980773926,0|0,1:0|0:0,0:0:0:0:
137,308,361428,2,0,P|88:338|44:345,1,94.499997116089,2|0,1:3|3:0,0:0:0:0:
12,264,361964,2,0,P|35:226|64:196,1,62.9999980773926,2|0,1:2|3:0,0:0:0:0:
120,157,362392,1,0,1:0:0:0:
120,157,362500,1,0,3:0:0:0:
120,157,362607,1,0,3:0:0:0:
120,157,362714,1,0,3:0:0:0:
120,157,362821,6,0,L|186:188,1,62.9999980773926,0|0,1:0|0:0,0:0:0:0:
204,199,363142,2,0,P|228:148|232:100,1,94.499997116089,2|0,1:3|3:0,0:0:0:0:
176,45,363678,2,0,L|164:82,3,31.4999990386963,0|0|0|0,1:0|0:0|0:0|0:0,0:0:0:0:
251,22,364107,2,0,L|295:28,1,31.4999990386963,0|0,1:0|0:0,0:0:0:0:
310,102,364321,1,0,3:0:0:0:
310,102,364428,1,0,3:0:0:0:
310,102,364535,6,0,L|378:111,1,62.9999980773926,0|0,1:0|0:0,0:0:0:0:
400,124,364857,2,0,P|383:185|396:221,1,94.499997116089,2|0,1:3|3:0,0:0:0:0:
483,244,365392,2,0,P|496:196|492:165,1,62.9999980773926,2|0,1:2|3:0,0:0:0:0:
495,102,365821,1,0,1:0:0:0:
495,102,365928,1,0,3:0:0:0:
495,102,366035,1,0,3:0:0:0:
495,102,366142,1,0,3:0:0:0:
495,102,366250,6,0,L|467:27,1,62.9999980773926,0|0,1:0|0:0,0:0:0:0:
466,11,366571,2,0,P|426:36|378:38,1,94.499997116089,2|0,1:3|3:0,0:0:0:0:
284,37,367107,2,0,P|261:86|256:109,1,62.9999980773926,0|0,1:0|3:0,0:0:0:0:
278,186,367535,1,0,1:0:0:0:
362,153,367750,1,0,3:0:0:0:
362,153,367857,1,0,3:0:0:0:
362,153,367964,6,0,L|439:168,1,62.9999980773926,0|0,1:0|0:0,0:0:0:0:
454,171,368285,2,0,P|408:221|392:257,1,94.499997116089,2|0,1:3|3:0,0:0:0:0:
315,284,368821,2,0,L|300:239,2,31.4999990386963,2|0|0,1:2|3:0|3:0,0:0:0:0:
338,374,369250,1,0,1:0:0:0:
253,344,369464,1,0,3:0:0:0:
253,344,369571,1,0,3:0:0:0:
253,344,369678,6,0,L|187:347,1,62.9999980773926,0|0,1:0|0:0,0:0:0:0:
163,330,370000,2,0,P|99:340|59:366,1,94.499997116089,2|0,1:3|3:0,0:0:0:0:
144,243,370535,2,0,P|196:255|227:257,1,62.9999980773926,2|0,1:2|0:0,0:0:0:0:
269,187,370964,1,0,1:0:0:0:
269,187,371071,1,0,3:0:0:0:
269,187,371178,1,0,3:0:0:0:
269,187,371285,1,0,3:0:0:0:
269,187,371393,6,0,L|253:108,1,62.9999980773926,0|0,1:0|0:0,0:0:0:0:
251,93,371714,2,0,P|199:110|169:142,1,94.499997116089,2|0,1:3|3:0,0:0:0:0:
150,160,372143,1,0,3:0:0:0:
150,160,372250,2,0,L|93:152,3,31.4999990386963,0|0|0|0,1:0|0:0|0:0|3:0,0:0:0:0:
65,117,372678,2,0,L|8:125,3,31.4999990386963,0|0|0|0,1:0|3:0|3:0|3:0,0:0:0:0:
125,75,373107,5,0,1:0:0:0:
128,62,373214,1,0,1:0:0:0:
131,49,373321,1,0,1:0:0:0:
134,36,373428,1,0,1:0:0:0:
136,23,373535,2,0,P|157:83|161:104,1,62.9999980773926,0|0,1:0|3:0,0:0:0:0:
237,135,373964,2,0,L|243:84,2,31.4999990386963,2|0|0,1:2|3:0|3:0,0:0:0:0:
170,197,374393,1,0,1:0:0:0:
255,251,374607,1,0,3:0:0:0:
255,251,374714,1,0,3:0:0:0:
255,251,374821,6,0,B|295:257|295:257|370:215,2,125.999996154785,0|2|2,1:0|1:3|1:3,0:0:0:0:
146,223,375678,2,0,L|55:236,1,83.9999974365235,0|0,1:0|0:0,0:0:0:0:
34,253,376000,1,0,1:0:0:0:
34,253,376107,2,0,L|39:301,1,41.9999987182618,0|0,1:0|0:0,0:0:0:0:
94,349,376321,2,0,L|114:299,1,41.9999987182618,0|0,1:3|0:0,0:0:0:0:
174,269,376535,6,0,L|242:275,1,41.9999987182618,0|0,1:0|0:0,0:0:0:0:
252,273,376750,1,0,1:0:0:0:
252,273,376857,2,0,L|274:368,1,83.9999974365235,2|0,1:3|0:0,0:0:0:0:
299,372,377178,1,2,1:3:0:0:
332,369,377285,1,0,1:0:0:0:
363,358,377393,2,0,L|419:338,1,41.9999987182618,2|0,1:2|0:0,0:0:0:0:
455,290,377607,1,0,1:0:0:0:
455,290,377714,2,0,L|384:277,1,41.9999987182618,2|0,1:3|0:0,0:0:0:0:
344,243,377928,1,0,1:0:0:0:
344,243,378035,2,0,L|390:217,1,41.9999987182618,2|0,1:3|0:0,0:0:0:0:
444,181,378250,6,0,B|466:145|466:145|446:56,2,125.999996154785,0|2|2,1:0|1:3|1:3,0:0:0:0:
330,134,379107,2,0,L|319:45,1,83.9999974365235,0|0,1:0|0:0,0:0:0:0:
295,27,379428,1,0,1:0:0:0:
295,27,379535,2,0,L|241:35,1,41.9999987182618,0|0,1:0|0:0,0:0:0:0:
198,73,379750,2,0,L|144:69,1,41.9999987182618,0|0,1:0|0:0,0:0:0:0:
10,113,379964,6,0,L|103:103,1,83.9999974365235,0|0,1:0|0:0,0:0:0:0:
112,131,380285,2,0,P|134:170|146:214,1,83.9999974365235,2|0,1:3|0:0,0:0:0:0:
156,237,380607,2,0,L|206:218,1,41.9999987182618,2|0,1:3|0:0,0:0:0:0:
267,225,380821,1,0,1:0:0:0:
283,229,380928,1,0,1:0:0:0:
298,233,381035,1,0,1:0:0:0:
314,237,381143,1,0,1:0:0:0:
329,240,381250,2,0,L|290:254,3,41.9999987182618,0|0|0|0,1:0|0:0|3:0|3:0,0:0:0:0:
382,186,381678,6,0,B|359:161|359:161|375:53,2,125.999996154785,0|2|2,1:0|1:3|1:3,0:0:0:0:
473,275,382536,2,0,L|484:191,1,83.9999974365235,2|0,1:2|0:0,0:0:0:0:
487,158,382857,1,0,1:0:0:0:
487,158,382964,2,0,L|463:98,1,41.9999987182618,0|0,1:0|0:0,0:0:0:0:
422,66,383178,2,0,L|363:95,1,41.9999987182618,0|0,1:0|0:0,0:0:0:0:
308,119,383393,6,0,P|264:103|250:23,1,125.999996154785,0|2,1:0|0:3,0:0:0:0:
269,6,383821,2,0,L|177:45,1,83.9999974365235,0|2,1:0|0:3,0:0:0:0:
74,103,384250,1,0,1:0:0:0:
74,103,384357,2,0,L|105:18,1,83.9999974365235,0|0,1:0|0:0,0:0:0:0:
110,39,384678,1,0,1:0:0:0:
117,53,384786,1,0,1:0:0:0:
125,67,384893,1,0,1:0:0:0:
132,82,385000,1,0,1:0:0:0:
140,96,385107,6,0,B|154:140|154:140|124:241,2,125.999996154785,0|2|2,1:0|1:3|1:3,0:0:0:0:
13,144,385964,2,0,L|26:239,1,83.9999974365235,0|0,1:0|0:0,0:0:0:0:
37,257,386286,1,0,1:0:0:0:
37,257,386393,2,0,L|97:238,1,41.9999987182618,0|0,1:0|0:0,0:0:0:0:
142,264,386607,1,0,1:0:0:0:
158,267,386714,1,0,1:0:0:0:
174,270,386821,6,0,L|268:257,1,83.9999974365235,0|0,1:0|0:0,0:0:0:0:
281,235,387143,2,0,L|246:361,1,125.999996154785,2|2,1:3|0:3,0:0:0:0:
215,369,387571,1,0,1:0:0:0:
215,369,387678,1,0,1:0:0:0:
215,369,387786,2,0,L|206:312,1,41.9999987182618,2|0,1:3|0:0,0:0:0:0:
188,258,388000,1,0,1:0:0:0:
188,258,388107,2,0,L|126:265,1,41.9999987182618,2|0,1:3|0:0,0:0:0:0:
203,183,388321,2,0,L|257:189,1,41.9999987182618,2|0,1:3|0:0,0:0:0:0:
306,132,388536,5,0,1:0:0:0:
313,115,388643,1,2,0:3:0:0:
313,96,388750,2,0,L|283:85,2,22.7499989585877,0|0|0,3:0|3:0|1:0,0:0:0:0:
379,55,388964,2,0,L|475:83,1,90.9999958343508,2|0,1:3|1:0,0:0:0:0:
479,114,389286,1,2,1:3:0:0:
478,150,389393,2,0,L|460:200,1,45.4999979171754,0|0,1:0|3:0,0:0:0:0:
401,225,389607,2,0,L|407:287,1,45.4999979171754,0|0,1:0|3:0,0:0:0:0:
350,312,389821,1,0,1:0:0:0:
313,311,389928,1,0,1:0:0:0:
278,299,390036,1,0,1:0:0:0:
254,271,390143,1,0,1:0:0:0:
252,234,390250,6,0,L|263:169,1,45.4999979171754,0|0,1:0|0:0,0:0:0:0:
236,123,390464,2,0,L|244:93,2,22.7499989585877,2|0|0,1:3|3:0|1:0,0:0:0:0:
173,162,390678,2,0,P|155:114|144:57,1,90.9999958343508,0|2,1:0|1:3,0:0:0:0:
150,42,391000,1,0,1:0:0:0:
150,42,391107,2,0,L|97:54,1,45.4999979171754,2|0,1:2|0:0,0:0:0:0:
56,106,391321,2,0,L|-3:101,1,45.4999979171754,0|0,1:0|0:0,0:0:0:0:
95,187,391536,2,0,P|140:179|191:181,1,90.9999958343508,2|0,1:3|3:0,0:0:0:0:
217,196,391857,1,0,3:0:0:0:
238,225,391964,5,0,1:0:0:0:
239,243,392071,1,0,1:0:0:0:
228,257,392179,2,0,L|195:252,2,22.7499989585877,2|0|0,3:0|3:0|1:0,0:0:0:0:
272,320,392393,2,0,P|305:281|345:255,1,90.9999958343508,0|2,1:0|1:3,0:0:0:0:
370,242,392714,1,0,1:0:0:0:
370,242,392821,2,0,L|418:249,3,45.4999979171754,0|2|0|0,1:0|3:0|3:0|3:0,0:0:0:0:
329,175,393250,1,0,1:0:0:0:
317,140,393357,1,0,1:0:0:0:
320,103,393464,1,0,1:0:0:0:
334,69,393571,1,0,1:0:0:0:
354,39,393679,6,0,L|405:48,1,45.4999979171754,0|0,1:0|0:0,0:0:0:0:
470,67,393893,2,0,L|465:28,2,22.7499989585877,0|0|0,1:0|3:0|1:0,0:0:0:0:
466,137,394107,1,0,1:0:0:0:
439,162,394214,1,2,0:0:0:0:
408,181,394321,1,2,1:3:0:0:
371,181,394429,1,0,1:0:0:0:
336,168,394536,2,0,L|323:218,3,45.4999979171754,0|0|0|0,1:0|3:0|3:0|3:0,0:0:0:0:
268,264,394964,2,0,L|255:214,3,45.4999979171754,0|0|2|0,1:0|3:0|3:0|3:0,0:0:0:0:
315,316,395393,5,0,1:0:0:0:
307,332,395500,1,2,3:0:0:0:
295,346,395607,2,0,L|263:337,2,22.7499989585877,0|0|0,1:0|3:0|1:0,0:0:0:0:
363,371,395821,1,0,1:0:0:0:
397,360,395929,1,0,1:0:0:0:
424,336,396036,1,2,1:3:0:0:
439,303,396143,1,0,1:0:0:0:
435,265,396250,2,0,L|382:258,3,45.4999979171754,0|0|2|0,1:0|3:0|3:0|3:0,0:0:0:0:
445,191,396679,2,0,L|498:198,3,45.4999979171754,0|0|2|0,1:0|3:0|3:0|3:0,0:0:0:0:
381,153,397107,5,0,1:0:0:0:
364,161,397214,1,2,3:0:0:0:
347,168,397321,2,0,L|310:160,2,22.7499989585877,0|0|0,1:0|3:0|1:0,0:0:0:0:
331,91,397536,2,0,P|304:55|265:25,1,90.9999958343508,0|2,1:0|1:3,0:0:0:0:
235,44,397857,1,0,1:0:0:0:
202,60,397964,2,0,L|141:57,1,45.4999979171754,2|0,1:2|0:0,0:0:0:0:
107,131,398179,2,0,L|168:134,1,45.4999979171754,0|0,1:0|0:0,0:0:0:0:
206,183,398393,1,0,1:0:0:0:
217,217,398500,1,0,1:0:0:0:
215,253,398607,1,0,1:0:0:0:
192,281,398714,1,0,1:0:0:0:
160,298,398821,6,0,L|132:244,1,45.4999979171754,0|2,1:0|3:0,0:0:0:0:
70,257,399036,2,0,L|81:287,2,22.7499989585877,0|0|0,1:0|3:0|1:0,0:0:0:0:
31,345,399250,1,0,1:0:0:0:
62,363,399357,1,0,1:0:0:0:
97,368,399464,1,2,1:3:0:0:
133,364,399571,1,0,1:0:0:0:
162,343,399679,1,0,1:0:0:0:
181,312,399786,1,0,1:0:0:0:
192,281,399893,1,2,1:3:0:0:
188,244,400000,1,0,1:0:0:0:
196,208,400107,1,0,1:0:0:0:
219,180,400214,1,0,1:0:0:0:
252,166,400321,1,0,1:0:0:0:
288,166,400429,1,0,1:0:0:0:
322,177,400536,6,2,L|426:181,1,105,4|0,1:0|0:0,0:0:0:0:
477,137,402250,6,0,P|426:49|369:30,1,146.999995513916,4|2,1:0|3:2,0:0:0:0:
348,43,402679,2,0,L|329:114,1,48.9999985046387,8|0,1:2|0:0,0:0:0:0:
290,144,402893,1,0,1:0:0:0:
290,144,403000,2,0,L|224:138,1,48.9999985046387,2|0,1:0|0:0,0:0:0:0:
189,198,403214,2,0,L|247:207,1,48.9999985046387,2|2,1:0|0:0,0:0:0:0:
84,168,403429,2,0,P|112:220|106:275,1,97.9999970092774,8|0,1:2|0:0,0:0:0:0:
80,281,403750,1,2,1:2:0:0:
42,292,403857,1,0,1:0:0:0:
7,273,403964,6,0,L|3:214,2,48.9999985046387,4|0|0,1:3|3:0|3:0,0:0:0:0:
43,338,404286,1,2,1:2:0:0:
43,338,404393,2,0,L|103:320,1,48.9999985046387,8|0,1:2|0:0,0:0:0:0:
150,362,404607,2,0,L|223:341,1,48.9999985046387,2|0,1:2|0:0,0:0:0:0:
238,291,404822,1,0,1:0:0:0:
238,291,404929,2,0,L|218:184,1,97.9999970092774,4|0,1:3|1:0,0:0:0:0:
271,137,405250,1,4,1:3:0:0:
308,149,405357,1,0,1:0:0:0:
336,175,405464,1,2,1:0:0:0:
361,204,405572,1,0,1:0:0:0:
392,227,405679,6,0,P|457:217|479:154,1,97.9999970092774,4|0,1:0|3:0,0:0:0:0:
488,129,406000,1,2,1:2:0:0:
488,129,406107,2,0,L|423:120,1,48.9999985046387,8|0,1:2|0:0,0:0:0:0:
396,51,406322,2,0,L|456:60,1,48.9999985046387,2|0,1:2|0:0,0:0:0:0:
282,51,406536,1,4,1:3:0:0:
310,77,406643,1,0,1:0:0:0:
327,112,406750,1,2,1:2:0:0:
332,151,406857,1,0,1:0:0:0:
326,189,406964,2,0,P|318:216|299:252,1,48.9999985046387,8|0,1:2|0:0,0:0:0:0:
220,255,407179,2,0,B|230:244|227:227|247:192,1,48.9999985046387,2|0,1:2|0:0,0:0:0:0:
183,153,407393,6,0,B|104:140|129:199|15:184,1,146.999995513916,4|0,1:3|3:0,0:0:0:0:
17,156,407822,2,0,P|24:97|28:79,1,48.9999985046387,8|0,1:2|0:0,0:0:0:0:
41,34,408036,1,2,1:2:0:0:
80,30,408143,1,0,1:0:0:0:
115,47,408250,2,0,P|113:72|105:100,1,48.9999985046387,4|0,1:3|0:0,0:0:0:0:
153,153,408464,2,0,P|146:176|145:200,1,48.9999985046387,2|2,1:3|0:3,0:0:0:0:
156,273,408679,1,8,1:2:0:0:
188,295,408786,1,0,1:0:0:0:
227,304,408893,1,2,1:0:0:0:
265,298,409000,1,0,1:0:0:0:
300,281,409107,6,0,P|326:217|312:182,1,97.9999970092774,4|0,1:0|3:1,0:0:0:0:
285,127,409429,1,2,1:2:0:0:
285,127,409536,2,0,L|219:146,1,48.9999985046387,8|0,1:2|0:0,0:0:0:0:
299,48,409750,1,2,1:2:0:0:
299,48,409857,2,0,L|357:60,1,48.9999985046387,2|0,1:0|0:0,0:0:0:0:
442,79,410072,2,0,L|423:14,1,48.9999985046387,2|2,1:0|0:0,0:0:0:0:
404,147,410286,1,0,1:0:0:0:
404,147,410393,2,0,L|390:209,1,48.9999985046387,8|0,1:2|0:0,0:0:0:0:
381,276,410607,1,2,1:2:0:0:
415,294,410714,1,0,1:0:0:0:
451,307,410822,6,0,L|512:293,2,48.9999985046387,4|0|0,1:3|3:0|3:0,0:0:0:0:
384,306,411143,1,2,1:2:0:0:
384,306,411250,2,0,P|317:355|277:355,1,97.9999970092774,8|2,1:2|1:2,0:0:0:0:
246,323,411572,1,0,1:0:0:0:
246,323,411679,2,0,L|258:257,1,48.9999985046387,4|0,1:3|0:0,0:0:0:0:
199,195,411893,1,2,1:3:0:0:
182,230,412000,1,2,1:3:0:0:
151,255,412107,2,0,L|75:253,1,48.9999985046387,8|0,1:2|1:0,0:0:0:0:
90,324,412322,2,0,L|160:329,1,48.9999985046387,2|0,1:0|1:0,0:0:0:0:
108,172,412536,6,0,P|40:172|33:261,1,146.999995513916,4|2,1:0|1:2,0:0:0:0:
37,272,412965,2,0,L|55:214,1,48.9999985046387,8|0,1:2|0:0,0:0:0:0:
170,120,413179,1,2,1:2:0:0:
170,120,413286,2,0,L|174:178,1,48.9999985046387,2|0,1:0|0:0,0:0:0:0:
234,53,413500,2,0,L|237:116,1,48.9999985046387,2|0,1:0|0:0,0:0:0:0:
160,20,413715,1,8,1:2:0:0:
160,20,413822,1,0,1:0:0:0:
129,44,413929,1,0,1:0:0:0:
95,64,414036,1,2,1:2:0:0:
57,76,414143,1,0,1:0:0:0:
18,69,414250,6,0,L|35:12,2,48.9999985046387,4|2|0,1:3|3:2|3:0,0:0:0:0:
41,140,414572,1,2,1:2:0:0:
41,140,414679,2,0,L|98:118,1,48.9999985046387,8|0,1:2|0:0,0:0:0:0:
204,135,414893,1,2,1:2:0:0:
169,153,415000,1,0,1:0:0:0:
137,177,415107,2,0,L|136:238,1,48.9999985046387,4|0,1:3|0:0,0:0:0:0:
202,274,415322,2,0,L|203:220,1,48.9999985046387,2|0,1:3|0:0,0:0:0:0:
324,261,415536,1,8,1:2:0:0:
335,300,415643,1,0,1:0:0:0:
324,337,415750,1,2,1:0:0:0:
291,359,415857,1,0,1:0:0:0:
254,357,415965,6,0,L|166:344,1,62.9999980773926,4|0,1:0|0:0,0:0:0:0:
168,276,416179,2,0,L|80:263,1,62.9999980773926,2|2,1:2|0:3,0:0:0:0:
71,334,416393,2,0,L|-17:321,1,62.9999980773926,8|0,1:0|0:0,0:0:0:0:
32,203,416607,6,0,L|120:190,1,62.9999980773926,2|0,1:3|0:0,0:0:0:0:
118,122,416822,2,0,L|206:109,1,62.9999980773926,4|0,1:3|0:0,0:0:0:0:
215,180,417036,2,0,L|303:167,1,62.9999980773926,2|2,1:2|0:3,0:0:0:0:
482,100,417250,6,0,L|394:87,1,62.9999980773926,8|0,1:0|0:0,0:0:0:0:
396,19,417465,2,0,L|308:6,1,62.9999980773926,2|0,1:3|0:0,0:0:0:0:
298,77,417679,6,0,L|240:71,1,48.9999985046387,4|0,1:3|0:0,0:0:0:0:
302,164,417893,2,0,L|383:152,1,48.9999985046387,2|2,1:2|0:3,0:0:0:0:
288,244,418107,2,0,L|206:231,1,48.9999985046387,8|0,1:0|0:0,0:0:0:0:
334,341,418322,6,0,L|272:347,1,48.9999985046387,2|0,1:3|0:0,0:0:0:0:
371,280,418536,2,0,L|433:286,1,48.9999985046387,4|0,1:3|0:0,0:0:0:0:
328,355,418750,2,0,L|266:361,1,48.9999985046387,2|2,1:3|0:3,0:0:0:0:
389,262,418965,2,0,L|451:268,1,48.9999985046387,8|0,1:0|0:0,0:0:0:0:
310,211,419179,2,0,L|285:215,2,24.4999992523194,2|0|0,1:3|3:0|3:0,0:0:0:0:
367,163,419393,6,0,L|358:87,1,62.9999980773926,4|0,1:0|0:0,0:0:0:0:
440,137,419607,2,0,L|448:200,1,62.9999980773926,2|2,1:2|0:3,0:0:0:0:
421,69,419822,2,0,L|412:-7,1,62.9999980773926,8|0,1:0|0:0,0:0:0:0:
226,262,420036,6,0,L|217:186,1,62.9999980773926,2|0,1:3|0:0,0:0:0:0:
299,236,420250,2,0,L|306:298,1,62.9999980773926,4|0,1:3|0:0,0:0:0:0:
280,168,420465,2,0,L|271:92,1,62.9999980773926,2|2,1:2|0:3,0:0:0:0:
71,339,420679,6,0,L|62:263,1,62.9999980773926,8|0,1:0|0:0,0:0:0:0:
144,313,420893,2,0,L|151:375,1,62.9999980773926,2|0,1:3|0:0,0:0:0:0:
125,244,421108,6,0,L|117:173,1,48.9999985046387,4|0,1:3|0:0,0:0:0:0:
63,149,421322,2,0,L|55:76,1,48.9999985046387,2|2,1:2|0:3,0:0:0:0:
121,54,421536,2,0,L|128:123,1,48.9999985046387,8|0,1:0|0:0,0:0:0:0:
275,342,421750,6,0,L|267:271,1,48.9999985046387,2|0,1:3|0:0,0:0:0:0:
213,247,421965,2,0,L|205:174,1,48.9999985046387,4|0,1:3|0:0,0:0:0:0:
271,152,422179,2,0,L|278:221,1,48.9999985046387,2|2,1:2|0:3,0:0:0:0:
210,114,422393,2,0,L|204:53,1,48.9999985046387,8|0,1:0|0:0,0:0:0:0:
267,16,422608,2,0,L|272:54,2,24.4999992523194,2|0|0,1:3|3:0|3:0,0:0:0:0:
332,81,422822,6,0,L|420:94,1,62.9999980773926,4|0,1:0|0:0,0:0:0:0:
435,173,423036,2,0,L|372:163,1,62.9999980773926,2|2,1:2|0:3,0:0:0:0:
431,33,423250,2,0,L|519:46,1,62.9999980773926,8|0,1:0|0:0,0:0:0:0:
210,114,423465,6,0,L|122:127,1,62.9999980773926,2|0,1:3|0:0,0:0:0:0:
107,206,423679,2,0,L|169:196,1,62.9999980773926,4|0,1:3|0:0,0:0:0:0:
111,66,423893,2,0,L|23:79,1,62.9999980773926,2|2,1:2|0:3,0:0:0:0:
250,287,424108,6,0,L|338:300,1,62.9999980773926,8|0,1:0|0:0,0:0:0:0:
353,379,424322,2,0,L|290:369,1,62.9999980773926,2|0,1:3|0:0,0:0:0:0:
349,238,424536,6,0,L|416:250,1,48.9999985046387,4|0,1:3|0:0,0:0:0:0:
468,187,424750,2,0,L|401:175,1,48.9999985046387,2|2,1:2|0:3,0:0:0:0:
350,98,424965,2,0,L|417:110,1,48.9999985046387,8|0,1:0|0:0,0:0:0:0:
262,180,425179,6,0,L|328:166,1,48.9999985046387,2|0,1:3|0:0,0:0:0:0:
222,123,425393,2,0,L|155:136,1,48.9999985046387,4|0,1:3|0:0,0:0:0:0:
229,51,425608,2,0,L|295:37,1,48.9999985046387,2|2,1:2|0:3,0:0:0:0:
169,4,425822,2,0,L|102:17,1,48.9999985046387,8|0,1:0|0:0,0:0:0:0:
94,85,426036,2,0,L|135:76,2,24.4999992523194,2|0|0,1:3|3:0|3:0,0:0:0:0:
21,135,426250,6,0,L|30:211,1,62.9999980773926,4|0,1:0|0:0,0:0:0:0:
99,186,426465,2,0,L|106:248,1,62.9999980773926,2|2,1:2|0:3,0:0:0:0:
56,301,426679,2,0,L|63:363,1,62.9999980773926,8|0,1:0|0:0,0:0:0:0:
209,248,426893,6,0,L|218:172,1,62.9999980773926,2|0,1:3|0:0,0:0:0:0:
287,197,427108,2,0,L|294:134,1,62.9999980773926,4|0,1:3|0:0,0:0:0:0:
244,82,427322,2,0,L|251:19,1,62.9999980773926,0|2,1:2|0:3,0:0:0:0:
403,93,427536,6,0,L|412:169,1,62.9999980773926,8|0,1:0|0:0,0:0:0:0:
481,144,427750,2,0,L|488:206,1,62.9999980773926,2|0,1:3|0:0,0:0:0:0:
457,275,427965,5,4,1:3:0:0:
429,300,428072,1,2,1:2:0:0:
392,314,428179,1,2,1:2:0:0:
354,313,428286,1,2,1:3:0:0:
321,293,428393,1,8,1:0:0:0:
285,279,428500,1,2,1:2:0:0:
247,283,428608,1,2,1:3:0:0:
210,293,428715,1,2,1:2:0:0:
173,328,428822,5,4,1:3:0:0:
123,334,428929,1,2,1:2:0:0:
78,310,429036,1,2,1:2:0:0:
54,265,429143,1,2,1:3:0:0:
66,216,429250,1,8,1:0:0:0:
103,181,429358,1,2,1:2:0:0:
153,177,429465,2,0,L|148:220,2,31.4999990386963,2|0|0,1:3|3:0|3:0,0:0:0:0:
219,152,429679,6,0,P|214:70|195:-1,1,146.999995513916,4|2,1:0|0:3,0:0:0:0:
164,28,430108,2,0,P|105:47|54:49,1,97.9999970092774,4|2,1:3|0:3,0:0:0:0:
286,200,430536,2,0,P|374:180|439:184,1,146.999995513916,4|2,1:3|0:3,0:0:0:0:
464,202,430965,2,0,L|452:267,1,48.9999985046387,4|0,1:3|0:0,0:0:0:0:
396,337,431179,2,0,L|388:290,1,48.9999985046387,2|0,1:0|0:0,0:0:0:0:
329,369,431393,6,0,P|265:326|272:251,1,146.999995513916,4|2,1:3|0:3,0:0:0:0:
270,191,431822,2,0,L|191:207,1,48.9999985046387,4|0,1:3|0:0,0:0:0:0:
158,153,432036,2,0,L|205:126,1,48.9999985046387,2|0,1:3|0:0,0:0:0:0:
221,58,432251,1,4,1:3:0:0:
221,58,432358,2,0,P|147:41|103:45,1,97.9999970092774,2|2,1:0|1:0,0:0:0:0:
54,66,432679,1,4,1:3:0:0:
29,96,432786,1,0,1:0:0:0:
21,134,432893,1,2,1:0:0:0:
42,166,433001,1,0,1:0:0:0:
71,192,433108,6,0,B|153:161|125:236|238:202,1,146.999995513916,4|2,1:0|0:3,0:0:0:0:
249,201,433536,2,0,P|232:267|234:318,1,97.9999970092774,4|2,1:3|0:3,0:0:0:0:
363,163,433965,2,0,P|362:78|347:12,1,146.999995513916,4|2,1:3|0:3,0:0:0:0:
381,39,434393,2,0,L|445:43,1,48.9999985046387,4|0,1:3|0:0,0:0:0:0:
501,107,434608,2,0,L|447:114,1,48.9999985046387,2|0,1:0|0:0,0:0:0:0:
387,121,434822,5,4,1:3:0:0:
356,145,434929,1,2,1:2:0:0:
351,183,435036,1,2,1:2:0:0:
364,219,435143,1,2,1:3:0:0:
392,245,435251,2,0,P|442:231|480:193,1,97.9999970092774,4|2,1:3|0:3,0:0:0:0:
511,273,435572,1,2,1:2:0:0:
511,273,435679,2,0,L|483:331,1,48.9999985046387,4|0,1:3|0:0,0:0:0:0:
400,366,435893,2,0,L|424:306,1,48.9999985046387,2|0,1:3|0:0,0:0:0:0:
344,301,436108,1,2,1:3:0:0:
309,319,436215,1,2,1:2:0:0:
273,336,436322,1,2,1:0:0:0:
233,338,436429,1,2,1:2:0:0:
193,334,436536,6,0,P|128:298|93:224,1,146.999995513916,4|2,1:0|0:3,0:0:0:0:
97,196,436965,2,0,P|145:201|193:195,1,97.9999970092774,4|2,1:3|0:3,0:0:0:0:
301,36,437393,2,0,P|226:22|137:28,1,146.999995513916,4|2,1:3|0:3,0:0:0:0:
116,30,437822,2,0,L|108:98,1,48.9999985046387,4|0,1:3|0:0,0:0:0:0:
33,156,438036,2,0,L|24:94,1,48.9999985046387,2|0,1:0|0:0,0:0:0:0:
155,143,438251,5,4,1:3:0:0:
171,178,438358,1,2,1:2:0:0:
174,217,438465,1,2,1:2:0:0:
172,256,438572,1,2,1:3:0:0:
167,294,438679,2,0,P|153:339|129:385,1,97.9999970092774,4|2,1:3|0:3,0:0:0:0:
67,373,439001,1,2,1:2:0:0:
67,373,439108,2,0,L|9:354,1,48.9999985046387,4|0,1:3|0:0,0:0:0:0:
43,285,439322,2,0,L|101:304,1,48.9999985046387,2|0,1:3|0:0,0:0:0:0:
165,275,439536,1,2,1:3:0:0:
203,267,439643,1,0,1:0:0:0:
238,250,439751,1,2,1:0:0:0:
264,221,439858,1,0,1:0:0:0:
281,185,439965,6,0,P|280:115|258:32,1,146.999995513916,4|2,1:3|0:3,0:0:0:0:
245,4,440393,2,0,P|326:28|364:18,1,97.9999970092774,4|2,1:3|0:3,0:0:0:0:
488,162,440822,2,0,P|421:195|403:273,1,146.999995513916,4|2,1:3|0:3,0:0:0:0:
396,299,441251,2,0,L|326:284,1,48.9999985046387,4|0,1:3|0:0,0:0:0:0:
239,342,441465,2,0,L|331:363,1,48.9999985046387,2|0,1:0|0:0,0:0:0:0:
265,236,441679,5,4,1:3:0:0:
229,218,441786,1,2,1:2:0:0:
189,216,441894,1,2,1:2:0:0:
152,230,442001,1,2,1:3:0:0:
155,254,442108,5,4,1:3:0:0:
120,272,442215,1,2,1:2:0:0:
81,279,442322,1,2,1:3:0:0:
44,263,442429,1,2,1:2:0:0:
23,276,442536,5,4,1:3:0:0:
39,322,442644,1,2,1:0:0:0:
84,339,442751,1,2,1:2:0:0:
133,339,442858,1,2,1:0:0:0:
174,312,442965,2,0,L|166:275,2,24.4999992523194,4|0|0,1:3|3:0|1:0,0:0:0:0:
217,240,443179,2,0,L|222:198,1,24.4999992523194,2|0,1:0|0:0,0:0:0:0:
250,258,443286,2,0,L|245:289,1,24.4999992523194,2|0,1:0|0:0,0:0:0:0:
233,351,443394,5,4,1:0:0:0:
256,192,443501,12,0,454751,0:0:0:0:
