osu file format v14

[General]
AudioFilename: audio.mp3
AudioLeadIn: 0
PreviewTime: 16142
Countdown: 0
SampleSet: Normal
StackLeniency: 0.7
Mode: 1
LetterboxInBreaks: 0
WidescreenStoryboard: 1

[Editor]
DistanceSpacing: 1.2
BeatDivisor: 4
GridSize: 32
TimelineZoom: 2.5

[Metadata]
Title:Focus
TitleUnicode:Focus
Artist:Juno
ArtistUnicode:Juno
Creator:Dainesl
Version:Muzukashii
Source:かたわ少女
Tags:Taiko Katawa Shoujo visual novel eroge enigmatic box of sound four leaf studios
BeatmapID:1308361
BeatmapSetID:620563

[Difficulty]
HPDrainRate:8
CircleSize:4.5
OverallDifficulty:5
ApproachRate:5
SliderMultiplier:1.4
SliderTickRate:1

[Events]
//Background and Video events
0,0,"21994_katawa_shoujo.jpg",0,-90
//Break Periods
//Storyboard Layer 0 (Background)
//Storyboard Layer 1 (Fail)
//Storyboard Layer 2 (Pass)
//Storyboard Layer 3 (Foreground)
//Storyboard Sound Samples

[TimingPoints]
5476,333.333333333333,4,1,0,50,1,0
16142,-100,4,1,0,70,0,0
26809,-100,4,1,0,70,0,1
48142,-100,4,1,0,70,0,0
50642,-100,4,1,0,50,0,0
52309,-100,4,1,0,30,0,0

[HitObjects]
256,192,5475,5,0,0:0:0:0:
256,192,5809,1,8,0:0:0:0:
256,192,6142,1,0,0:0:0:0:
256,192,6309,1,8,0:0:0:0:
256,192,6475,1,0,0:0:0:0:
256,192,6809,1,8,0:0:0:0:
256,192,7142,1,0,0:0:0:0:
256,192,7309,1,0,0:0:0:0:
256,192,7809,1,8,0:0:0:0:
256,192,8142,1,0,0:0:0:0:
256,192,8475,1,8,0:0:0:0:
256,192,8975,1,8,0:0:0:0:
256,192,9142,1,0,0:0:0:0:
256,192,9475,1,8,0:0:0:0:
256,192,9809,1,0,0:0:0:0:
256,192,9975,1,8,0:0:0:0:
256,192,10309,1,0,0:0:0:0:
256,192,10475,1,8,0:0:0:0:
256,192,10809,1,0,0:0:0:0:
256,192,11142,1,8,0:0:0:0:
256,192,11475,1,0,0:0:0:0:
256,192,11642,1,8,0:0:0:0:
256,192,11809,1,0,0:0:0:0:
256,192,12142,1,8,0:0:0:0:
256,192,12475,1,0,0:0:0:0:
256,192,12642,1,0,0:0:0:0:
256,192,13142,1,8,0:0:0:0:
256,192,13475,1,0,0:0:0:0:
256,192,13809,1,8,0:0:0:0:
256,192,14142,1,0,0:0:0:0:
256,192,14309,1,8,0:0:0:0:
256,192,14642,1,0,0:0:0:0:
256,192,14809,12,0,15892,0:0:0:0:
256,192,16142,5,4,0:0:0:0:
256,192,16475,1,0,0:0:0:0:
256,192,16642,1,0,0:0:0:0:
256,192,16809,1,8,0:0:0:0:
256,192,17142,1,8,0:0:0:0:
256,192,17309,1,8,0:0:0:0:
256,192,17475,1,0,0:0:0:0:
256,192,17809,1,0,0:0:0:0:
256,192,18142,1,0,0:0:0:0:
256,192,18309,1,8,0:0:0:0:
256,192,18475,1,0,0:0:0:0:
256,192,18809,1,0,0:0:0:0:
256,192,19142,1,0,0:0:0:0:
256,192,19309,1,0,0:0:0:0:
256,192,19475,1,8,0:0:0:0:
256,192,19809,1,8,0:0:0:0:
256,192,19975,1,0,0:0:0:0:
256,192,20142,1,8,0:0:0:0:
256,192,20475,1,0,0:0:0:0:
256,192,20809,1,0,0:0:0:0:
256,192,20975,1,8,0:0:0:0:
256,192,21142,1,8,0:0:0:0:
256,192,21309,1,8,0:0:0:0:
256,192,21475,1,0,0:0:0:0:
256,192,21809,1,0,0:0:0:0:
256,192,22142,1,8,0:0:0:0:
256,192,22475,1,8,0:0:0:0:
256,192,22642,1,8,0:0:0:0:
256,192,22809,1,0,0:0:0:0:
256,192,23142,1,0,0:0:0:0:
256,192,23475,1,0,0:0:0:0:
256,192,23642,1,8,0:0:0:0:
256,192,23809,1,0,0:0:0:0:
256,192,24142,1,8,0:0:0:0:
256,192,24475,1,0,0:0:0:0:
256,192,24642,1,0,0:0:0:0:
256,192,24809,1,8,0:0:0:0:
256,192,25142,1,0,0:0:0:0:
256,192,25475,1,8,0:0:0:0:
256,192,25975,1,8,0:0:0:0:
256,192,26475,1,8,0:0:0:0:
256,192,26809,1,4,0:0:0:0:
256,192,26975,1,8,0:0:0:0:
256,192,27059,1,8,0:0:0:0:
256,192,27142,1,8,0:0:0:0:
256,192,27309,1,0,0:0:0:0:
256,192,27475,1,0,0:0:0:0:
256,192,27809,1,8,0:0:0:0:
256,192,27975,1,0,0:0:0:0:
256,192,28142,1,8,0:0:0:0:
256,192,28475,1,8,0:0:0:0:
256,192,28642,1,8,0:0:0:0:
256,192,28809,1,0,0:0:0:0:
256,192,28975,1,0,0:0:0:0:
256,192,29059,1,0,0:0:0:0:
256,192,29142,1,8,0:0:0:0:
256,192,29475,1,0,0:0:0:0:
256,192,29642,1,0,0:0:0:0:
256,192,29809,1,8,0:0:0:0:
256,192,30142,1,0,0:0:0:0:
256,192,30309,1,8,0:0:0:0:
256,192,30392,1,8,0:0:0:0:
256,192,30475,1,8,0:0:0:0:
256,192,30642,1,0,0:0:0:0:
256,192,30809,1,8,0:0:0:0:
256,192,31142,1,8,0:0:0:0:
256,192,31309,1,8,0:0:0:0:
256,192,31475,1,0,0:0:0:0:
256,192,31642,1,0,0:0:0:0:
256,192,31809,1,8,0:0:0:0:
256,192,32142,1,0,0:0:0:0:
256,192,32309,1,8,0:0:0:0:
256,192,32475,1,8,0:0:0:0:
256,192,32642,1,8,0:0:0:0:
256,192,32809,1,0,0:0:0:0:
256,192,33142,1,8,0:0:0:0:
256,192,33309,1,8,0:0:0:0:
256,192,33475,1,0,0:0:0:0:
256,192,33809,1,8,0:0:0:0:
256,192,33975,1,0,0:0:0:0:
256,192,34142,1,0,0:0:0:0:
256,192,34309,1,8,0:0:0:0:
256,192,34392,1,8,0:0:0:0:
256,192,34475,1,0,0:0:0:0:
256,192,34809,1,0,0:0:0:0:
256,192,34975,1,0,0:0:0:0:
256,192,35142,1,8,0:0:0:0:
256,192,35309,1,0,0:0:0:0:
256,192,35642,1,0,0:0:0:0:
256,192,35725,1,0,0:0:0:0:
256,192,35809,1,8,0:0:0:0:
256,192,36142,1,0,0:0:0:0:
256,192,36309,1,0,0:0:0:0:
256,192,36475,1,8,0:0:0:0:
256,192,36642,1,0,0:0:0:0:
256,192,36975,1,0,0:0:0:0:
256,192,37142,1,8,0:0:0:0:
256,192,37475,1,4,0:0:0:0:
256,192,37642,1,8,0:0:0:0:
256,192,37725,1,8,0:0:0:0:
256,192,37809,1,8,0:0:0:0:
256,192,37975,1,0,0:0:0:0:
256,192,38142,1,8,0:0:0:0:
256,192,38475,1,8,0:0:0:0:
256,192,38642,1,8,0:0:0:0:
256,192,38809,1,0,0:0:0:0:
256,192,38975,1,0,0:0:0:0:
256,192,39142,1,8,0:0:0:0:
256,192,39475,1,0,0:0:0:0:
256,192,39642,1,8,0:0:0:0:
256,192,39809,1,0,0:0:0:0:
256,192,40142,1,8,0:0:0:0:
256,192,40309,1,0,0:0:0:0:
256,192,40475,1,8,0:0:0:0:
256,192,40642,1,8,0:0:0:0:
256,192,40809,1,0,0:0:0:0:
256,192,40975,1,8,0:0:0:0:
256,192,41059,1,8,0:0:0:0:
256,192,41142,1,8,0:0:0:0:
256,192,41475,1,8,0:0:0:0:
256,192,41809,1,0,0:0:0:0:
256,192,41975,1,8,0:0:0:0:
256,192,42142,1,0,0:0:0:0:
256,192,42309,1,0,0:0:0:0:
256,192,42475,1,8,0:0:0:0:
256,192,42809,1,12,0:0:0:0:
256,192,43142,1,12,0:0:0:0:
256,192,43475,1,12,0:0:0:0:
256,192,43642,1,0,0:0:0:0:
256,192,43809,1,12,0:0:0:0:
256,192,44142,1,12,0:0:0:0:
256,192,44475,1,12,0:0:0:0:
256,192,44642,1,0,0:0:0:0:
256,192,44809,1,0,0:0:0:0:
256,192,44975,1,8,0:0:0:0:
256,192,45142,1,0,0:0:0:0:
256,192,45475,1,4,0:0:0:0:
256,192,45642,1,8,0:0:0:0:
256,192,45809,1,8,0:0:0:0:
256,192,45975,1,8,0:0:0:0:
256,192,46142,1,0,0:0:0:0:
256,192,46309,1,8,0:0:0:0:
256,192,46392,1,8,0:0:0:0:
256,192,46475,1,0,0:0:0:0:
256,192,46809,1,8,0:0:0:0:
256,192,46975,1,0,0:0:0:0:
256,192,47142,1,0,0:0:0:0:
256,192,47309,1,8,0:0:0:0:
256,192,47642,1,0,0:0:0:0:
256,192,47809,1,8,0:0:0:0:
256,192,48142,1,4,0:0:0:0:
256,192,48475,1,8,0:0:0:0:
256,192,48809,1,0,0:0:0:0:
256,192,48975,1,8,0:0:0:0:
256,192,49142,1,0,0:0:0:0:
256,192,49475,1,8,0:0:0:0:
256,192,49809,1,0,0:0:0:0:
256,192,49975,1,8,0:0:0:0:
256,192,50309,1,0,0:0:0:0:
256,192,50475,1,8,0:0:0:0:
256,192,50809,1,0,0:0:0:0:
256,192,51142,1,8,0:0:0:0:
256,192,51475,1,0,0:0:0:0:
256,192,51642,1,8,0:0:0:0:
256,192,51809,1,0,0:0:0:0:
256,192,52142,1,8,0:0:0:0:
256,192,52475,1,0,0:0:0:0:
256,192,52642,1,8,0:0:0:0:
256,192,52975,1,8,0:0:0:0:
256,192,53142,1,0,0:0:0:0:
256,192,53309,1,8,0:0:0:0:
