osu file format v14

[General]
AudioFilename: audio.ogg
AudioLeadIn: 0
PreviewTime: 227404
Countdown: 0
SampleSet: Soft
StackLeniency: 0.7
Mode: 3
LetterboxInBreaks: 0
SpecialStyle: 0
WidescreenStoryboard: 0

[Editor]
Bookmarks: 22965
DistanceSpacing: 1
BeatDivisor: 12
GridSize: 16
TimelineZoom: 1.9

[Metadata]
Title:Nemurasareta Lineage
TitleUnicode:眠らされたリネージュ
Artist:JUNNA
ArtistUnicode:JUNNA
Creator:Outlasted
Version:Philomela
Source:魔法使いの嫁 SEASON2
Tags:anime, Yusuke Shirato, folk, mahoyome, mahoutsukai no yome Season 2 Part 2, ancient magus's bride, ancient magus bride, jpop, japanese, celtic, chiaki ishikawa, hybrid, release, ln, noodle, 2nd opening theme, OP2, OST2
BeatmapID:4384593
BeatmapSetID:2091756

[Difficulty]
HPDrainRate:7.5
CircleSize:7
OverallDifficulty:7
ApproachRate:5
SliderMultiplier:1.4
SliderTickRate:1

[Events]
//Background and Video events
0,0,"880729.jpg",0,0
//Break Periods
//Storyboard Layer 0 (Background)
//Storyboard Layer 1 (Fail)
//Storyboard Layer 2 (Pass)
//Storyboard Layer 3 (Foreground)
//Storyboard Layer 4 (Overlay)
//Storyboard Sound Samples

[TimingPoints]
5182,444.444444444444,4,2,1,44,1,0
58515,-100,4,2,1,44,0,1
90515,-100,4,2,1,44,0,0
140293,-100,4,2,1,44,0,1
172293,-100,4,2,1,44,0,0
234515,-100,4,2,1,44,0,1
259404,-100,4,2,1,44,0,0

[HitObjects]
36,192,3404,128,0,3515:0:0:0:0:
475,192,3515,128,0,3626:0:0:0:0:
329,192,3626,128,0,3848:0:0:0:0:
256,192,3848,128,0,4070:0:0:0:0:
182,192,3848,128,0,4737:0:0:0:0:
36,192,3848,128,0,4293:0:0:0:0:
402,192,4737,128,0,4885:0:0:0:0:
256,192,4811,128,0,4959:0:0:0:0:
36,192,4885,128,0,5033:0:0:0:0:
182,192,4959,128,0,5107:0:0:0:0:
329,192,5033,128,0,5182:0:0:0:0:
475,192,5107,128,0,5182:0:0:0:0:
402,192,5182,128,0,5626:0:0:0:0:
182,192,5404,128,0,5626:0:0:0:0:
329,192,5626,128,0,6070:0:0:0:0:
36,192,5626,128,0,5848:0:0:0:0:
109,192,5848,128,0,5959:0:0:0:0:
475,192,6015,128,0,6293:0:0:0:0:
402,192,6070,128,0,6293:0:0:0:0:
182,192,6070,128,0,6515:0:0:0:0:
256,192,6293,128,0,6404:0:0:0:0:
36,192,6515,128,0,6959:0:0:0:0:
256,192,6515,128,0,6737:0:0:0:0:
475,192,6737,128,0,6959:0:0:0:0:
256,192,6904,128,0,7181:0:0:0:0:
109,192,6959,128,0,7404:0:0:0:0:
329,192,6959,128,0,7181:0:0:0:0:
402,192,7181,128,0,7293:0:0:0:0:
402,192,7404,128,0,7626:0:0:0:0:
36,192,7404,128,0,7848:0:0:0:0:
182,192,7626,128,0,8070:0:0:0:0:
475,192,7848,128,0,8293:0:0:0:0:
329,192,7848,128,0,8126:0:0:0:0:
109,192,8070,128,0,8737:0:0:0:0:
402,192,8293,128,0,8737:0:0:0:0:
36,192,8293,128,0,8441:0:0:0:0:
182,192,8367,128,0,8515:0:0:0:0:
329,192,8441,128,0,8589:0:0:0:0:
475,192,8515,128,0,8663:0:0:0:0:
256,192,8589,128,0,8737:0:0:0:0:
36,192,8663,128,0,8737:0:0:0:0:
182,192,8737,128,0,9181:0:0:0:0:
402,192,8959,128,0,9181:0:0:0:0:
329,192,9181,128,0,9626:0:0:0:0:
36,192,9181,128,0,9404:0:0:0:0:
109,192,9404,128,0,9626:0:0:0:0:
182,192,9626,128,0,9848:0:0:0:0:
36,192,9626,128,0,10070:0:0:0:0:
256,192,9848,128,0,10070:0:0:0:0:
402,192,10070,128,0,10515:0:0:0:0:
182,192,10070,128,0,10293:0:0:0:0:
256,192,10293,128,0,10515:0:0:0:0:
36,192,10459,1,0,0:0:0:0:
475,192,10515,128,0,10959:0:0:0:0:
329,192,10515,128,0,10737:0:0:0:0:
109,192,10515,128,0,12293:0:0:0:0:
402,192,10737,128,0,10959:0:0:0:0:
182,192,10959,128,0,11404:0:0:0:0:
329,192,10959,128,0,11181:0:0:0:0:
402,192,11181,128,0,11404:0:0:0:0:
475,192,11404,128,0,11848:0:0:0:0:
329,192,11404,128,0,11515:0:0:0:0:
256,192,11515,128,0,11626:0:0:0:0:
256,192,11737,128,0,12293:0:0:0:0:
402,192,11848,128,0,12293:0:0:0:0:
36,192,12293,128,0,13181:0:0:0:0:
475,192,12293,128,0,12737:0:0:0:0:
182,192,12293,128,0,12959:0:0:0:0:
329,192,12404,1,0,0:0:0:0:
329,192,12737,128,0,13181:0:0:0:0:
402,192,12848,1,0,0:0:0:0:
109,192,12959,128,0,13070:0:0:0:0:
256,192,13070,128,0,13181:0:0:0:0:
182,192,13181,128,0,14070:0:0:0:0:
402,192,13181,128,0,13626:0:0:0:0:
475,192,13181,128,0,13626:0:0:0:0:
109,192,13293,1,0,0:0:0:0:
109,192,13626,128,0,14070:0:0:0:0:
256,192,13626,128,0,14070:0:0:0:0:
329,192,13737,1,0,0:0:0:0:
475,192,14070,128,0,14959:0:0:0:0:
36,192,14070,128,0,14515:0:0:0:0:
402,192,14070,128,0,14737:0:0:0:0:
329,192,14181,1,0,0:0:0:0:
182,192,14515,128,0,14959:0:0:0:0:
109,192,14626,1,0,0:0:0:0:
329,192,14737,128,0,14848:0:0:0:0:
256,192,14848,128,0,14959:0:0:0:0:
402,192,14959,128,0,15848:0:0:0:0:
109,192,14959,128,0,15404:0:0:0:0:
36,192,14959,128,0,15404:0:0:0:0:
329,192,15070,1,0,0:0:0:0:
256,192,15404,128,0,15848:0:0:0:0:
329,192,15404,128,0,15848:0:0:0:0:
182,192,15515,1,0,0:0:0:0:
182,192,15848,128,0,16293:0:0:0:0:
475,192,15848,128,0,16737:0:0:0:0:
36,192,15959,1,0,0:0:0:0:
36,192,16293,128,0,16737:0:0:0:0:
109,192,16293,128,0,16404:0:0:0:0:
256,192,16404,128,0,16515:0:0:0:0:
329,192,16404,1,0,0:0:0:0:
402,192,16515,128,0,16626:0:0:0:0:
182,192,16626,128,0,16737:0:0:0:0:
109,192,16737,128,0,17181:0:0:0:0:
182,192,16959,1,0,0:0:0:0:
256,192,16959,1,0,0:0:0:0:
402,192,17181,128,0,18070:0:0:0:0:
36,192,17181,128,0,18737:0:0:0:0:
329,192,17181,1,0,0:0:0:0:
475,192,17181,1,0,0:0:0:0:
329,192,18070,128,0,18293:0:0:0:0:
256,192,18293,128,0,18515:0:0:0:0:
182,192,18515,128,0,18959:0:0:0:0:
475,192,18737,128,0,18848:0:0:0:0:
402,192,18848,128,0,18959:0:0:0:0:
36,192,18959,128,0,19404:0:0:0:0:
329,192,18959,128,0,19404:0:0:0:0:
109,192,19404,128,0,20737:0:0:0:0:
256,192,19404,128,0,20293:0:0:0:0:
402,192,19404,128,0,20959:0:0:0:0:
182,192,20293,128,0,21404:0:0:0:0:
329,192,20515,128,0,21181:0:0:0:0:
36,192,20737,128,0,21404:0:0:0:0:
256,192,20737,128,0,21848:0:0:0:0:
475,192,20737,128,0,21404:0:0:0:0:
109,192,21404,128,0,21626:0:0:0:0:
329,192,21404,128,0,22070:0:0:0:0:
402,192,21404,128,0,22070:0:0:0:0:
36,192,21626,1,0,0:0:0:0:
182,192,21848,1,0,0:0:0:0:
256,192,22070,1,0,0:0:0:0:
36,192,22070,128,0,22515:0:0:0:0:
109,192,22293,128,0,22515:0:0:0:0:
182,192,22293,128,0,22348:0:0:0:0:
256,192,22348,128,0,22404:0:0:0:0:
475,192,22404,128,0,22459:0:0:0:0:
402,192,22459,128,0,22515:0:0:0:0:
256,192,22515,128,0,22959:0:0:0:0:
329,192,22515,128,0,22570:0:0:0:0:
182,192,22570,128,0,22626:0:0:0:0:
36,192,22626,128,0,22681:0:0:0:0:
109,192,22681,128,0,22737:0:0:0:0:
475,192,22737,128,0,22959:0:0:0:0:
402,192,22737,128,0,22793:0:0:0:0:
329,192,22793,128,0,22848:0:0:0:0:
182,192,22848,128,0,22904:0:0:0:0:
36,192,22904,128,0,22959:0:0:0:0:
329,192,22959,128,0,23515:0:0:0:0:
109,192,22959,128,0,24293:0:0:0:0:
182,192,23293,1,0,0:0:0:0:
256,192,23293,1,0,0:0:0:0:
36,192,23404,1,0,0:0:0:0:
329,192,23626,128,0,23737:0:0:0:0:
475,192,23626,1,0,0:0:0:0:
402,192,23626,1,0,0:0:0:0:
329,192,23848,128,0,24293:0:0:0:0:
256,192,23848,1,0,0:0:0:0:
182,192,24070,1,0,0:0:0:0:
475,192,24293,128,0,24515:0:0:0:0:
36,192,24293,128,0,24404:0:0:0:0:
256,192,24515,128,0,24626:0:0:0:0:
109,192,24515,128,0,24626:0:0:0:0:
402,192,24626,128,0,25293:0:0:0:0:
36,192,24737,128,0,25070:0:0:0:0:
182,192,24737,1,0,0:0:0:0:
256,192,25070,1,0,0:0:0:0:
475,192,25070,1,0,0:0:0:0:
182,192,25181,1,0,0:0:0:0:
402,192,25404,128,0,25626:0:0:0:0:
109,192,25404,1,0,0:0:0:0:
36,192,25404,1,0,0:0:0:0:
256,192,25626,128,0,25848:0:0:0:0:
182,192,25626,1,0,0:0:0:0:
329,192,25626,128,0,26070:0:0:0:0:
36,192,25848,128,0,25959:0:0:0:0:
109,192,25848,128,0,25959:0:0:0:0:
36,192,26070,128,0,26293:0:0:0:0:
402,192,26070,1,0,0:0:0:0:
475,192,26070,128,0,26515:0:0:0:0:
109,192,26293,128,0,26515:0:0:0:0:
256,192,26293,1,0,0:0:0:0:
182,192,26293,1,0,0:0:0:0:
329,192,26515,128,0,26959:0:0:0:0:
402,192,26515,128,0,26737:0:0:0:0:
36,192,26515,1,0,0:0:0:0:
182,192,26737,128,0,26959:0:0:0:0:
475,192,26848,1,0,0:0:0:0:
402,192,26848,1,0,0:0:0:0:
256,192,26959,128,0,27181:0:0:0:0:
109,192,26959,128,0,27181:0:0:0:0:
36,192,26959,1,0,0:0:0:0:
182,192,27181,128,0,27404:0:0:0:0:
36,192,27181,128,0,27404:0:0:0:0:
475,192,27181,1,0,0:0:0:0:
329,192,27181,1,0,0:0:0:0:
109,192,27404,128,0,27848:0:0:0:0:
256,192,27404,128,0,27515:0:0:0:0:
329,192,27626,128,0,27848:0:0:0:0:
402,192,27626,1,0,0:0:0:0:
182,192,27848,128,0,28293:0:0:0:0:
475,192,27848,128,0,27959:0:0:0:0:
36,192,28070,1,0,0:0:0:0:
109,192,28070,1,0,0:0:0:0:
256,192,28293,128,0,28737:0:0:0:0:
329,192,28293,1,0,0:0:0:0:
36,192,28515,128,0,28737:0:0:0:0:
109,192,28515,1,0,0:0:0:0:
402,192,28626,1,0,0:0:0:0:
329,192,28626,1,0,0:0:0:0:
182,192,28737,128,0,28959:0:0:0:0:
475,192,28737,128,0,28959:0:0:0:0:
109,192,28959,128,0,29181:0:0:0:0:
256,192,28959,1,0,0:0:0:0:
402,192,28959,128,0,29181:0:0:0:0:
329,192,28959,1,0,0:0:0:0:
36,192,29181,128,0,29626:0:0:0:0:
475,192,29181,1,0,0:0:0:0:
182,192,29181,128,0,29293:0:0:0:0:
329,192,29293,128,0,29404:0:0:0:0:
402,192,29404,128,0,29515:0:0:0:0:
256,192,29404,1,0,0:0:0:0:
109,192,29626,128,0,29737:0:0:0:0:
475,192,29626,128,0,30070:0:0:0:0:
182,192,29626,1,0,0:0:0:0:
256,192,29737,128,0,29848:0:0:0:0:
329,192,29848,128,0,29959:0:0:0:0:
402,192,29848,1,0,0:0:0:0:
182,192,30070,128,0,30848:0:0:0:0:
109,192,30070,128,0,30515:0:0:0:0:
256,192,30070,1,0,0:0:0:0:
256,192,30404,1,0,0:0:0:0:
329,192,30404,1,0,0:0:0:0:
475,192,30515,128,0,30959:0:0:0:0:
402,192,30515,1,0,0:0:0:0:
109,192,30737,1,0,0:0:0:0:
36,192,30737,1,0,0:0:0:0:
329,192,30848,1,0,0:0:0:0:
182,192,30959,128,0,31404:0:0:0:0:
402,192,30959,128,0,31404:0:0:0:0:
36,192,30959,1,0,0:0:0:0:
256,192,31070,1,0,0:0:0:0:
109,192,31181,1,0,0:0:0:0:
36,192,31293,128,0,31404:0:0:0:0:
256,192,31404,128,0,31626:0:0:0:0:
329,192,31404,128,0,31848:0:0:0:0:
475,192,31404,1,0,0:0:0:0:
402,192,31515,1,0,0:0:0:0:
36,192,31626,128,0,32515:0:0:0:0:
182,192,31626,1,0,0:0:0:0:
109,192,31626,1,0,0:0:0:0:
256,192,31737,1,0,0:0:0:0:
402,192,31848,128,0,32293:0:0:0:0:
475,192,31848,1,0,0:0:0:0:
329,192,32181,1,0,0:0:0:0:
182,192,32181,128,0,32293:0:0:0:0:
475,192,32293,128,0,32737:0:0:0:0:
109,192,32293,1,0,0:0:0:0:
256,192,32293,1,0,0:0:0:0:
182,192,32515,128,0,32737:0:0:0:0:
256,192,32515,1,0,0:0:0:0:
329,192,32515,1,0,0:0:0:0:
109,192,32626,1,0,0:0:0:0:
36,192,32737,128,0,33181:0:0:0:0:
402,192,32737,128,0,32959:0:0:0:0:
329,192,32737,1,0,0:0:0:0:
182,192,32848,1,0,0:0:0:0:
475,192,32959,128,0,33070:0:0:0:0:
256,192,32959,1,0,0:0:0:0:
109,192,32959,1,0,0:0:0:0:
329,192,33070,128,0,33181:0:0:0:0:
402,192,33181,128,0,33404:0:0:0:0:
182,192,33181,128,0,33626:0:0:0:0:
256,192,33181,1,0,0:0:0:0:
109,192,33293,1,0,0:0:0:0:
329,192,33404,128,0,33626:0:0:0:0:
36,192,33404,1,0,0:0:0:0:
256,192,33515,1,0,0:0:0:0:
109,192,33626,128,0,34070:0:0:0:0:
475,192,33626,128,0,34070:0:0:0:0:
36,192,33626,128,0,33848:0:0:0:0:
402,192,33626,1,0,0:0:0:0:
329,192,33848,128,0,34070:0:0:0:0:
36,192,33959,128,0,34070:0:0:0:0:
182,192,34070,128,0,34293:0:0:0:0:
256,192,34070,128,0,34515:0:0:0:0:
402,192,34070,128,0,34293:0:0:0:0:
329,192,34293,128,0,34515:0:0:0:0:
109,192,34293,128,0,34515:0:0:0:0:
475,192,34515,128,0,34959:0:0:0:0:
36,192,34515,128,0,34959:0:0:0:0:
182,192,34515,128,0,34737:0:0:0:0:
256,192,34737,128,0,34959:0:0:0:0:
329,192,34848,128,0,34959:0:0:0:0:
402,192,34959,128,0,35404:0:0:0:0:
182,192,34959,128,0,35404:0:0:0:0:
109,192,34959,128,0,35181:0:0:0:0:
329,192,35181,128,0,35404:0:0:0:0:
256,192,35404,128,0,35848:0:0:0:0:
36,192,35404,128,0,35848:0:0:0:0:
475,192,35404,128,0,35626:0:0:0:0:
182,192,35626,128,0,35848:0:0:0:0:
402,192,35737,128,0,35848:0:0:0:0:
475,192,35848,128,0,36070:0:0:0:0:
109,192,35848,128,0,36293:0:0:0:0:
329,192,36070,128,0,36293:0:0:0:0:
36,192,36293,128,0,36404:0:0:0:0:
475,192,36293,128,0,36737:0:0:0:0:
256,192,36293,1,0,0:0:0:0:
182,192,36348,1,0,0:0:0:0:
402,192,36404,128,0,36515:0:0:0:0:
329,192,36459,128,0,36570:0:0:0:0:
256,192,36515,128,0,36626:0:0:0:0:
182,192,36570,128,0,36681:0:0:0:0:
109,192,36626,128,0,36737:0:0:0:0:
36,192,36681,128,0,36793:0:0:0:0:
329,192,36737,128,0,36848:0:0:0:0:
256,192,36737,128,0,36959:0:0:0:0:
475,192,36848,128,0,36959:0:0:0:0:
109,192,36959,128,0,37626:0:0:0:0:
402,192,36959,128,0,37070:0:0:0:0:
182,192,37070,128,0,37181:0:0:0:0:
475,192,37181,128,0,38070:0:0:0:0:
36,192,37181,128,0,37293:0:0:0:0:
256,192,37181,128,0,37404:0:0:0:0:
402,192,37515,128,0,37626:0:0:0:0:
329,192,37626,128,0,38070:0:0:0:0:
182,192,37626,128,0,37848:0:0:0:0:
256,192,37626,1,0,0:0:0:0:
36,192,37626,1,0,0:0:0:0:
36,192,37848,128,0,37959:0:0:0:0:
256,192,37959,1,0,0:0:0:0:
402,192,38070,128,0,38293:0:0:0:0:
182,192,38070,1,0,0:0:0:0:
109,192,38070,1,0,0:0:0:0:
36,192,38181,128,0,38293:0:0:0:0:
329,192,38293,128,0,38737:0:0:0:0:
182,192,38293,128,0,38515:0:0:0:0:
475,192,38404,128,0,38515:0:0:0:0:
36,192,38515,1,0,0:0:0:0:
109,192,38515,1,0,0:0:0:0:
256,192,38515,1,0,0:0:0:0:
402,192,38626,1,0,0:0:0:0:
182,192,38737,128,0,39181:0:0:0:0:
475,192,38737,128,0,38848:0:0:0:0:
109,192,38848,1,0,0:0:0:0:
402,192,38959,128,0,39848:0:0:0:0:
36,192,38959,128,0,39181:0:0:0:0:
329,192,38959,1,0,0:0:0:0:
256,192,38959,1,0,0:0:0:0:
109,192,39181,128,0,39626:0:0:0:0:
475,192,39181,1,0,0:0:0:0:
256,192,39293,128,0,39404:0:0:0:0:
329,192,39404,1,0,0:0:0:0:
475,192,39404,1,0,0:0:0:0:
36,192,39404,1,0,0:0:0:0:
36,192,39626,128,0,40070:0:0:0:0:
182,192,39626,128,0,39737:0:0:0:0:
329,192,39737,1,0,0:0:0:0:
182,192,39848,1,0,0:0:0:0:
475,192,39848,1,0,0:0:0:0:
256,192,39848,1,0,0:0:0:0:
329,192,39959,128,0,40070:0:0:0:0:
109,192,40070,128,0,40293:0:0:0:0:
475,192,40070,128,0,40293:0:0:0:0:
402,192,40181,128,0,40293:0:0:0:0:
182,192,40293,128,0,40515:0:0:0:0:
256,192,40293,1,0,0:0:0:0:
36,192,40293,1,0,0:0:0:0:
329,192,40404,1,0,0:0:0:0:
109,192,40515,128,0,40959:0:0:0:0:
256,192,40515,128,0,40626:0:0:0:0:
36,192,40626,1,0,0:0:0:0:
329,192,40737,128,0,41626:0:0:0:0:
182,192,40737,128,0,40959:0:0:0:0:
475,192,40737,1,0,0:0:0:0:
402,192,40737,1,0,0:0:0:0:
256,192,40959,128,0,41181:0:0:0:0:
475,192,40959,128,0,41070:0:0:0:0:
402,192,41070,128,0,41181:0:0:0:0:
36,192,41181,128,0,41404:0:0:0:0:
109,192,41181,1,0,0:0:0:0:
182,192,41181,128,0,41293:0:0:0:0:
109,192,41404,128,0,41515:0:0:0:0:
256,192,41515,128,0,41626:0:0:0:0:
182,192,41626,128,0,42293:0:0:0:0:
475,192,41626,1,0,0:0:0:0:
402,192,41626,1,0,0:0:0:0:
109,192,41737,1,0,0:0:0:0:
36,192,41848,128,0,41959:0:0:0:0:
109,192,41959,128,0,42070:0:0:0:0:
475,192,42070,1,0,0:0:0:0:
402,192,42070,1,0,0:0:0:0:
329,192,42219,128,0,42293:0:0:0:0:
256,192,42293,128,0,42515:0:0:0:0:
475,192,42293,128,0,42367:0:0:0:0:
402,192,42367,128,0,42441:0:0:0:0:
475,192,42441,128,0,42515:0:0:0:0:
329,192,42515,128,0,43404:0:0:0:0:
36,192,42515,128,0,42959:0:0:0:0:
109,192,42515,128,0,42626:0:0:0:0:
182,192,42515,128,0,42626:0:0:0:0:
182,192,42848,128,0,42959:0:0:0:0:
109,192,42959,128,0,43181:0:0:0:0:
402,192,42959,1,0,0:0:0:0:
475,192,42959,1,0,0:0:0:0:
256,192,43181,128,0,43404:0:0:0:0:
182,192,43181,128,0,43293:0:0:0:0:
36,192,43293,1,0,0:0:0:0:
402,192,43404,128,0,43626:0:0:0:0:
475,192,43404,128,0,43515:0:0:0:0:
109,192,43404,1,0,0:0:0:0:
182,192,43515,1,0,0:0:0:0:
109,192,43626,128,0,43848:0:0:0:0:
36,192,43626,1,0,0:0:0:0:
182,192,43700,1,0,0:0:0:0:
256,192,43700,128,0,43774:0:0:0:0:
329,192,43774,1,0,0:0:0:0:
402,192,43774,128,0,43848:0:0:0:0:
475,192,43848,128,0,44070:0:0:0:0:
36,192,43848,1,0,0:0:0:0:
182,192,43959,1,0,0:0:0:0:
402,192,44070,128,0,44293:0:0:0:0:
256,192,44070,128,0,44181:0:0:0:0:
329,192,44181,128,0,44293:0:0:0:0:
36,192,44293,128,0,45181:0:0:0:0:
109,192,44293,128,0,44737:0:0:0:0:
182,192,44293,128,0,44515:0:0:0:0:
475,192,44293,1,0,0:0:0:0:
256,192,44404,128,0,44626:0:0:0:0:
329,192,44515,128,0,44737:0:0:0:0:
402,192,44626,128,0,44848:0:0:0:0:
475,192,44737,128,0,45181:0:0:0:0:
182,192,44737,128,0,44959:0:0:0:0:
256,192,44737,1,0,0:0:0:0:
109,192,44848,1,0,0:0:0:0:
256,192,44959,128,0,45181:0:0:0:0:
329,192,45070,128,0,45293:0:0:0:0:
402,192,45181,128,0,45404:0:0:0:0:
109,192,45181,128,0,45404:0:0:0:0:
182,192,45181,1,0,0:0:0:0:
475,192,45293,128,0,45515:0:0:0:0:
329,192,45404,128,0,45848:0:0:0:0:
36,192,45515,1,0,0:0:0:0:
109,192,45626,128,0,45848:0:0:0:0:
402,192,45626,1,0,0:0:0:0:
475,192,45626,1,0,0:0:0:0:
182,192,45737,128,0,45959:0:0:0:0:
36,192,45848,128,0,46293:0:0:0:0:
256,192,45848,128,0,46070:0:0:0:0:
329,192,45959,128,0,46181:0:0:0:0:
475,192,46070,128,0,46959:0:0:0:0:
109,192,46070,128,0,46293:0:0:0:0:
182,192,46070,1,0,0:0:0:0:
402,192,46070,1,0,0:0:0:0:
256,192,46181,1,0,0:0:0:0:
329,192,46293,128,0,46515:0:0:0:0:
402,192,46293,128,0,46737:0:0:0:0:
256,192,46404,128,0,46626:0:0:0:0:
182,192,46515,128,0,46737:0:0:0:0:
36,192,46515,1,0,0:0:0:0:
109,192,46626,128,0,46848:0:0:0:0:
36,192,46737,128,0,47181:0:0:0:0:
329,192,46737,128,0,46959:0:0:0:0:
182,192,46848,1,0,0:0:0:0:
256,192,46959,128,0,47070:0:0:0:0:
402,192,46959,128,0,47181:0:0:0:0:
182,192,47070,128,0,47181:0:0:0:0:
109,192,47181,128,0,47404:0:0:0:0:
329,192,47181,128,0,47293:0:0:0:0:
475,192,47181,128,0,47404:0:0:0:0:
256,192,47293,128,0,47404:0:0:0:0:
182,192,47404,128,0,47626:0:0:0:0:
402,192,47404,128,0,47515:0:0:0:0:
36,192,47404,1,0,0:0:0:0:
329,192,47515,128,0,47626:0:0:0:0:
475,192,47626,128,0,47737:0:0:0:0:
256,192,47626,128,0,47848:0:0:0:0:
109,192,47626,1,0,0:0:0:0:
402,192,47737,128,0,47848:0:0:0:0:
329,192,47848,128,0,47959:0:0:0:0:
109,192,47848,128,0,49626:0:0:0:0:
182,192,47848,128,0,48070:0:0:0:0:
36,192,47848,128,0,48737:0:0:0:0:
329,192,48070,128,0,48181:0:0:0:0:
475,192,48181,1,0,0:0:0:0:
329,192,48293,128,0,48404:0:0:0:0:
182,192,48293,1,0,0:0:0:0:
256,192,48293,1,0,0:0:0:0:
329,192,48515,128,0,48959:0:0:0:0:
402,192,48515,1,0,0:0:0:0:
256,192,48626,1,0,0:0:0:0:
402,192,48737,1,0,0:0:0:0:
475,192,48737,1,0,0:0:0:0:
182,192,48848,1,0,0:0:0:0:
256,192,48959,128,0,49181:0:0:0:0:
36,192,49070,1,0,0:0:0:0:
182,192,49181,128,0,49404:0:0:0:0:
475,192,49181,1,0,0:0:0:0:
329,192,49181,128,0,49293:0:0:0:0:
402,192,49293,1,0,0:0:0:0:
329,192,49404,128,0,49626:0:0:0:0:
256,192,49404,128,0,49515:0:0:0:0:
36,192,49515,1,0,0:0:0:0:
402,192,49626,128,0,49737:0:0:0:0:
256,192,49626,128,0,50293:0:0:0:0:
475,192,49626,128,0,50515:0:0:0:0:
182,192,49626,1,0,0:0:0:0:
402,192,49848,128,0,50181:0:0:0:0:
36,192,49959,1,0,0:0:0:0:
109,192,50070,1,0,0:0:0:0:
182,192,50070,1,0,0:0:0:0:
402,192,50293,128,0,50404:0:0:0:0:
182,192,50293,128,0,50404:0:0:0:0:
329,192,50293,1,0,0:0:0:0:
109,192,50404,128,0,50515:0:0:0:0:
256,192,50404,1,0,0:0:0:0:
402,192,50515,128,0,50959:0:0:0:0:
36,192,50515,128,0,51404:0:0:0:0:
182,192,50515,1,0,0:0:0:0:
256,192,50626,1,0,0:0:0:0:
109,192,50737,1,0,0:0:0:0:
475,192,50848,1,0,0:0:0:0:
182,192,50959,128,0,51181:0:0:0:0:
256,192,50959,1,0,0:0:0:0:
329,192,50959,1,0,0:0:0:0:
402,192,51070,1,0,0:0:0:0:
109,192,51181,128,0,51404:0:0:0:0:
475,192,51181,1,0,0:0:0:0:
329,192,51293,1,0,0:0:0:0:
182,192,51404,128,0,51515:0:0:0:0:
402,192,51404,128,0,53181:0:0:0:0:
256,192,51404,128,0,52293:0:0:0:0:
475,192,51404,1,0,0:0:0:0:
182,192,51626,128,0,51737:0:0:0:0:
329,192,51737,1,0,0:0:0:0:
182,192,51848,128,0,51959:0:0:0:0:
109,192,51848,1,0,0:0:0:0:
36,192,51848,1,0,0:0:0:0:
182,192,52070,128,0,52293:0:0:0:0:
329,192,52070,1,0,0:0:0:0:
109,192,52181,1,0,0:0:0:0:
329,192,52293,128,0,52515:0:0:0:0:
475,192,52293,1,0,0:0:0:0:
36,192,52293,1,0,0:0:0:0:
256,192,52404,1,0,0:0:0:0:
36,192,52515,128,0,52737:0:0:0:0:
109,192,52515,1,0,0:0:0:0:
475,192,52626,1,0,0:0:0:0:
182,192,52737,128,0,52959:0:0:0:0:
256,192,52737,1,0,0:0:0:0:
329,192,52737,1,0,0:0:0:0:
109,192,52848,1,0,0:0:0:0:
329,192,52959,128,0,53404:0:0:0:0:
36,192,52959,1,0,0:0:0:0:
475,192,53070,1,0,0:0:0:0:
256,192,53181,128,0,53626:0:0:0:0:
182,192,53181,1,0,0:0:0:0:
36,192,53181,128,0,54070:0:0:0:0:
109,192,53181,1,0,0:0:0:0:
475,192,53404,128,0,53626:0:0:0:0:
109,192,53515,1,0,0:0:0:0:
402,192,53570,1,0,0:0:0:0:
182,192,53626,128,0,53848:0:0:0:0:
329,192,53626,1,0,0:0:0:0:
329,192,53848,128,0,54070:0:0:0:0:
109,192,53848,1,0,0:0:0:0:
256,192,53959,1,0,0:0:0:0:
109,192,54070,128,0,54404:0:0:0:0:
182,192,54070,128,0,54181:0:0:0:0:
402,192,54070,1,0,0:0:0:0:
475,192,54070,1,0,0:0:0:0:
329,192,54181,128,0,54293:0:0:0:0:
475,192,54293,128,0,54404:0:0:0:0:
256,192,54404,128,0,54737:0:0:0:0:
36,192,54404,128,0,54515:0:0:0:0:
109,192,54515,128,0,54626:0:0:0:0:
402,192,54515,1,0,0:0:0:0:
329,192,54515,1,0,0:0:0:0:
182,192,54626,128,0,54737:0:0:0:0:
329,192,54737,128,0,54959:0:0:0:0:
475,192,54737,128,0,54848:0:0:0:0:
36,192,54848,128,0,54959:0:0:0:0:
402,192,54959,128,0,56515:0:0:0:0:
475,192,54959,1,0,0:0:0:0:
109,192,54959,128,0,55181:0:0:0:0:
182,192,54959,128,0,55848:0:0:0:0:
329,192,55181,1,0,0:0:0:0:
36,192,55293,1,0,0:0:0:0:
256,192,55404,1,0,0:0:0:0:
329,192,55404,1,0,0:0:0:0:
475,192,55404,1,0,0:0:0:0:
36,192,55626,1,0,0:0:0:0:
109,192,55626,1,0,0:0:0:0:
475,192,55737,1,0,0:0:0:0:
109,192,55848,128,0,56404:0:0:0:0:
256,192,55848,128,0,56070:0:0:0:0:
329,192,55848,128,0,56181:0:0:0:0:
36,192,56070,128,0,56181:0:0:0:0:
256,192,56181,128,0,56515:0:0:0:0:
475,192,56181,128,0,56404:0:0:0:0:
182,192,56181,128,0,56737:0:0:0:0:
329,192,56404,128,0,56515:0:0:0:0:
109,192,56515,128,0,57033:0:0:0:0:
36,192,56515,128,0,56885:0:0:0:0:
475,192,56515,128,0,56737:0:0:0:0:
402,192,56737,128,0,56885:0:0:0:0:
256,192,56885,128,0,57033:0:0:0:0:
36,192,57033,128,0,57181:0:0:0:0:
182,192,57181,128,0,57330:0:0:0:0:
109,192,57181,128,0,57330:0:0:0:0:
329,192,57330,128,0,57478:0:0:0:0:
182,192,57404,128,0,57626:0:0:0:0:
475,192,57478,128,0,57626:0:0:0:0:
109,192,57626,128,0,57774:0:0:0:0:
36,192,57626,128,0,57848:0:0:0:0:
402,192,57626,1,0,0:0:0:0:
329,192,57626,1,0,0:0:0:0:
256,192,57626,128,0,57774:0:0:0:0:
475,192,57774,128,0,57922:0:0:0:0:
402,192,57848,128,0,58515:0:0:0:0:
329,192,57922,128,0,58070:0:0:0:0:
256,192,57959,1,0,0:0:0:0:
182,192,58070,1,0,0:0:0:0:
109,192,58070,1,0,0:0:0:0:
36,192,58070,128,0,58219:0:0:0:0:
256,192,58181,1,0,0:0:0:0:
182,192,58219,128,0,58367:0:0:0:0:
475,192,58293,1,0,0:0:0:0:
329,192,58367,128,0,58515:0:0:0:0:
109,192,58404,1,0,0:0:0:0:
182,192,58515,128,0,59181:0:0:0:0:
36,192,58515,128,0,58737:0:0:0:0:
475,192,58515,1,0,0:0:0:0:
109,192,58737,128,0,58848:0:0:0:0:
402,192,58737,1,0,0:0:0:0:
475,192,58848,1,0,0:0:0:0:
109,192,58959,128,0,59070:0:0:0:0:
329,192,58959,1,0,0:0:0:0:
256,192,58959,1,0,0:0:0:0:
109,192,59181,128,0,59404:0:0:0:0:
475,192,59181,128,0,59848:0:0:0:0:
329,192,59181,1,0,0:0:0:0:
182,192,59404,128,0,59626:0:0:0:0:
402,192,59404,1,0,0:0:0:0:
256,192,59404,1,0,0:0:0:0:
36,192,59626,128,0,59848:0:0:0:0:
109,192,59626,1,0,0:0:0:0:
182,192,59737,1,0,0:0:0:0:
109,192,59848,128,0,60293:0:0:0:0:
256,192,59848,128,0,60070:0:0:0:0:
329,192,59848,1,0,0:0:0:0:
402,192,59848,1,0,0:0:0:0:
475,192,59959,1,0,0:0:0:0:
36,192,60070,128,0,60293:0:0:0:0:
329,192,60070,1,0,0:0:0:0:
182,192,60181,1,0,0:0:0:0:
256,192,60293,128,0,60959:0:0:0:0:
329,192,60293,128,0,60515:0:0:0:0:
475,192,60293,1,0,0:0:0:0:
402,192,60293,1,0,0:0:0:0:
109,192,60515,128,0,60737:0:0:0:0:
36,192,60515,1,0,0:0:0:0:
182,192,60626,1,0,0:0:0:0:
402,192,60737,128,0,60959:0:0:0:0:
329,192,60737,1,0,0:0:0:0:
36,192,60848,1,0,0:0:0:0:
329,192,60959,128,0,61626:0:0:0:0:
182,192,60959,128,0,61181:0:0:0:0:
109,192,60959,1,0,0:0:0:0:
475,192,60959,1,0,0:0:0:0:
256,192,61070,1,0,0:0:0:0:
475,192,61181,128,0,61404:0:0:0:0:
402,192,61181,1,0,0:0:0:0:
36,192,61181,1,0,0:0:0:0:
109,192,61293,1,0,0:0:0:0:
402,192,61404,128,0,62070:0:0:0:0:
182,192,61404,1,0,0:0:0:0:
256,192,61459,1,0,0:0:0:0:
475,192,61515,1,0,0:0:0:0:
109,192,61626,128,0,62070:0:0:0:0:
36,192,61626,1,0,0:0:0:0:
182,192,61626,1,0,0:0:0:0:
329,192,61848,1,0,0:0:0:0:
256,192,61959,1,0,0:0:0:0:
36,192,62070,1,0,0:0:0:0:
182,192,62070,128,0,62737:0:0:0:0:
475,192,62070,1,0,0:0:0:0:
475,192,62293,128,0,62404:0:0:0:0:
109,192,62293,1,0,0:0:0:0:
256,192,62404,1,0,0:0:0:0:
329,192,62515,1,0,0:0:0:0:
475,192,62515,128,0,62626:0:0:0:0:
402,192,62515,1,0,0:0:0:0:
109,192,62626,1,0,0:0:0:0:
36,192,62737,128,0,63404:0:0:0:0:
475,192,62737,128,0,62959:0:0:0:0:
256,192,62737,1,0,0:0:0:0:
329,192,62959,128,0,63181:0:0:0:0:
402,192,62959,1,0,0:0:0:0:
182,192,62959,1,0,0:0:0:0:
256,192,63070,1,0,0:0:0:0:
475,192,63181,128,0,63404:0:0:0:0:
109,192,63181,1,0,0:0:0:0:
402,192,63293,1,0,0:0:0:0:
109,192,63404,128,0,63848:0:0:0:0:
256,192,63404,128,0,63626:0:0:0:0:
329,192,63404,1,0,0:0:0:0:
182,192,63404,1,0,0:0:0:0:
475,192,63515,1,0,0:0:0:0:
402,192,63626,128,0,63848:0:0:0:0:
36,192,63626,1,0,0:0:0:0:
256,192,63737,1,0,0:0:0:0:
182,192,63848,128,0,64070:0:0:0:0:
329,192,63848,128,0,63959:0:0:0:0:
36,192,63848,128,0,64515:0:0:0:0:
475,192,63848,128,0,64181:0:0:0:0:
256,192,64070,128,0,64293:0:0:0:0:
109,192,64181,128,0,64293:0:0:0:0:
402,192,64181,128,0,64959:0:0:0:0:
329,192,64181,128,0,64515:0:0:0:0:
475,192,64293,128,0,64515:0:0:0:0:
182,192,64515,128,0,64737:0:0:0:0:
256,192,64515,128,0,64626:0:0:0:0:
109,192,64515,128,0,64959:0:0:0:0:
36,192,64737,128,0,64959:0:0:0:0:
182,192,64959,128,0,65626:0:0:0:0:
256,192,64959,1,0,0:0:0:0:
329,192,64959,1,0,0:0:0:0:
402,192,65070,1,0,0:0:0:0:
475,192,65070,1,0,0:0:0:0:
36,192,65181,1,0,0:0:0:0:
109,192,65181,1,0,0:0:0:0:
329,192,65293,1,0,0:0:0:0:
402,192,65293,1,0,0:0:0:0:
256,192,65404,1,0,0:0:0:0:
475,192,65404,1,0,0:0:0:0:
36,192,65626,1,0,0:0:0:0:
109,192,65626,1,0,0:0:0:0:
402,192,65848,128,0,65959:0:0:0:0:
256,192,65848,128,0,66070:0:0:0:0:
475,192,65848,1,0,0:0:0:0:
329,192,65959,1,0,0:0:0:0:
402,192,66070,128,0,66181:0:0:0:0:
182,192,66070,128,0,66293:0:0:0:0:
109,192,66070,1,0,0:0:0:0:
36,192,66070,1,0,0:0:0:0:
256,192,66181,1,0,0:0:0:0:
402,192,66293,128,0,66515:0:0:0:0:
109,192,66293,128,0,66515:0:0:0:0:
329,192,66293,1,0,0:0:0:0:
475,192,66404,1,0,0:0:0:0:
329,192,66515,128,0,66737:0:0:0:0:
36,192,66515,128,0,66737:0:0:0:0:
256,192,66515,1,0,0:0:0:0:
182,192,66515,1,0,0:0:0:0:
402,192,66737,128,0,66959:0:0:0:0:
182,192,66737,128,0,66959:0:0:0:0:
109,192,66848,1,0,0:0:0:0:
475,192,66959,128,0,67181:0:0:0:0:
329,192,66959,1,0,0:0:0:0:
256,192,66959,1,0,0:0:0:0:
36,192,66959,128,0,67070:0:0:0:0:
109,192,67070,128,0,67181:0:0:0:0:
402,192,67070,1,0,0:0:0:0:
182,192,67181,128,0,67404:0:0:0:0:
256,192,67181,128,0,67293:0:0:0:0:
36,192,67181,1,0,0:0:0:0:
329,192,67293,128,0,67404:0:0:0:0:
402,192,67293,1,0,0:0:0:0:
109,192,67404,128,0,67848:0:0:0:0:
475,192,67404,128,0,67626:0:0:0:0:
36,192,67404,1,0,0:0:0:0:
256,192,67404,1,0,0:0:0:0:
182,192,67626,128,0,67737:0:0:0:0:
329,192,67737,128,0,67848:0:0:0:0:
402,192,67737,1,0,0:0:0:0:
36,192,67848,128,0,68293:0:0:0:0:
475,192,67848,128,0,67959:0:0:0:0:
256,192,67848,1,0,0:0:0:0:
182,192,67848,1,0,0:0:0:0:
402,192,67959,128,0,68070:0:0:0:0:
329,192,67959,1,0,0:0:0:0:
182,192,68070,128,0,68181:0:0:0:0:
109,192,68070,1,0,0:0:0:0:
475,192,68181,128,0,68293:0:0:0:0:
402,192,68181,1,0,0:0:0:0:
109,192,68293,128,0,68626:0:0:0:0:
329,192,68293,1,0,0:0:0:0:
182,192,68293,128,0,68515:0:0:0:0:
256,192,68293,1,0,0:0:0:0:
475,192,68515,128,0,68737:0:0:0:0:
36,192,68626,1,0,0:0:0:0:
182,192,68626,128,0,68959:0:0:0:0:
256,192,68737,1,0,0:0:0:0:
329,192,68737,1,0,0:0:0:0:
402,192,68737,128,0,68959:0:0:0:0:
109,192,68848,1,0,0:0:0:0:
36,192,68959,128,0,69181:0:0:0:0:
256,192,68959,128,0,69181:0:0:0:0:
475,192,68959,1,0,0:0:0:0:
182,192,69070,1,0,0:0:0:0:
475,192,69181,128,0,69404:0:0:0:0:
109,192,69181,128,0,69404:0:0:0:0:
402,192,69181,1,0,0:0:0:0:
329,192,69181,1,0,0:0:0:0:
329,192,69404,128,0,69737:0:0:0:0:
36,192,69515,1,0,0:0:0:0:
182,192,69515,1,0,0:0:0:0:
402,192,69626,1,0,0:0:0:0:
475,192,69626,1,0,0:0:0:0:
256,192,69737,1,0,0:0:0:0:
329,192,69848,128,0,70737:0:0:0:0:
36,192,69848,128,0,69959:0:0:0:0:
182,192,69848,1,0,0:0:0:0:
109,192,69959,128,0,70070:0:0:0:0:
475,192,69959,1,0,0:0:0:0:
182,192,70070,128,0,70404:0:0:0:0:
402,192,70070,1,0,0:0:0:0:
256,192,70070,1,0,0:0:0:0:
256,192,70404,128,0,70737:0:0:0:0:
36,192,70404,1,0,0:0:0:0:
109,192,70515,1,0,0:0:0:0:
182,192,70515,1,0,0:0:0:0:
475,192,70626,1,0,0:0:0:0:
402,192,70737,128,0,70959:0:0:0:0:
36,192,70737,128,0,71070:0:0:0:0:
182,192,70737,1,0,0:0:0:0:
256,192,70848,1,0,0:0:0:0:
109,192,70959,128,0,71626:0:0:0:0:
329,192,70959,1,0,0:0:0:0:
475,192,70959,1,0,0:0:0:0:
402,192,71033,128,0,71330:0:0:0:0:
36,192,71293,1,0,0:0:0:0:
182,192,71330,128,0,72515:0:0:0:0:
329,192,71404,1,0,0:0:0:0:
256,192,71404,1,0,0:0:0:0:
402,192,71515,1,0,0:0:0:0:
329,192,71626,128,0,71737:0:0:0:0:
475,192,71626,1,0,0:0:0:0:
256,192,71737,128,0,71848:0:0:0:0:
36,192,71737,1,0,0:0:0:0:
402,192,71848,128,0,72181:0:0:0:0:
475,192,71848,1,0,0:0:0:0:
109,192,71848,1,0,0:0:0:0:
36,192,72181,128,0,72515:0:0:0:0:
475,192,72181,1,0,0:0:0:0:
329,192,72293,1,0,0:0:0:0:
402,192,72293,1,0,0:0:0:0:
475,192,72515,128,0,72737:0:0:0:0:
329,192,72515,128,0,72737:0:0:0:0:
109,192,72515,1,0,0:0:0:0:
36,192,72626,1,0,0:0:0:0:
256,192,72737,128,0,73404:0:0:0:0:
182,192,72737,1,0,0:0:0:0:
402,192,72737,1,0,0:0:0:0:
475,192,72811,128,0,73107:0:0:0:0:
182,192,72959,1,0,0:0:0:0:
36,192,73070,1,0,0:0:0:0:
109,192,73107,128,0,74515:0:0:0:0:
329,192,73181,1,0,0:0:0:0:
402,192,73181,1,0,0:0:0:0:
182,192,73293,1,0,0:0:0:0:
475,192,73404,128,0,74070:0:0:0:0:
36,192,73404,1,0,0:0:0:0:
402,192,73515,1,0,0:0:0:0:
329,192,73626,1,0,0:0:0:0:
256,192,73626,1,0,0:0:0:0:
182,192,73848,1,0,0:0:0:0:
256,192,73848,1,0,0:0:0:0:
329,192,73959,1,0,0:0:0:0:
402,192,73959,1,0,0:0:0:0:
182,192,74070,128,0,74515:0:0:0:0:
256,192,74070,1,0,0:0:0:0:
36,192,74070,1,0,0:0:0:0:
475,192,74181,1,0,0:0:0:0:
402,192,74181,1,0,0:0:0:0:
329,192,74293,1,0,0:0:0:0:
256,192,74293,1,0,0:0:0:0:
36,192,74404,1,0,0:0:0:0:
402,192,74404,1,0,0:0:0:0:
475,192,74515,128,0,74848:0:0:0:0:
329,192,74515,128,0,75181:0:0:0:0:
256,192,74515,1,0,0:0:0:0:
182,192,74848,128,0,75181:0:0:0:0:
256,192,74848,128,0,75404:0:0:0:0:
475,192,75181,128,0,75515:0:0:0:0:
402,192,75181,128,0,75737:0:0:0:0:
36,192,75181,128,0,75293:0:0:0:0:
109,192,75293,128,0,75404:0:0:0:0:
182,192,75404,128,0,76515:0:0:0:0:
329,192,75404,128,0,75737:0:0:0:0:
36,192,75404,128,0,75848:0:0:0:0:
256,192,75737,128,0,76181:0:0:0:0:
475,192,75737,128,0,76070:0:0:0:0:
109,192,75848,128,0,76293:0:0:0:0:
402,192,76070,128,0,76293:0:0:0:0:
329,192,76293,128,0,76737:0:0:0:0:
256,192,76293,128,0,76959:0:0:0:0:
36,192,76293,128,0,76515:0:0:0:0:
475,192,76515,128,0,76737:0:0:0:0:
109,192,76626,1,0,0:0:0:0:
36,192,76737,128,0,76959:0:0:0:0:
182,192,76737,1,0,0:0:0:0:
402,192,76737,1,0,0:0:0:0:
182,192,76959,128,0,77181:0:0:0:0:
475,192,76959,128,0,77848:0:0:0:0:
109,192,77181,128,0,77404:0:0:0:0:
402,192,77181,128,0,77404:0:0:0:0:
329,192,77404,128,0,77626:0:0:0:0:
256,192,77404,1,0,0:0:0:0:
36,192,77515,1,0,0:0:0:0:
182,192,77626,128,0,77848:0:0:0:0:
402,192,77626,1,0,0:0:0:0:
109,192,77626,128,0,77848:0:0:0:0:
256,192,77737,1,0,0:0:0:0:
402,192,77848,128,0,78070:0:0:0:0:
36,192,77848,128,0,78737:0:0:0:0:
329,192,77848,1,0,0:0:0:0:
256,192,78070,128,0,78293:0:0:0:0:
329,192,78070,128,0,78293:0:0:0:0:
475,192,78293,128,0,78404:0:0:0:0:
109,192,78293,1,0,0:0:0:0:
182,192,78404,1,0,0:0:0:0:
475,192,78515,128,0,78737:0:0:0:0:
256,192,78515,1,0,0:0:0:0:
329,192,78515,128,0,78737:0:0:0:0:
109,192,78737,128,0,79181:0:0:0:0:
402,192,78737,128,0,79181:0:0:0:0:
182,192,78737,128,0,78959:0:0:0:0:
36,192,78959,128,0,79181:0:0:0:0:
475,192,79181,128,0,79848:0:0:0:0:
256,192,79181,128,0,79848:0:0:0:0:
329,192,79181,128,0,79404:0:0:0:0:
182,192,79293,1,0,0:0:0:0:
36,192,79404,1,0,0:0:0:0:
109,192,79404,128,0,79626:0:0:0:0:
402,192,79404,1,0,0:0:0:0:
329,192,79515,1,0,0:0:0:0:
402,192,79626,128,0,79848:0:0:0:0:
182,192,79626,1,0,0:0:0:0:
36,192,79737,1,0,0:0:0:0:
109,192,79848,128,0,80515:0:0:0:0:
182,192,79848,1,0,0:0:0:0:
329,192,79848,1,0,0:0:0:0:
402,192,80070,128,0,80293:0:0:0:0:
475,192,80070,1,0,0:0:0:0:
329,192,80181,1,0,0:0:0:0:
36,192,80293,128,0,80515:0:0:0:0:
182,192,80293,1,0,0:0:0:0:
256,192,80293,1,0,0:0:0:0:
256,192,80515,128,0,80737:0:0:0:0:
475,192,80515,128,0,81404:0:0:0:0:
109,192,80737,128,0,80959:0:0:0:0:
36,192,80737,128,0,80959:0:0:0:0:
329,192,80959,128,0,81181:0:0:0:0:
256,192,80959,1,0,0:0:0:0:
402,192,81070,1,0,0:0:0:0:
182,192,81181,128,0,81404:0:0:0:0:
36,192,81181,128,0,81404:0:0:0:0:
109,192,81181,1,0,0:0:0:0:
329,192,81293,1,0,0:0:0:0:
402,192,81404,128,0,81626:0:0:0:0:
109,192,81404,128,0,82293:0:0:0:0:
256,192,81404,1,0,0:0:0:0:
256,192,81626,128,0,81848:0:0:0:0:
329,192,81626,128,0,81848:0:0:0:0:
475,192,81848,128,0,81959:0:0:0:0:
36,192,81848,1,0,0:0:0:0:
256,192,81959,1,0,0:0:0:0:
475,192,82070,128,0,82181:0:0:0:0:
329,192,82070,1,0,0:0:0:0:
402,192,82070,128,0,82293:0:0:0:0:
182,192,82181,1,0,0:0:0:0:
475,192,82293,128,0,82404:0:0:0:0:
256,192,82293,128,0,82737:0:0:0:0:
36,192,82293,1,0,0:0:0:0:
329,192,82293,128,0,82404:0:0:0:0:
182,192,82404,128,0,82515:0:0:0:0:
475,192,82515,128,0,82737:0:0:0:0:
36,192,82515,128,0,82737:0:0:0:0:
109,192,82515,1,0,0:0:0:0:
329,192,82737,128,0,82959:0:0:0:0:
109,192,82737,128,0,83404:0:0:0:0:
182,192,82737,1,0,0:0:0:0:
402,192,82848,1,0,0:0:0:0:
182,192,82959,128,0,83404:0:0:0:0:
475,192,82959,128,0,83181:0:0:0:0:
36,192,82959,1,0,0:0:0:0:
256,192,83070,1,0,0:0:0:0:
329,192,83181,1,0,0:0:0:0:
402,192,83293,1,0,0:0:0:0:
36,192,83404,128,0,84070:0:0:0:0:
475,192,83404,128,0,84293:0:0:0:0:
329,192,83404,1,0,0:0:0:0:
256,192,83404,1,0,0:0:0:0:
109,192,83737,1,0,0:0:0:0:
182,192,83848,1,0,0:0:0:0:
256,192,83848,1,0,0:0:0:0:
182,192,84070,128,0,84181:0:0:0:0:
402,192,84070,1,0,0:0:0:0:
329,192,84181,128,0,84293:0:0:0:0:
256,192,84293,128,0,84737:0:0:0:0:
36,192,84293,128,0,85181:0:0:0:0:
109,192,84293,1,0,0:0:0:0:
475,192,84404,1,0,0:0:0:0:
402,192,84515,1,0,0:0:0:0:
329,192,84626,1,0,0:0:0:0:
475,192,84737,128,0,85181:0:0:0:0:
182,192,84737,1,0,0:0:0:0:
109,192,84737,1,0,0:0:0:0:
182,192,84959,1,0,0:0:0:0:
256,192,85070,1,0,0:0:0:0:
109,192,85181,128,0,85848:0:0:0:0:
182,192,85181,128,0,86070:0:0:0:0:
402,192,85181,1,0,0:0:0:0:
329,192,85181,1,0,0:0:0:0:
256,192,85404,1,0,0:0:0:0:
329,192,85515,1,0,0:0:0:0:
402,192,85626,1,0,0:0:0:0:
475,192,85626,1,0,0:0:0:0:
36,192,85737,1,0,0:0:0:0:
256,192,85848,128,0,85959:0:0:0:0:
329,192,85848,1,0,0:0:0:0:
402,192,85959,128,0,86070:0:0:0:0:
109,192,85959,1,0,0:0:0:0:
329,192,86070,128,0,86515:0:0:0:0:
36,192,86070,128,0,86959:0:0:0:0:
256,192,86070,1,0,0:0:0:0:
475,192,86070,1,0,0:0:0:0:
256,192,86293,1,0,0:0:0:0:
402,192,86404,1,0,0:0:0:0:
475,192,86515,128,0,86959:0:0:0:0:
182,192,86515,1,0,0:0:0:0:
109,192,86515,1,0,0:0:0:0:
329,192,86737,1,0,0:0:0:0:
402,192,86848,1,0,0:0:0:0:
256,192,86959,128,0,87404:0:0:0:0:
329,192,86959,128,0,87848:0:0:0:0:
109,192,86959,1,0,0:0:0:0:
182,192,86959,1,0,0:0:0:0:
36,192,87181,1,0,0:0:0:0:
182,192,87293,1,0,0:0:0:0:
109,192,87404,128,0,87848:0:0:0:0:
402,192,87404,1,0,0:0:0:0:
475,192,87404,1,0,0:0:0:0:
182,192,87515,128,0,87626:0:0:0:0:
475,192,87626,1,0,0:0:0:0:
256,192,87626,128,0,88070:0:0:0:0:
182,192,87848,128,0,88293:0:0:0:0:
36,192,87848,1,0,0:0:0:0:
475,192,88070,1,0,0:0:0:0:
329,192,88181,1,0,0:0:0:0:
402,192,88293,128,0,89181:0:0:0:0:
36,192,88293,128,0,89181:0:0:0:0:
256,192,88293,1,0,0:0:0:0:
109,192,88293,1,0,0:0:0:0:
109,192,88959,128,0,89033:0:0:0:0:
256,192,89033,128,0,89107:0:0:0:0:
329,192,89107,128,0,89181:0:0:0:0:
475,192,89181,128,0,89404:0:0:0:0:
182,192,89181,128,0,89256:0:0:0:0:
36,192,89330,128,0,89404:0:0:0:0:
256,192,89404,128,0,89626:0:0:0:0:
329,192,89404,1,0,0:0:0:0:
109,192,89478,128,0,89552:0:0:0:0:
402,192,89515,1,0,0:0:0:0:
182,192,89626,128,0,90070:0:0:0:0:
475,192,89626,128,0,89700:0:0:0:0:
36,192,89626,1,0,0:0:0:0:
402,192,89922,128,0,89996:0:0:0:0:
475,192,89922,1,0,0:0:0:0:
36,192,90070,128,0,90515:0:0:0:0:
256,192,90070,128,0,90144:0:0:0:0:
329,192,90070,1,0,0:0:0:0:
475,192,90293,1,0,0:0:0:0:
182,192,90515,128,0,90589:0:0:0:0:
109,192,90515,128,0,92737:0:0:0:0:
475,192,90515,128,0,90737:0:0:0:0:
256,192,90515,1,0,0:0:0:0:
402,192,90515,128,0,91404:0:0:0:0:
329,192,90848,1,0,0:0:0:0:
256,192,90848,1,0,0:0:0:0:
182,192,90959,1,0,0:0:0:0:
475,192,91181,128,0,91404:0:0:0:0:
182,192,91181,1,0,0:0:0:0:
36,192,91404,1,0,0:0:0:0:
329,192,91404,128,0,91626:0:0:0:0:
256,192,91404,1,0,0:0:0:0:
256,192,91737,1,0,0:0:0:0:
36,192,91737,1,0,0:0:0:0:
475,192,91848,128,0,92070:0:0:0:0:
329,192,91848,1,0,0:0:0:0:
182,192,92070,128,0,92293:0:0:0:0:
402,192,92070,1,0,0:0:0:0:
36,192,92070,128,0,92515:0:0:0:0:
329,192,92070,128,0,92737:0:0:0:0:
256,192,92293,1,0,0:0:0:0:
402,192,92515,128,0,92959:0:0:0:0:
256,192,92515,128,0,92737:0:0:0:0:
475,192,92515,1,0,0:0:0:0:
182,192,92737,1,0,0:0:0:0:
36,192,92737,1,0,0:0:0:0:
475,192,92848,128,0,93070:0:0:0:0:
36,192,92959,1,0,0:0:0:0:
182,192,93015,1,0,0:0:0:0:
256,192,93070,1,0,0:0:0:0:
329,192,93070,1,0,0:0:0:0:
475,192,93181,128,0,93293:0:0:0:0:
36,192,93181,1,0,0:0:0:0:
109,192,93181,1,0,0:0:0:0:
329,192,93293,1,0,0:0:0:0:
109,192,93404,1,0,0:0:0:0:
256,192,93515,1,0,0:0:0:0:
182,192,93515,1,0,0:0:0:0:
475,192,93626,1,0,0:0:0:0:
36,192,93626,128,0,93737:0:0:0:0:
109,192,93737,1,0,0:0:0:0:
182,192,93737,1,0,0:0:0:0:
36,192,93848,128,0,94070:0:0:0:0:
329,192,93848,128,0,94626:0:0:0:0:
256,192,93848,1,0,0:0:0:0:
402,192,93848,1,0,0:0:0:0:
475,192,94070,128,0,94181:0:0:0:0:
182,192,94293,128,0,94515:0:0:0:0:
109,192,94293,1,0,0:0:0:0:
402,192,94293,128,0,94404:0:0:0:0:
256,192,94515,128,0,94737:0:0:0:0:
36,192,94515,1,0,0:0:0:0:
402,192,94626,128,0,94848:0:0:0:0:
36,192,94737,1,0,0:0:0:0:
109,192,94737,1,0,0:0:0:0:
329,192,94848,1,0,0:0:0:0:
256,192,94848,1,0,0:0:0:0:
109,192,94959,128,0,95070:0:0:0:0:
36,192,94959,1,0,0:0:0:0:
182,192,94959,1,0,0:0:0:0:
329,192,95181,128,0,96070:0:0:0:0:
256,192,95181,128,0,95293:0:0:0:0:
36,192,95293,1,0,0:0:0:0:
182,192,95293,1,0,0:0:0:0:
402,192,95404,1,0,0:0:0:0:
475,192,95404,128,0,95515:0:0:0:0:
182,192,95515,1,0,0:0:0:0:
402,192,95626,128,0,95848:0:0:0:0:
109,192,95626,128,0,96404:0:0:0:0:
36,192,95626,128,0,95737:0:0:0:0:
475,192,95848,128,0,95959:0:0:0:0:
182,192,96070,128,0,96293:0:0:0:0:
402,192,96070,128,0,96181:0:0:0:0:
256,192,96293,128,0,96404:0:0:0:0:
475,192,96293,1,0,0:0:0:0:
36,192,96404,128,0,96626:0:0:0:0:
329,192,96515,128,0,96626:0:0:0:0:
475,192,96737,128,0,97070:0:0:0:0:
182,192,96737,1,0,0:0:0:0:
109,192,96737,128,0,96848:0:0:0:0:
329,192,96848,128,0,97181:0:0:0:0:
182,192,96959,128,0,97293:0:0:0:0:
402,192,96959,1,0,0:0:0:0:
36,192,97070,128,0,97404:0:0:0:0:
256,192,97070,1,0,0:0:0:0:
109,192,97070,128,0,97181:0:0:0:0:
402,192,97181,128,0,97626:0:0:0:0:
475,192,97181,128,0,97293:0:0:0:0:
256,192,97293,128,0,97626:0:0:0:0:
109,192,97404,128,0,99181:0:0:0:0:
329,192,97404,128,0,97515:0:0:0:0:
36,192,97626,128,0,97737:0:0:0:0:
182,192,97848,128,0,97959:0:0:0:0:
256,192,97848,1,0,0:0:0:0:
256,192,98070,128,0,99181:0:0:0:0:
329,192,98070,128,0,98181:0:0:0:0:
402,192,98070,1,0,0:0:0:0:
475,192,98293,128,0,98404:0:0:0:0:
36,192,98293,1,0,0:0:0:0:
402,192,98515,128,0,99181:0:0:0:0:
329,192,98515,128,0,98626:0:0:0:0:
182,192,98515,1,0,0:0:0:0:
475,192,98737,1,0,0:0:0:0:
36,192,98737,128,0,98848:0:0:0:0:
329,192,98959,1,0,0:0:0:0:
182,192,98959,128,0,99070:0:0:0:0:
475,192,99181,128,0,99626:0:0:0:0:
329,192,99181,128,0,99515:0:0:0:0:
182,192,99181,128,0,99404:0:0:0:0:
36,192,99181,128,0,99293:0:0:0:0:
256,192,99404,128,0,99515:0:0:0:0:
182,192,99626,128,0,99681:0:0:0:0:
36,192,99626,128,0,99848:0:0:0:0:
109,192,99626,128,0,99737:0:0:0:0:
475,192,99848,128,0,100070:0:0:0:0:
402,192,99848,128,0,99959:0:0:0:0:
329,192,99848,128,0,99904:0:0:0:0:
182,192,99848,128,0,100070:0:0:0:0:
36,192,99959,128,0,100181:0:0:0:0:
256,192,100070,128,0,100293:0:0:0:0:
109,192,100181,128,0,100404:0:0:0:0:
475,192,100181,1,0,0:0:0:0:
329,192,100293,128,0,100515:0:0:0:0:
36,192,100293,1,0,0:0:0:0:
402,192,100293,1,0,0:0:0:0:
182,192,100404,128,0,100626:0:0:0:0:
402,192,100515,128,0,100737:0:0:0:0:
256,192,100626,128,0,100848:0:0:0:0:
36,192,100626,1,0,0:0:0:0:
109,192,100626,1,0,0:0:0:0:
475,192,100737,128,0,100959:0:0:0:0:
329,192,100848,128,0,101070:0:0:0:0:
182,192,100959,128,0,101181:0:0:0:0:
402,192,100959,1,0,0:0:0:0:
109,192,100959,1,0,0:0:0:0:
36,192,101070,128,0,101293:0:0:0:0:
475,192,101181,128,0,101515:0:0:0:0:
256,192,101181,128,0,101367:0:0:0:0:
329,192,101181,1,0,0:0:0:0:
402,192,101367,128,0,101663:0:0:0:0:
256,192,101515,128,0,101663:0:0:0:0:
36,192,101515,128,0,101959:0:0:0:0:
109,192,101515,128,0,101793:0:0:0:0:
329,192,101663,128,0,101959:0:0:0:0:
256,192,101793,128,0,102070:0:0:0:0:
402,192,101848,1,0,0:0:0:0:
475,192,101848,128,0,102070:0:0:0:0:
182,192,101959,128,0,102237:0:0:0:0:
329,192,102070,1,0,0:0:0:0:
36,192,102070,128,0,102404:0:0:0:0:
109,192,102070,128,0,102293:0:0:0:0:
329,192,102404,1,0,0:0:0:0:
475,192,102404,128,0,102737:0:0:0:0:
402,192,102404,128,0,102626:0:0:0:0:
36,192,102737,1,0,0:0:0:0:
109,192,102737,128,0,102959:0:0:0:0:
256,192,102737,128,0,102848:0:0:0:0:
36,192,102959,128,0,103293:0:0:0:0:
475,192,102959,1,0,0:0:0:0:
402,192,102959,128,0,103181:0:0:0:0:
475,192,103293,128,0,103626:0:0:0:0:
109,192,103293,1,0,0:0:0:0:
182,192,103293,128,0,103515:0:0:0:0:
329,192,103626,128,0,103848:0:0:0:0:
402,192,103626,1,0,0:0:0:0:
256,192,103626,128,0,104293:0:0:0:0:
36,192,103848,128,0,104070:0:0:0:0:
182,192,104070,128,0,104293:0:0:0:0:
329,192,104293,128,0,104515:0:0:0:0:
109,192,104293,128,0,104737:0:0:0:0:
475,192,104515,128,0,104737:0:0:0:0:
182,192,104737,128,0,105293:0:0:0:0:
402,192,104737,128,0,106070:0:0:0:0:
109,192,105070,1,0,0:0:0:0:
329,192,105181,1,0,0:0:0:0:
256,192,105181,1,0,0:0:0:0:
182,192,105404,128,0,105515:0:0:0:0:
36,192,105404,1,0,0:0:0:0:
109,192,105404,1,0,0:0:0:0:
182,192,105626,128,0,106070:0:0:0:0:
256,192,105626,1,0,0:0:0:0:
329,192,105848,1,0,0:0:0:0:
36,192,106070,128,0,106293:0:0:0:0:
475,192,106070,128,0,106181:0:0:0:0:
256,192,106293,128,0,106404:0:0:0:0:
402,192,106293,128,0,106404:0:0:0:0:
109,192,106404,128,0,107070:0:0:0:0:
475,192,106515,128,0,106848:0:0:0:0:
329,192,106515,1,0,0:0:0:0:
256,192,106848,1,0,0:0:0:0:
182,192,106848,1,0,0:0:0:0:
329,192,106959,1,0,0:0:0:0:
109,192,107181,128,0,107404:0:0:0:0:
402,192,107181,1,0,0:0:0:0:
475,192,107181,1,0,0:0:0:0:
256,192,107404,128,0,107626:0:0:0:0:
329,192,107404,1,0,0:0:0:0:
182,192,107404,128,0,107848:0:0:0:0:
475,192,107626,128,0,107737:0:0:0:0:
402,192,107626,128,0,107737:0:0:0:0:
475,192,107848,128,0,108070:0:0:0:0:
109,192,107848,1,0,0:0:0:0:
36,192,107848,128,0,108293:0:0:0:0:
402,192,108070,128,0,108293:0:0:0:0:
256,192,108070,1,0,0:0:0:0:
329,192,108070,1,0,0:0:0:0:
182,192,108293,128,0,108737:0:0:0:0:
109,192,108293,128,0,108515:0:0:0:0:
475,192,108293,1,0,0:0:0:0:
329,192,108515,128,0,108737:0:0:0:0:
36,192,108626,1,0,0:0:0:0:
109,192,108626,1,0,0:0:0:0:
256,192,108737,128,0,108959:0:0:0:0:
402,192,108737,128,0,108959:0:0:0:0:
475,192,108737,1,0,0:0:0:0:
329,192,108959,128,0,109181:0:0:0:0:
475,192,108959,128,0,109181:0:0:0:0:
36,192,108959,1,0,0:0:0:0:
182,192,108959,1,0,0:0:0:0:
402,192,109181,128,0,109626:0:0:0:0:
256,192,109181,128,0,109293:0:0:0:0:
182,192,109404,128,0,109626:0:0:0:0:
109,192,109404,1,0,0:0:0:0:
329,192,109626,128,0,110070:0:0:0:0:
36,192,109626,128,0,109737:0:0:0:0:
475,192,109848,1,0,0:0:0:0:
402,192,109848,1,0,0:0:0:0:
256,192,110070,128,0,110515:0:0:0:0:
182,192,110070,1,0,0:0:0:0:
475,192,110293,128,0,110515:0:0:0:0:
402,192,110293,1,0,0:0:0:0:
109,192,110404,1,0,0:0:0:0:
182,192,110404,1,0,0:0:0:0:
329,192,110515,128,0,110737:0:0:0:0:
36,192,110515,128,0,110737:0:0:0:0:
402,192,110737,128,0,110959:0:0:0:0:
256,192,110737,1,0,0:0:0:0:
109,192,110737,128,0,110959:0:0:0:0:
182,192,110737,1,0,0:0:0:0:
475,192,110959,128,0,111404:0:0:0:0:
36,192,110959,1,0,0:0:0:0:
256,192,110959,128,0,111070:0:0:0:0:
182,192,111070,128,0,111181:0:0:0:0:
402,192,111070,1,0,0:0:0:0:
109,192,111181,128,0,111293:0:0:0:0:
329,192,111181,1,0,0:0:0:0:
256,192,111293,1,0,0:0:0:0:
402,192,111404,128,0,111515:0:0:0:0:
36,192,111404,128,0,111848:0:0:0:0:
182,192,111404,1,0,0:0:0:0:
329,192,111515,128,0,111626:0:0:0:0:
109,192,111515,1,0,0:0:0:0:
182,192,111626,128,0,111848:0:0:0:0:
475,192,111626,1,0,0:0:0:0:
329,192,111848,128,0,112626:0:0:0:0:
402,192,111848,128,0,112293:0:0:0:0:
256,192,111848,1,0,0:0:0:0:
256,192,112181,1,0,0:0:0:0:
182,192,112181,1,0,0:0:0:0:
36,192,112293,128,0,112737:0:0:0:0:
109,192,112293,1,0,0:0:0:0:
402,192,112515,1,0,0:0:0:0:
475,192,112515,1,0,0:0:0:0:
182,192,112626,1,0,0:0:0:0:
329,192,112737,128,0,113181:0:0:0:0:
109,192,112737,128,0,113181:0:0:0:0:
475,192,112737,1,0,0:0:0:0:
256,192,112848,1,0,0:0:0:0:
36,192,112959,1,0,0:0:0:0:
402,192,113070,128,0,113181:0:0:0:0:
475,192,113181,128,0,113404:0:0:0:0:
182,192,113181,128,0,113626:0:0:0:0:
256,192,113181,1,0,0:0:0:0:
36,192,113293,1,0,0:0:0:0:
402,192,113404,128,0,114293:0:0:0:0:
109,192,113404,1,0,0:0:0:0:
329,192,113404,1,0,0:0:0:0:
475,192,113515,1,0,0:0:0:0:
109,192,113626,128,0,114070:0:0:0:0:
36,192,113626,1,0,0:0:0:0:
182,192,113959,1,0,0:0:0:0:
329,192,113959,128,0,114070:0:0:0:0:
36,192,114070,128,0,114515:0:0:0:0:
475,192,114070,1,0,0:0:0:0:
256,192,114070,1,0,0:0:0:0:
329,192,114293,128,0,114515:0:0:0:0:
256,192,114293,1,0,0:0:0:0:
182,192,114293,1,0,0:0:0:0:
402,192,114404,1,0,0:0:0:0:
475,192,114515,128,0,114959:0:0:0:0:
109,192,114515,128,0,114737:0:0:0:0:
182,192,114515,1,0,0:0:0:0:
329,192,114626,1,0,0:0:0:0:
36,192,114737,128,0,114848:0:0:0:0:
256,192,114737,1,0,0:0:0:0:
402,192,114737,1,0,0:0:0:0:
182,192,114848,128,0,114959:0:0:0:0:
109,192,114959,128,0,115181:0:0:0:0:
329,192,114959,128,0,115404:0:0:0:0:
256,192,114959,1,0,0:0:0:0:
402,192,115070,1,0,0:0:0:0:
182,192,115181,128,0,115404:0:0:0:0:
475,192,115181,1,0,0:0:0:0:
256,192,115293,1,0,0:0:0:0:
402,192,115404,128,0,115848:0:0:0:0:
36,192,115404,128,0,115848:0:0:0:0:
475,192,115404,128,0,115626:0:0:0:0:
109,192,115404,1,0,0:0:0:0:
182,192,115626,128,0,115848:0:0:0:0:
475,192,115737,128,0,115848:0:0:0:0:
329,192,115848,128,0,116070:0:0:0:0:
256,192,115848,128,0,116293:0:0:0:0:
109,192,115848,128,0,116070:0:0:0:0:
182,192,116070,128,0,116293:0:0:0:0:
402,192,116070,128,0,116293:0:0:0:0:
36,192,116293,128,0,116737:0:0:0:0:
475,192,116293,128,0,116737:0:0:0:0:
329,192,116293,128,0,116515:0:0:0:0:
256,192,116515,128,0,116737:0:0:0:0:
182,192,116626,128,0,116737:0:0:0:0:
109,192,116737,128,0,117181:0:0:0:0:
329,192,116737,128,0,117181:0:0:0:0:
402,192,116737,128,0,116959:0:0:0:0:
182,192,116959,128,0,117181:0:0:0:0:
256,192,117181,128,0,117626:0:0:0:0:
475,192,117181,128,0,117626:0:0:0:0:
36,192,117181,128,0,117404:0:0:0:0:
329,192,117404,128,0,117626:0:0:0:0:
109,192,117515,128,0,117626:0:0:0:0:
36,192,117626,128,0,117848:0:0:0:0:
402,192,117626,128,0,118070:0:0:0:0:
182,192,117848,128,0,118070:0:0:0:0:
329,192,117848,1,0,0:0:0:0:
256,192,117848,1,0,0:0:0:0:
109,192,117959,1,0,0:0:0:0:
475,192,118070,128,0,118181:0:0:0:0:
36,192,118070,128,0,118515:0:0:0:0:
256,192,118070,1,0,0:0:0:0:
329,192,118126,1,0,0:0:0:0:
109,192,118181,128,0,118293:0:0:0:0:
182,192,118237,128,0,118348:0:0:0:0:
256,192,118293,128,0,118404:0:0:0:0:
329,192,118348,128,0,118459:0:0:0:0:
402,192,118404,128,0,118515:0:0:0:0:
475,192,118459,128,0,118570:0:0:0:0:
182,192,118515,128,0,118626:0:0:0:0:
256,192,118515,128,0,118737:0:0:0:0:
36,192,118626,128,0,118737:0:0:0:0:
402,192,118737,128,0,119404:0:0:0:0:
109,192,118737,128,0,118848:0:0:0:0:
329,192,118848,128,0,118959:0:0:0:0:
36,192,118959,128,0,119848:0:0:0:0:
475,192,118959,128,0,119070:0:0:0:0:
256,192,118959,128,0,119181:0:0:0:0:
109,192,119293,128,0,119404:0:0:0:0:
182,192,119404,128,0,119848:0:0:0:0:
256,192,119404,1,0,0:0:0:0:
475,192,119404,1,0,0:0:0:0:
475,192,119626,128,0,119848:0:0:0:0:
256,192,119737,1,0,0:0:0:0:
109,192,119848,128,0,120070:0:0:0:0:
329,192,119848,1,0,0:0:0:0:
402,192,119848,1,0,0:0:0:0:
182,192,120070,128,0,120515:0:0:0:0:
329,192,120070,128,0,120293:0:0:0:0:
256,192,120070,128,0,120181:0:0:0:0:
36,192,120181,1,0,0:0:0:0:
475,192,120293,1,0,0:0:0:0:
402,192,120293,1,0,0:0:0:0:
109,192,120293,128,0,120515:0:0:0:0:
329,192,120515,128,0,120959:0:0:0:0:
475,192,120515,128,0,120626:0:0:0:0:
402,192,120626,1,0,0:0:0:0:
109,192,120737,128,0,121626:0:0:0:0:
475,192,120737,128,0,120959:0:0:0:0:
182,192,120737,1,0,0:0:0:0:
256,192,120737,1,0,0:0:0:0:
402,192,120959,128,0,121404:0:0:0:0:
36,192,120959,128,0,121181:0:0:0:0:
182,192,121070,1,0,0:0:0:0:
329,192,121181,1,0,0:0:0:0:
256,192,121181,1,0,0:0:0:0:
475,192,121404,128,0,121848:0:0:0:0:
36,192,121404,1,0,0:0:0:0:
402,192,121515,1,0,0:0:0:0:
329,192,121626,1,0,0:0:0:0:
256,192,121626,128,0,121848:0:0:0:0:
182,192,121626,128,0,121737:0:0:0:0:
109,192,121737,128,0,121848:0:0:0:0:
402,192,121848,128,0,122070:0:0:0:0:
182,192,121848,128,0,122070:0:0:0:0:
329,192,121848,128,0,121959:0:0:0:0:
256,192,121959,128,0,122070:0:0:0:0:
329,192,122070,128,0,122293:0:0:0:0:
475,192,122070,1,0,0:0:0:0:
109,192,122070,128,0,122181:0:0:0:0:
36,192,122181,128,0,122293:0:0:0:0:
402,192,122293,128,0,122737:0:0:0:0:
182,192,122293,128,0,122404:0:0:0:0:
256,192,122404,128,0,122515:0:0:0:0:
182,192,122515,128,0,123404:0:0:0:0:
329,192,122515,128,0,122737:0:0:0:0:
36,192,122515,1,0,0:0:0:0:
109,192,122515,1,0,0:0:0:0:
256,192,122737,128,0,122959:0:0:0:0:
36,192,122737,1,0,0:0:0:0:
109,192,122848,128,0,122959:0:0:0:0:
475,192,122959,128,0,123181:0:0:0:0:
402,192,122959,1,0,0:0:0:0:
329,192,122959,1,0,0:0:0:0:
256,192,123070,1,0,0:0:0:0:
109,192,123181,128,0,123404:0:0:0:0:
36,192,123181,128,0,123293:0:0:0:0:
256,192,123293,1,0,0:0:0:0:
329,192,123404,128,0,124070:0:0:0:0:
475,192,123404,1,0,0:0:0:0:
402,192,123404,1,0,0:0:0:0:
36,192,123515,1,0,0:0:0:0:
475,192,123626,1,0,0:0:0:0:
256,192,123737,128,0,123848:0:0:0:0:
402,192,123737,1,0,0:0:0:0:
182,192,123793,128,0,123904:0:0:0:0:
109,192,123848,128,0,123959:0:0:0:0:
36,192,123848,128,0,123959:0:0:0:0:
402,192,123996,128,0,124144:0:0:0:0:
256,192,124070,128,0,124293:0:0:0:0:
109,192,124144,128,0,124293:0:0:0:0:
182,192,124293,128,0,125181:0:0:0:0:
475,192,124293,128,0,124737:0:0:0:0:
329,192,124293,1,0,0:0:0:0:
402,192,124293,1,0,0:0:0:0:
109,192,124515,1,0,0:0:0:0:
256,192,124626,128,0,124737:0:0:0:0:
402,192,124737,128,0,124959:0:0:0:0:
36,192,124737,1,0,0:0:0:0:
329,192,124737,1,0,0:0:0:0:
109,192,124848,128,0,124959:0:0:0:0:
256,192,124959,128,0,125181:0:0:0:0:
329,192,124959,128,0,125070:0:0:0:0:
475,192,125070,128,0,125181:0:0:0:0:
109,192,125181,128,0,125404:0:0:0:0:
36,192,125181,128,0,125293:0:0:0:0:
402,192,125181,1,0,0:0:0:0:
329,192,125293,1,0,0:0:0:0:
402,192,125404,128,0,125626:0:0:0:0:
475,192,125404,1,0,0:0:0:0:
329,192,125515,1,0,0:0:0:0:
182,192,125515,128,0,125626:0:0:0:0:
256,192,125515,1,0,0:0:0:0:
109,192,125626,128,0,125848:0:0:0:0:
475,192,125626,1,0,0:0:0:0:
36,192,125626,1,0,0:0:0:0:
402,192,125737,1,0,0:0:0:0:
36,192,125848,128,0,126070:0:0:0:0:
329,192,125848,128,0,125959:0:0:0:0:
256,192,125959,128,0,126070:0:0:0:0:
475,192,126070,128,0,126959:0:0:0:0:
402,192,126070,128,0,126515:0:0:0:0:
329,192,126070,128,0,126293:0:0:0:0:
109,192,126070,1,0,0:0:0:0:
256,192,126181,128,0,126293:0:0:0:0:
182,192,126293,128,0,126515:0:0:0:0:
109,192,126404,128,0,126515:0:0:0:0:
36,192,126515,128,0,126959:0:0:0:0:
329,192,126515,128,0,126737:0:0:0:0:
256,192,126515,1,0,0:0:0:0:
109,192,126626,1,0,0:0:0:0:
256,192,126737,128,0,126959:0:0:0:0:
182,192,126848,128,0,126959:0:0:0:0:
109,192,126959,128,0,127181:0:0:0:0:
402,192,126959,128,0,127181:0:0:0:0:
329,192,126959,1,0,0:0:0:0:
36,192,127070,128,0,127181:0:0:0:0:
182,192,127181,128,0,127626:0:0:0:0:
475,192,127293,1,0,0:0:0:0:
402,192,127404,128,0,127626:0:0:0:0:
109,192,127404,1,0,0:0:0:0:
36,192,127404,1,0,0:0:0:0:
329,192,127515,128,0,127626:0:0:0:0:
475,192,127626,128,0,128070:0:0:0:0:
256,192,127626,128,0,127848:0:0:0:0:
182,192,127737,128,0,127848:0:0:0:0:
36,192,127848,128,0,128737:0:0:0:0:
402,192,127848,128,0,128070:0:0:0:0:
329,192,127848,1,0,0:0:0:0:
109,192,127848,1,0,0:0:0:0:
256,192,127959,1,0,0:0:0:0:
182,192,128070,128,0,128293:0:0:0:0:
109,192,128070,128,0,128515:0:0:0:0:
256,192,128181,128,0,128293:0:0:0:0:
402,192,128181,1,0,0:0:0:0:
329,192,128293,128,0,128515:0:0:0:0:
475,192,128293,1,0,0:0:0:0:
402,192,128404,128,0,128515:0:0:0:0:
475,192,128515,128,0,128959:0:0:0:0:
182,192,128515,128,0,128737:0:0:0:0:
329,192,128626,1,0,0:0:0:0:
256,192,128737,128,0,128848:0:0:0:0:
109,192,128737,128,0,128959:0:0:0:0:
329,192,128848,128,0,128959:0:0:0:0:
402,192,128959,128,0,129181:0:0:0:0:
182,192,128959,128,0,129070:0:0:0:0:
36,192,128959,128,0,129181:0:0:0:0:
256,192,129070,128,0,129181:0:0:0:0:
329,192,129181,128,0,129404:0:0:0:0:
109,192,129181,128,0,129293:0:0:0:0:
475,192,129181,1,0,0:0:0:0:
182,192,129293,128,0,129404:0:0:0:0:
36,192,129404,128,0,129515:0:0:0:0:
256,192,129404,128,0,129626:0:0:0:0:
402,192,129404,1,0,0:0:0:0:
109,192,129515,128,0,129626:0:0:0:0:
182,192,129626,128,0,129737:0:0:0:0:
402,192,129626,128,0,131404:0:0:0:0:
329,192,129626,128,0,129848:0:0:0:0:
475,192,129626,128,0,130515:0:0:0:0:
182,192,129848,128,0,129959:0:0:0:0:
36,192,129959,1,0,0:0:0:0:
182,192,130070,128,0,130181:0:0:0:0:
329,192,130070,1,0,0:0:0:0:
256,192,130070,1,0,0:0:0:0:
182,192,130293,128,0,130737:0:0:0:0:
109,192,130293,1,0,0:0:0:0:
256,192,130404,1,0,0:0:0:0:
109,192,130515,1,0,0:0:0:0:
36,192,130515,1,0,0:0:0:0:
329,192,130626,1,0,0:0:0:0:
256,192,130737,128,0,130959:0:0:0:0:
475,192,130848,1,0,0:0:0:0:
329,192,130959,128,0,131181:0:0:0:0:
36,192,130959,1,0,0:0:0:0:
182,192,130959,128,0,131070:0:0:0:0:
109,192,131070,1,0,0:0:0:0:
182,192,131181,128,0,131404:0:0:0:0:
256,192,131181,128,0,131293:0:0:0:0:
475,192,131293,1,0,0:0:0:0:
109,192,131404,128,0,131515:0:0:0:0:
256,192,131404,128,0,132070:0:0:0:0:
36,192,131404,128,0,132293:0:0:0:0:
329,192,131404,1,0,0:0:0:0:
109,192,131626,128,0,131737:0:0:0:0:
475,192,131737,1,0,0:0:0:0:
109,192,131848,128,0,131959:0:0:0:0:
402,192,131848,1,0,0:0:0:0:
329,192,131848,1,0,0:0:0:0:
109,192,132070,128,0,132181:0:0:0:0:
329,192,132070,128,0,132181:0:0:0:0:
182,192,132070,1,0,0:0:0:0:
402,192,132181,128,0,132293:0:0:0:0:
256,192,132181,1,0,0:0:0:0:
109,192,132293,128,0,132737:0:0:0:0:
475,192,132293,128,0,133181:0:0:0:0:
329,192,132293,1,0,0:0:0:0:
256,192,132404,1,0,0:0:0:0:
402,192,132515,1,0,0:0:0:0:
36,192,132626,1,0,0:0:0:0:
329,192,132737,128,0,132959:0:0:0:0:
256,192,132737,1,0,0:0:0:0:
182,192,132737,1,0,0:0:0:0:
109,192,132848,1,0,0:0:0:0:
402,192,132959,128,0,133181:0:0:0:0:
36,192,132959,1,0,0:0:0:0:
182,192,133070,1,0,0:0:0:0:
329,192,133181,128,0,133293:0:0:0:0:
109,192,133181,128,0,134959:0:0:0:0:
256,192,133181,128,0,134070:0:0:0:0:
36,192,133181,1,0,0:0:0:0:
329,192,133404,128,0,133515:0:0:0:0:
182,192,133515,1,0,0:0:0:0:
329,192,133626,128,0,133737:0:0:0:0:
402,192,133626,1,0,0:0:0:0:
475,192,133626,1,0,0:0:0:0:
329,192,133848,128,0,134070:0:0:0:0:
182,192,133848,1,0,0:0:0:0:
402,192,133959,1,0,0:0:0:0:
182,192,134070,128,0,134293:0:0:0:0:
36,192,134070,1,0,0:0:0:0:
475,192,134070,1,0,0:0:0:0:
256,192,134181,1,0,0:0:0:0:
475,192,134293,128,0,134515:0:0:0:0:
402,192,134293,1,0,0:0:0:0:
36,192,134404,1,0,0:0:0:0:
329,192,134515,128,0,134737:0:0:0:0:
256,192,134515,1,0,0:0:0:0:
182,192,134515,1,0,0:0:0:0:
402,192,134626,1,0,0:0:0:0:
36,192,134737,128,0,135181:0:0:0:0:
475,192,134737,1,0,0:0:0:0:
182,192,134848,1,0,0:0:0:0:
256,192,134959,128,0,135404:0:0:0:0:
329,192,134959,1,0,0:0:0:0:
475,192,134959,128,0,135848:0:0:0:0:
402,192,134959,1,0,0:0:0:0:
182,192,135181,128,0,135404:0:0:0:0:
402,192,135293,1,0,0:0:0:0:
329,192,135404,128,0,135626:0:0:0:0:
36,192,135404,1,0,0:0:0:0:
182,192,135626,128,0,135848:0:0:0:0:
402,192,135848,128,0,136181:0:0:0:0:
329,192,135848,128,0,135959:0:0:0:0:
109,192,135848,1,0,0:0:0:0:
36,192,135848,1,0,0:0:0:0:
182,192,135959,128,0,136070:0:0:0:0:
36,192,136070,128,0,136181:0:0:0:0:
256,192,136181,128,0,136515:0:0:0:0:
475,192,136181,128,0,136293:0:0:0:0:
402,192,136293,128,0,136404:0:0:0:0:
109,192,136293,1,0,0:0:0:0:
182,192,136293,1,0,0:0:0:0:
329,192,136404,128,0,136515:0:0:0:0:
182,192,136515,128,0,136737:0:0:0:0:
36,192,136515,128,0,136626:0:0:0:0:
475,192,136626,128,0,136737:0:0:0:0:
109,192,136737,128,0,138293:0:0:0:0:
36,192,136737,1,0,0:0:0:0:
402,192,136737,128,0,136959:0:0:0:0:
329,192,136737,128,0,137626:0:0:0:0:
182,192,136959,1,0,0:0:0:0:
36,192,137070,128,0,137181:0:0:0:0:
182,192,137126,128,0,137237:0:0:0:0:
256,192,137126,1,0,0:0:0:0:
402,192,137181,128,0,137293:0:0:0:0:
475,192,137181,1,0,0:0:0:0:
402,192,137404,1,0,0:0:0:0:
36,192,137404,1,0,0:0:0:0:
475,192,137515,1,0,0:0:0:0:
402,192,137626,128,0,138181:0:0:0:0:
256,192,137626,128,0,137848:0:0:0:0:
182,192,137626,128,0,137959:0:0:0:0:
475,192,137848,128,0,137959:0:0:0:0:
256,192,137959,128,0,138293:0:0:0:0:
36,192,137959,128,0,138181:0:0:0:0:
329,192,137959,128,0,138515:0:0:0:0:
182,192,138181,128,0,138293:0:0:0:0:
402,192,138293,128,0,138811:0:0:0:0:
475,192,138293,128,0,138663:0:0:0:0:
36,192,138293,128,0,138515:0:0:0:0:
109,192,138515,128,0,138663:0:0:0:0:
256,192,138663,128,0,138811:0:0:0:0:
475,192,138811,128,0,138959:0:0:0:0:
329,192,138959,128,0,139107:0:0:0:0:
402,192,138959,128,0,139107:0:0:0:0:
182,192,139107,128,0,139256:0:0:0:0:
329,192,139181,128,0,139404:0:0:0:0:
36,192,139256,128,0,139404:0:0:0:0:
402,192,139404,128,0,139552:0:0:0:0:
475,192,139404,128,0,139626:0:0:0:0:
256,192,139552,128,0,139700:0:0:0:0:
109,192,139626,128,0,140293:0:0:0:0:
36,192,139700,128,0,139848:0:0:0:0:
475,192,139848,1,0,0:0:0:0:
402,192,139848,1,0,0:0:0:0:
329,192,139848,128,0,139996:0:0:0:0:
256,192,139996,128,0,140144:0:0:0:0:
182,192,140144,128,0,140293:0:0:0:0:
329,192,140293,128,0,140959:0:0:0:0:
475,192,140293,128,0,140515:0:0:0:0:
256,192,140293,1,0,0:0:0:0:
36,192,140293,1,0,0:0:0:0:
402,192,140515,128,0,140626:0:0:0:0:
109,192,140515,1,0,0:0:0:0:
36,192,140626,1,0,0:0:0:0:
402,192,140737,128,0,140848:0:0:0:0:
182,192,140737,1,0,0:0:0:0:
256,192,140737,1,0,0:0:0:0:
402,192,140959,128,0,141181:0:0:0:0:
36,192,140959,128,0,141626:0:0:0:0:
182,192,140959,1,0,0:0:0:0:
329,192,141181,128,0,141404:0:0:0:0:
109,192,141181,1,0,0:0:0:0:
256,192,141181,1,0,0:0:0:0:
475,192,141404,128,0,141626:0:0:0:0:
402,192,141404,1,0,0:0:0:0:
329,192,141515,1,0,0:0:0:0:
402,192,141626,128,0,142070:0:0:0:0:
256,192,141626,128,0,141848:0:0:0:0:
182,192,141626,1,0,0:0:0:0:
109,192,141626,1,0,0:0:0:0:
36,192,141737,1,0,0:0:0:0:
475,192,141848,128,0,142070:0:0:0:0:
182,192,141848,1,0,0:0:0:0:
256,192,141959,1,0,0:0:0:0:
329,192,142070,128,0,142737:0:0:0:0:
182,192,142070,128,0,142293:0:0:0:0:
36,192,142070,1,0,0:0:0:0:
109,192,142070,1,0,0:0:0:0:
402,192,142293,128,0,142515:0:0:0:0:
475,192,142293,1,0,0:0:0:0:
256,192,142404,1,0,0:0:0:0:
109,192,142515,128,0,142737:0:0:0:0:
36,192,142515,1,0,0:0:0:0:
475,192,142626,1,0,0:0:0:0:
36,192,142737,128,0,143404:0:0:0:0:
256,192,142737,128,0,142959:0:0:0:0:
402,192,142737,1,0,0:0:0:0:
182,192,142737,1,0,0:0:0:0:
329,192,142848,1,0,0:0:0:0:
182,192,142959,128,0,143181:0:0:0:0:
109,192,142959,1,0,0:0:0:0:
475,192,142959,1,0,0:0:0:0:
402,192,143070,1,0,0:0:0:0:
109,192,143181,128,0,143848:0:0:0:0:
329,192,143181,1,0,0:0:0:0:
256,192,143293,1,0,0:0:0:0:
402,192,143404,128,0,143848:0:0:0:0:
475,192,143404,1,0,0:0:0:0:
329,192,143404,1,0,0:0:0:0:
182,192,143626,1,0,0:0:0:0:
256,192,143737,1,0,0:0:0:0:
475,192,143848,1,0,0:0:0:0:
329,192,143848,128,0,144515:0:0:0:0:
36,192,143848,1,0,0:0:0:0:
36,192,144070,128,0,144181:0:0:0:0:
402,192,144070,1,0,0:0:0:0:
256,192,144181,1,0,0:0:0:0:
182,192,144293,1,0,0:0:0:0:
36,192,144293,128,0,144404:0:0:0:0:
109,192,144293,1,0,0:0:0:0:
402,192,144404,1,0,0:0:0:0:
475,192,144515,128,0,145181:0:0:0:0:
36,192,144515,128,0,144737:0:0:0:0:
256,192,144515,1,0,0:0:0:0:
182,192,144737,128,0,144959:0:0:0:0:
109,192,144737,1,0,0:0:0:0:
329,192,144737,1,0,0:0:0:0:
256,192,144848,1,0,0:0:0:0:
36,192,144959,128,0,145181:0:0:0:0:
402,192,144959,1,0,0:0:0:0:
109,192,145070,1,0,0:0:0:0:
402,192,145181,128,0,145626:0:0:0:0:
256,192,145181,128,0,145404:0:0:0:0:
182,192,145181,1,0,0:0:0:0:
329,192,145181,1,0,0:0:0:0:
36,192,145293,1,0,0:0:0:0:
109,192,145404,128,0,145626:0:0:0:0:
475,192,145404,1,0,0:0:0:0:
256,192,145515,1,0,0:0:0:0:
329,192,145626,128,0,145848:0:0:0:0:
182,192,145626,128,0,145737:0:0:0:0:
475,192,145626,128,0,146293:0:0:0:0:
36,192,145626,128,0,145959:0:0:0:0:
256,192,145848,128,0,146070:0:0:0:0:
402,192,145959,128,0,146070:0:0:0:0:
109,192,145959,128,0,146737:0:0:0:0:
182,192,145959,128,0,146293:0:0:0:0:
36,192,146070,128,0,146293:0:0:0:0:
329,192,146293,128,0,146515:0:0:0:0:
256,192,146293,128,0,146404:0:0:0:0:
402,192,146293,128,0,146737:0:0:0:0:
475,192,146515,128,0,146737:0:0:0:0:
329,192,146737,128,0,147404:0:0:0:0:
256,192,146737,1,0,0:0:0:0:
182,192,146737,1,0,0:0:0:0:
109,192,146848,1,0,0:0:0:0:
36,192,146848,1,0,0:0:0:0:
475,192,146959,1,0,0:0:0:0:
402,192,146959,1,0,0:0:0:0:
182,192,147070,1,0,0:0:0:0:
109,192,147070,1,0,0:0:0:0:
256,192,147181,1,0,0:0:0:0:
36,192,147181,1,0,0:0:0:0:
475,192,147404,1,0,0:0:0:0:
402,192,147404,1,0,0:0:0:0:
109,192,147626,128,0,147737:0:0:0:0:
256,192,147626,128,0,147848:0:0:0:0:
36,192,147626,1,0,0:0:0:0:
182,192,147737,1,0,0:0:0:0:
109,192,147848,128,0,147959:0:0:0:0:
329,192,147848,128,0,148070:0:0:0:0:
402,192,147848,1,0,0:0:0:0:
475,192,147848,1,0,0:0:0:0:
256,192,147959,1,0,0:0:0:0:
109,192,148070,128,0,148293:0:0:0:0:
402,192,148070,128,0,148293:0:0:0:0:
182,192,148070,1,0,0:0:0:0:
36,192,148181,1,0,0:0:0:0:
182,192,148293,128,0,148515:0:0:0:0:
475,192,148293,128,0,148515:0:0:0:0:
256,192,148293,1,0,0:0:0:0:
329,192,148293,1,0,0:0:0:0:
109,192,148515,128,0,148737:0:0:0:0:
329,192,148515,128,0,148737:0:0:0:0:
402,192,148626,1,0,0:0:0:0:
36,192,148737,128,0,148959:0:0:0:0:
182,192,148737,1,0,0:0:0:0:
256,192,148737,1,0,0:0:0:0:
475,192,148737,128,0,148848:0:0:0:0:
402,192,148848,128,0,148959:0:0:0:0:
109,192,148848,1,0,0:0:0:0:
329,192,148959,128,0,149181:0:0:0:0:
256,192,148959,128,0,149070:0:0:0:0:
475,192,148959,1,0,0:0:0:0:
182,192,149070,128,0,149181:0:0:0:0:
109,192,149070,1,0,0:0:0:0:
402,192,149181,128,0,149626:0:0:0:0:
36,192,149181,128,0,149404:0:0:0:0:
475,192,149181,1,0,0:0:0:0:
256,192,149181,1,0,0:0:0:0:
329,192,149404,128,0,149515:0:0:0:0:
182,192,149515,128,0,149626:0:0:0:0:
109,192,149515,1,0,0:0:0:0:
475,192,149626,128,0,150070:0:0:0:0:
36,192,149626,128,0,149737:0:0:0:0:
256,192,149626,1,0,0:0:0:0:
329,192,149626,1,0,0:0:0:0:
109,192,149737,128,0,149848:0:0:0:0:
182,192,149737,1,0,0:0:0:0:
329,192,149848,128,0,149959:0:0:0:0:
402,192,149848,1,0,0:0:0:0:
36,192,149959,128,0,150070:0:0:0:0:
109,192,149959,1,0,0:0:0:0:
402,192,150070,128,0,150404:0:0:0:0:
182,192,150070,1,0,0:0:0:0:
329,192,150070,128,0,150293:0:0:0:0:
256,192,150070,1,0,0:0:0:0:
36,192,150293,128,0,150515:0:0:0:0:
475,192,150404,1,0,0:0:0:0:
329,192,150404,128,0,150737:0:0:0:0:
256,192,150515,1,0,0:0:0:0:
182,192,150515,1,0,0:0:0:0:
109,192,150515,128,0,150737:0:0:0:0:
402,192,150626,1,0,0:0:0:0:
475,192,150737,128,0,150959:0:0:0:0:
36,192,150737,1,0,0:0:0:0:
256,192,150737,128,0,151181:0:0:0:0:
329,192,150848,1,0,0:0:0:0:
36,192,150959,128,0,151181:0:0:0:0:
109,192,150959,1,0,0:0:0:0:
182,192,150959,1,0,0:0:0:0:
182,192,151181,128,0,151404:0:0:0:0:
475,192,151293,1,0,0:0:0:0:
109,192,151404,1,0,0:0:0:0:
36,192,151404,1,0,0:0:0:0:
256,192,151515,1,0,0:0:0:0:
182,192,151515,128,0,152515:0:0:0:0:
475,192,151626,128,0,151737:0:0:0:0:
329,192,151626,1,0,0:0:0:0:
402,192,151737,128,0,151848:0:0:0:0:
36,192,151737,1,0,0:0:0:0:
329,192,151848,128,0,152181:0:0:0:0:
109,192,151848,1,0,0:0:0:0:
256,192,151848,1,0,0:0:0:0:
256,192,152181,128,0,152515:0:0:0:0:
475,192,152181,1,0,0:0:0:0:
402,192,152293,1,0,0:0:0:0:
329,192,152293,1,0,0:0:0:0:
36,192,152404,1,0,0:0:0:0:
109,192,152515,128,0,152737:0:0:0:0:
475,192,152515,128,0,152848:0:0:0:0:
329,192,152515,1,0,0:0:0:0:
256,192,152626,1,0,0:0:0:0:
402,192,152737,128,0,153404:0:0:0:0:
182,192,152737,1,0,0:0:0:0:
36,192,152737,1,0,0:0:0:0:
109,192,152848,128,0,153070:0:0:0:0:
475,192,153070,1,0,0:0:0:0:
329,192,153070,128,0,154293:0:0:0:0:
182,192,153181,1,0,0:0:0:0:
256,192,153181,1,0,0:0:0:0:
109,192,153293,1,0,0:0:0:0:
182,192,153404,128,0,153515:0:0:0:0:
36,192,153404,1,0,0:0:0:0:
256,192,153515,128,0,153626:0:0:0:0:
475,192,153515,1,0,0:0:0:0:
109,192,153626,128,0,153959:0:0:0:0:
36,192,153626,1,0,0:0:0:0:
402,192,153626,1,0,0:0:0:0:
475,192,153959,128,0,154293:0:0:0:0:
36,192,153959,1,0,0:0:0:0:
256,192,154070,1,0,0:0:0:0:
182,192,154070,1,0,0:0:0:0:
36,192,154293,128,0,154515:0:0:0:0:
182,192,154293,128,0,154515:0:0:0:0:
402,192,154293,1,0,0:0:0:0:
475,192,154404,1,0,0:0:0:0:
256,192,154515,128,0,155181:0:0:0:0:
329,192,154515,1,0,0:0:0:0:
109,192,154515,1,0,0:0:0:0:
36,192,154626,128,0,154959:0:0:0:0:
329,192,154737,1,0,0:0:0:0:
475,192,154848,1,0,0:0:0:0:
402,192,154848,128,0,156293:0:0:0:0:
182,192,154959,1,0,0:0:0:0:
109,192,154959,1,0,0:0:0:0:
329,192,155070,1,0,0:0:0:0:
36,192,155181,128,0,155848:0:0:0:0:
475,192,155181,1,0,0:0:0:0:
109,192,155293,1,0,0:0:0:0:
182,192,155404,1,0,0:0:0:0:
256,192,155404,1,0,0:0:0:0:
475,192,155515,1,0,0:0:0:0:
329,192,155626,1,0,0:0:0:0:
109,192,155737,1,0,0:0:0:0:
182,192,155737,1,0,0:0:0:0:
475,192,155848,128,0,156293:0:0:0:0:
329,192,155848,1,0,0:0:0:0:
256,192,155848,1,0,0:0:0:0:
182,192,155959,1,0,0:0:0:0:
36,192,156070,1,0,0:0:0:0:
109,192,156181,1,0,0:0:0:0:
36,192,156293,128,0,156626:0:0:0:0:
256,192,156293,1,0,0:0:0:0:
329,192,156293,1,0,0:0:0:0:
182,192,156293,128,0,156959:0:0:0:0:
256,192,156626,128,0,157181:0:0:0:0:
329,192,156626,128,0,156959:0:0:0:0:
109,192,156959,128,0,157515:0:0:0:0:
36,192,156959,128,0,157181:0:0:0:0:
475,192,156959,128,0,157070:0:0:0:0:
402,192,157070,128,0,157181:0:0:0:0:
329,192,157181,128,0,158293:0:0:0:0:
182,192,157181,128,0,157515:0:0:0:0:
475,192,157181,128,0,157626:0:0:0:0:
36,192,157293,1,0,0:0:0:0:
402,192,157404,1,0,0:0:0:0:
256,192,157515,128,0,157959:0:0:0:0:
36,192,157515,128,0,157848:0:0:0:0:
402,192,157626,128,0,158070:0:0:0:0:
182,192,157626,1,0,0:0:0:0:
475,192,157737,1,0,0:0:0:0:
109,192,157848,128,0,158070:0:0:0:0:
182,192,158070,128,0,158515:0:0:0:0:
256,192,158070,128,0,158737:0:0:0:0:
475,192,158070,128,0,158293:0:0:0:0:
36,192,158293,128,0,158515:0:0:0:0:
402,192,158404,1,0,0:0:0:0:
475,192,158515,128,0,158737:0:0:0:0:
329,192,158515,1,0,0:0:0:0:
109,192,158515,1,0,0:0:0:0:
329,192,158737,128,0,158959:0:0:0:0:
36,192,158737,128,0,159626:0:0:0:0:
402,192,158959,128,0,159181:0:0:0:0:
109,192,158959,128,0,159181:0:0:0:0:
182,192,159181,128,0,159404:0:0:0:0:
256,192,159181,1,0,0:0:0:0:
475,192,159293,1,0,0:0:0:0:
329,192,159404,128,0,159626:0:0:0:0:
109,192,159404,1,0,0:0:0:0:
402,192,159404,128,0,159626:0:0:0:0:
256,192,159515,1,0,0:0:0:0:
109,192,159626,128,0,159848:0:0:0:0:
475,192,159626,128,0,160515:0:0:0:0:
182,192,159626,1,0,0:0:0:0:
256,192,159848,128,0,160070:0:0:0:0:
182,192,159848,128,0,160070:0:0:0:0:
36,192,160070,128,0,160181:0:0:0:0:
402,192,160070,1,0,0:0:0:0:
329,192,160181,1,0,0:0:0:0:
36,192,160293,128,0,160515:0:0:0:0:
256,192,160293,1,0,0:0:0:0:
182,192,160293,128,0,160515:0:0:0:0:
402,192,160515,128,0,160959:0:0:0:0:
109,192,160515,128,0,160959:0:0:0:0:
329,192,160515,128,0,160737:0:0:0:0:
475,192,160737,128,0,160959:0:0:0:0:
36,192,160959,128,0,161626:0:0:0:0:
256,192,160959,128,0,161626:0:0:0:0:
182,192,160959,128,0,161181:0:0:0:0:
329,192,161070,1,0,0:0:0:0:
475,192,161181,1,0,0:0:0:0:
402,192,161181,128,0,161404:0:0:0:0:
182,192,161293,1,0,0:0:0:0:
109,192,161404,128,0,161626:0:0:0:0:
475,192,161515,1,0,0:0:0:0:
402,192,161626,128,0,162293:0:0:0:0:
329,192,161626,1,0,0:0:0:0:
182,192,161626,1,0,0:0:0:0:
109,192,161848,128,0,162070:0:0:0:0:
36,192,161848,1,0,0:0:0:0:
182,192,161959,1,0,0:0:0:0:
475,192,162070,128,0,162293:0:0:0:0:
329,192,162070,1,0,0:0:0:0:
256,192,162070,1,0,0:0:0:0:
256,192,162293,128,0,162515:0:0:0:0:
36,192,162293,128,0,163181:0:0:0:0:
402,192,162515,128,0,162737:0:0:0:0:
475,192,162515,128,0,162737:0:0:0:0:
182,192,162737,128,0,162959:0:0:0:0:
256,192,162737,1,0,0:0:0:0:
402,192,162848,1,0,0:0:0:0:
329,192,162959,128,0,163181:0:0:0:0:
475,192,162959,128,0,163181:0:0:0:0:
109,192,162959,1,0,0:0:0:0:
182,192,163070,1,0,0:0:0:0:
109,192,163181,128,0,163404:0:0:0:0:
402,192,163181,128,0,164070:0:0:0:0:
256,192,163181,1,0,0:0:0:0:
256,192,163404,128,0,163626:0:0:0:0:
182,192,163404,128,0,163626:0:0:0:0:
36,192,163626,128,0,163737:0:0:0:0:
475,192,163626,1,0,0:0:0:0:
256,192,163737,1,0,0:0:0:0:
36,192,163848,128,0,163959:0:0:0:0:
182,192,163848,1,0,0:0:0:0:
109,192,163848,128,0,164070:0:0:0:0:
329,192,163959,1,0,0:0:0:0:
36,192,164070,128,0,164181:0:0:0:0:
256,192,164070,128,0,164515:0:0:0:0:
475,192,164070,1,0,0:0:0:0:
182,192,164070,128,0,164181:0:0:0:0:
329,192,164181,128,0,164293:0:0:0:0:
36,192,164293,128,0,164515:0:0:0:0:
475,192,164293,128,0,164515:0:0:0:0:
402,192,164293,1,0,0:0:0:0:
182,192,164515,128,0,164737:0:0:0:0:
402,192,164515,128,0,165181:0:0:0:0:
329,192,164515,1,0,0:0:0:0:
109,192,164626,1,0,0:0:0:0:
329,192,164737,128,0,165181:0:0:0:0:
36,192,164737,128,0,164959:0:0:0:0:
475,192,164737,1,0,0:0:0:0:
256,192,164848,1,0,0:0:0:0:
182,192,164959,1,0,0:0:0:0:
109,192,165070,1,0,0:0:0:0:
475,192,165181,128,0,165848:0:0:0:0:
36,192,165181,128,0,166070:0:0:0:0:
182,192,165181,1,0,0:0:0:0:
256,192,165181,1,0,0:0:0:0:
402,192,165515,1,0,0:0:0:0:
329,192,165626,1,0,0:0:0:0:
256,192,165626,1,0,0:0:0:0:
329,192,165848,128,0,165959:0:0:0:0:
109,192,165848,1,0,0:0:0:0:
182,192,165959,128,0,166070:0:0:0:0:
256,192,166070,128,0,166515:0:0:0:0:
475,192,166070,128,0,166959:0:0:0:0:
402,192,166070,1,0,0:0:0:0:
36,192,166181,1,0,0:0:0:0:
109,192,166293,1,0,0:0:0:0:
182,192,166404,1,0,0:0:0:0:
36,192,166515,128,0,166959:0:0:0:0:
329,192,166515,1,0,0:0:0:0:
402,192,166515,1,0,0:0:0:0:
329,192,166737,1,0,0:0:0:0:
256,192,166848,1,0,0:0:0:0:
402,192,166959,128,0,167626:0:0:0:0:
329,192,166959,128,0,167848:0:0:0:0:
109,192,166959,1,0,0:0:0:0:
182,192,166959,1,0,0:0:0:0:
256,192,167181,1,0,0:0:0:0:
182,192,167293,1,0,0:0:0:0:
109,192,167404,1,0,0:0:0:0:
36,192,167404,1,0,0:0:0:0:
182,192,167515,1,0,0:0:0:0:
256,192,167626,128,0,167737:0:0:0:0:
475,192,167626,1,0,0:0:0:0:
109,192,167737,128,0,167848:0:0:0:0:
402,192,167737,1,0,0:0:0:0:
182,192,167848,128,0,168293:0:0:0:0:
475,192,167848,128,0,168737:0:0:0:0:
256,192,167848,1,0,0:0:0:0:
36,192,167848,1,0,0:0:0:0:
402,192,167959,1,0,0:0:0:0:
329,192,168070,1,0,0:0:0:0:
109,192,168181,1,0,0:0:0:0:
36,192,168293,128,0,168737:0:0:0:0:
402,192,168293,1,0,0:0:0:0:
256,192,168293,1,0,0:0:0:0:
109,192,168515,1,0,0:0:0:0:
329,192,168626,1,0,0:0:0:0:
256,192,168737,128,0,169181:0:0:0:0:
402,192,168737,128,0,169626:0:0:0:0:
109,192,168737,1,0,0:0:0:0:
182,192,168737,1,0,0:0:0:0:
36,192,168959,1,0,0:0:0:0:
182,192,169070,1,0,0:0:0:0:
109,192,169181,128,0,169626:0:0:0:0:
329,192,169181,1,0,0:0:0:0:
475,192,169181,1,0,0:0:0:0:
182,192,169293,128,0,169404:0:0:0:0:
256,192,169404,128,0,169848:0:0:0:0:
36,192,169626,128,0,170070:0:0:0:0:
475,192,169626,1,0,0:0:0:0:
329,192,169848,1,0,0:0:0:0:
109,192,169922,1,0,0:0:0:0:
256,192,169996,1,0,0:0:0:0:
475,192,170070,128,0,170959:0:0:0:0:
402,192,170070,1,0,0:0:0:0:
329,192,170959,128,0,171181:0:0:0:0:
36,192,170959,128,0,171070:0:0:0:0:
182,192,171181,128,0,171404:0:0:0:0:
402,192,171404,1,0,0:0:0:0:
475,192,171404,1,0,0:0:0:0:
109,192,171404,128,0,171848:0:0:0:0:
36,192,171626,1,0,0:0:0:0:
475,192,171700,1,0,0:0:0:0:
402,192,171737,1,0,0:0:0:0:
329,192,171774,1,0,0:0:0:0:
256,192,171848,1,0,0:0:0:0:
182,192,171848,128,0,172293:0:0:0:0:
36,192,171848,1,0,0:0:0:0:
109,192,172070,1,0,0:0:0:0:
256,192,172070,1,0,0:0:0:0:
475,192,172293,128,0,172959:0:0:0:0:
402,192,172293,128,0,172552:0:0:0:0:
329,192,172293,128,0,172441:0:0:0:0:
182,192,172552,1,0,0:0:0:0:
256,192,172663,128,0,172737:0:0:0:0:
329,192,172663,128,0,172885:0:0:0:0:
402,192,172663,128,0,173330:0:0:0:0:
36,192,172737,128,0,173219:0:0:0:0:
329,192,172959,128,0,173626:0:0:0:0:
256,192,172959,128,0,173219:0:0:0:0:
182,192,172959,128,0,173107:0:0:0:0:
475,192,173219,1,0,0:0:0:0:
256,192,173330,128,0,173996:0:0:0:0:
182,192,173330,128,0,173552:0:0:0:0:
109,192,173330,128,0,173478:0:0:0:0:
36,192,173330,1,0,0:0:0:0:
182,192,173626,128,0,174293:0:0:0:0:
109,192,173626,128,0,173885:0:0:0:0:
36,192,173626,128,0,173774:0:0:0:0:
329,192,173885,1,0,0:0:0:0:
36,192,173996,128,0,174181:0:0:0:0:
109,192,173996,128,0,174663:0:0:0:0:
475,192,173996,128,0,174144:0:0:0:0:
402,192,173996,1,0,0:0:0:0:
256,192,174181,1,0,0:0:0:0:
36,192,174293,128,0,174959:0:0:0:0:
475,192,174293,128,0,174515:0:0:0:0:
402,192,174293,128,0,174441:0:0:0:0:
329,192,174293,1,0,0:0:0:0:
182,192,174515,1,0,0:0:0:0:
329,192,174663,128,0,174811:0:0:0:0:
402,192,174663,128,0,174885:0:0:0:0:
475,192,174663,128,0,175293:0:0:0:0:
256,192,174663,1,0,0:0:0:0:
402,192,174959,128,0,175626:0:0:0:0:
329,192,174959,128,0,175181:0:0:0:0:
256,192,174959,128,0,175107:0:0:0:0:
182,192,174959,1,0,0:0:0:0:
329,192,175293,128,0,175848:0:0:0:0:
256,192,175293,128,0,175515:0:0:0:0:
182,192,175293,128,0,175404:0:0:0:0:
36,192,175404,1,0,0:0:0:0:
109,192,175404,1,0,0:0:0:0:
475,192,175515,1,0,0:0:0:0:
256,192,175626,128,0,175848:0:0:0:0:
182,192,175626,128,0,175737:0:0:0:0:
109,192,175626,1,0,0:0:0:0:
36,192,175848,1,0,0:0:0:0:
475,192,175848,128,0,176515:0:0:0:0:
36,192,176070,128,0,176181:0:0:0:0:
182,192,176181,1,0,0:0:0:0:
329,192,176293,1,0,0:0:0:0:
402,192,176293,128,0,176404:0:0:0:0:
182,192,176515,1,0,0:0:0:0:
109,192,176515,128,0,176626:0:0:0:0:
36,192,176515,128,0,177181:0:0:0:0:
475,192,176737,128,0,176848:0:0:0:0:
256,192,176737,128,0,176959:0:0:0:0:
329,192,176848,128,0,176959:0:0:0:0:
109,192,176959,1,0,0:0:0:0:
182,192,176959,1,0,0:0:0:0:
256,192,177070,1,0,0:0:0:0:
329,192,177181,1,0,0:0:0:0:
475,192,177181,1,0,0:0:0:0:
402,192,177181,128,0,177293:0:0:0:0:
256,192,177293,1,0,0:0:0:0:
36,192,177404,128,0,177515:0:0:0:0:
109,192,177515,1,0,0:0:0:0:
329,192,177626,1,0,0:0:0:0:
182,192,177626,1,0,0:0:0:0:
256,192,177774,1,0,0:0:0:0:
475,192,177848,1,0,0:0:0:0:
329,192,177922,1,0,0:0:0:0:
182,192,177996,1,0,0:0:0:0:
36,192,178070,1,0,0:0:0:0:
109,192,178070,1,0,0:0:0:0:
402,192,178181,1,0,0:0:0:0:
329,192,178293,128,0,178404:0:0:0:0:
109,192,178404,1,0,0:0:0:0:
256,192,178515,128,0,178737:0:0:0:0:
109,192,178626,128,0,178848:0:0:0:0:
329,192,178737,128,0,178959:0:0:0:0:
182,192,178848,128,0,179070:0:0:0:0:
36,192,178848,1,0,0:0:0:0:
402,192,178959,128,0,179181:0:0:0:0:
109,192,178959,1,0,0:0:0:0:
256,192,179070,128,0,179293:0:0:0:0:
475,192,179181,128,0,179404:0:0:0:0:
36,192,179181,128,0,179256:0:0:0:0:
182,192,179256,128,0,179330:0:0:0:0:
329,192,179293,128,0,179515:0:0:0:0:
402,192,179330,128,0,179404:0:0:0:0:
36,192,179404,128,0,179626:0:0:0:0:
109,192,179404,128,0,179478:0:0:0:0:
256,192,179404,128,0,179478:0:0:0:0:
109,192,179626,128,0,179700:0:0:0:0:
329,192,179626,128,0,179848:0:0:0:0:
256,192,179626,1,0,0:0:0:0:
109,192,179774,128,0,179848:0:0:0:0:
402,192,179848,128,0,180293:0:0:0:0:
182,192,179848,1,0,0:0:0:0:
36,192,179848,1,0,0:0:0:0:
109,192,179922,128,0,179996:0:0:0:0:
182,192,180070,128,0,180144:0:0:0:0:
256,192,180070,1,0,0:0:0:0:
182,192,180219,128,0,180293:0:0:0:0:
475,192,180293,128,0,180515:0:0:0:0:
329,192,180293,1,0,0:0:0:0:
36,192,180293,1,0,0:0:0:0:
182,192,180367,128,0,180441:0:0:0:0:
109,192,180515,128,0,180959:0:0:0:0:
256,192,180515,1,0,0:0:0:0:
475,192,180737,128,0,180959:0:0:0:0:
182,192,180737,1,0,0:0:0:0:
402,192,180737,1,0,0:0:0:0:
329,192,180848,128,0,180959:0:0:0:0:
36,192,180959,128,0,181070:0:0:0:0:
182,192,180959,128,0,181181:0:0:0:0:
256,192,180959,1,0,0:0:0:0:
402,192,181181,128,0,181293:0:0:0:0:
475,192,181181,128,0,181626:0:0:0:0:
109,192,181181,1,0,0:0:0:0:
329,192,181181,1,0,0:0:0:0:
36,192,181293,128,0,181404:0:0:0:0:
109,192,181404,128,0,181515:0:0:0:0:
402,192,181404,1,0,0:0:0:0:
256,192,181515,128,0,181626:0:0:0:0:
36,192,181626,128,0,181737:0:0:0:0:
182,192,181626,128,0,182070:0:0:0:0:
329,192,181626,1,0,0:0:0:0:
109,192,181626,1,0,0:0:0:0:
402,192,181737,128,0,181848:0:0:0:0:
256,192,181848,128,0,181959:0:0:0:0:
36,192,181848,1,0,0:0:0:0:
475,192,181959,128,0,182070:0:0:0:0:
109,192,182070,128,0,182515:0:0:0:0:
329,192,182070,128,0,182181:0:0:0:0:
256,192,182070,1,0,0:0:0:0:
402,192,182070,1,0,0:0:0:0:
36,192,182181,128,0,182293:0:0:0:0:
182,192,182293,128,0,182404:0:0:0:0:
475,192,182293,1,0,0:0:0:0:
256,192,182404,128,0,182515:0:0:0:0:
36,192,182515,128,0,182959:0:0:0:0:
402,192,182515,128,0,182626:0:0:0:0:
329,192,182515,1,0,0:0:0:0:
182,192,182515,1,0,0:0:0:0:
475,192,182626,128,0,182737:0:0:0:0:
109,192,182737,128,0,182848:0:0:0:0:
256,192,182737,1,0,0:0:0:0:
182,192,182848,128,0,182959:0:0:0:0:
329,192,182959,128,0,183626:0:0:0:0:
256,192,182959,128,0,183070:0:0:0:0:
109,192,182959,128,0,183181:0:0:0:0:
402,192,182959,1,0,0:0:0:0:
475,192,183070,128,0,183181:0:0:0:0:
402,192,183181,128,0,183293:0:0:0:0:
182,192,183181,128,0,183404:0:0:0:0:
36,192,183181,1,0,0:0:0:0:
256,192,183404,128,0,183626:0:0:0:0:
36,192,183404,128,0,183515:0:0:0:0:
475,192,183404,1,0,0:0:0:0:
109,192,183626,128,0,183848:0:0:0:0:
402,192,183626,128,0,183737:0:0:0:0:
36,192,183626,1,0,0:0:0:0:
182,192,183626,1,0,0:0:0:0:
256,192,183737,128,0,183848:0:0:0:0:
182,192,183848,128,0,184070:0:0:0:0:
402,192,183848,1,0,0:0:0:0:
329,192,183848,128,0,183959:0:0:0:0:
475,192,183848,128,0,184959:0:0:0:0:
256,192,184070,128,0,184293:0:0:0:0:
36,192,184070,128,0,184181:0:0:0:0:
109,192,184070,1,0,0:0:0:0:
329,192,184293,128,0,184515:0:0:0:0:
109,192,184293,128,0,184404:0:0:0:0:
182,192,184293,1,0,0:0:0:0:
402,192,184293,1,0,0:0:0:0:
36,192,184515,128,0,184626:0:0:0:0:
109,192,184626,128,0,184737:0:0:0:0:
182,192,184737,128,0,184848:0:0:0:0:
329,192,184737,128,0,184959:0:0:0:0:
402,192,184959,128,0,185070:0:0:0:0:
256,192,184959,128,0,185033:0:0:0:0:
36,192,185033,128,0,185107:0:0:0:0:
329,192,185070,128,0,185181:0:0:0:0:
109,192,185107,128,0,185181:0:0:0:0:
182,192,185181,128,0,185256:0:0:0:0:
256,192,185181,128,0,185626:0:0:0:0:
475,192,185404,1,0,0:0:0:0:
329,192,185478,128,0,185552:0:0:0:0:
36,192,185626,128,0,186515:0:0:0:0:
329,192,185626,128,0,185700:0:0:0:0:
109,192,185626,1,0,0:0:0:0:
256,192,185774,128,0,185848:0:0:0:0:
475,192,185848,1,0,0:0:0:0:
256,192,185922,128,0,185996:0:0:0:0:
256,192,186070,128,0,186144:0:0:0:0:
402,192,186070,1,0,0:0:0:0:
109,192,186219,128,0,186293:0:0:0:0:
475,192,186293,1,0,0:0:0:0:
182,192,186367,128,0,186441:0:0:0:0:
329,192,186515,128,0,190070:0:0:0:0:
256,192,186515,128,0,186589:0:0:0:0:
402,192,186515,1,0,0:0:0:0:
109,192,186515,128,0,186737:0:0:0:0:
182,192,186737,128,0,186959:0:0:0:0:
256,192,186959,128,0,187181:0:0:0:0:
402,192,187181,128,0,187404:0:0:0:0:
475,192,187404,128,0,187626:0:0:0:0:
256,192,187626,128,0,187848:0:0:0:0:
109,192,187848,128,0,188070:0:0:0:0:
402,192,188070,128,0,188293:0:0:0:0:
182,192,188293,128,0,188515:0:0:0:0:
36,192,188515,128,0,188737:0:0:0:0:
109,192,188737,128,0,188959:0:0:0:0:
182,192,188959,128,0,189181:0:0:0:0:
475,192,189181,128,0,189404:0:0:0:0:
402,192,189404,128,0,189626:0:0:0:0:
256,192,189626,128,0,189848:0:0:0:0:
182,192,189848,128,0,190070:0:0:0:0:
475,192,190070,128,0,191404:0:0:0:0:
36,192,190070,128,0,190404:0:0:0:0:
182,192,190293,128,0,190626:0:0:0:0:
329,192,190515,128,0,190848:0:0:0:0:
182,192,190737,128,0,191181:0:0:0:0:
402,192,190737,128,0,191070:0:0:0:0:
109,192,190959,128,0,191293:0:0:0:0:
329,192,191181,128,0,191626:0:0:0:0:
256,192,191181,128,0,191515:0:0:0:0:
36,192,191404,128,0,191848:0:0:0:0:
109,192,191848,128,0,192737:0:0:0:0:
475,192,191848,128,0,192181:0:0:0:0:
329,192,192070,128,0,192404:0:0:0:0:
182,192,192293,128,0,192626:0:0:0:0:
36,192,192515,128,0,192848:0:0:0:0:
329,192,192737,128,0,193626:0:0:0:0:
402,192,192737,128,0,193070:0:0:0:0:
256,192,192959,128,0,193293:0:0:0:0:
109,192,193181,128,0,193515:0:0:0:0:
36,192,193404,128,0,193737:0:0:0:0:
182,192,193626,128,0,193959:0:0:0:0:
475,192,193626,128,0,194515:0:0:0:0:
109,192,193848,128,0,194181:0:0:0:0:
36,192,194070,128,0,194181:0:0:0:0:
182,192,194070,128,0,194404:0:0:0:0:
36,192,194293,128,0,194404:0:0:0:0:
329,192,194293,128,0,195404:0:0:0:0:
36,192,194515,128,0,194626:0:0:0:0:
36,192,194737,128,0,194848:0:0:0:0:
36,192,194959,128,0,195070:0:0:0:0:
36,192,195181,128,0,195293:0:0:0:0:
36,192,195404,128,0,195626:0:0:0:0:
475,192,195404,128,0,195737:0:0:0:0:
402,192,195404,128,0,196293:0:0:0:0:
256,192,195626,128,0,196070:0:0:0:0:
329,192,195626,128,0,195959:0:0:0:0:
182,192,195848,128,0,196181:0:0:0:0:
329,192,196070,128,0,196515:0:0:0:0:
109,192,196070,128,0,196404:0:0:0:0:
36,192,196293,128,0,196626:0:0:0:0:
402,192,196515,128,0,196959:0:0:0:0:
182,192,196515,128,0,196848:0:0:0:0:
329,192,196737,128,0,197070:0:0:0:0:
475,192,196959,128,0,197404:0:0:0:0:
182,192,196959,128,0,197293:0:0:0:0:
402,192,197181,128,0,197515:0:0:0:0:
109,192,197181,128,0,198070:0:0:0:0:
329,192,197404,128,0,197848:0:0:0:0:
256,192,197404,128,0,197737:0:0:0:0:
182,192,197626,128,0,197959:0:0:0:0:
36,192,197848,128,0,198181:0:0:0:0:
475,192,197848,128,0,198959:0:0:0:0:
402,192,198070,128,0,198404:0:0:0:0:
36,192,198293,128,0,198626:0:0:0:0:
36,192,198959,128,0,199404:0:0:0:0:
109,192,198959,128,0,199293:0:0:0:0:
329,192,198959,128,0,199848:0:0:0:0:
182,192,199181,128,0,199515:0:0:0:0:
256,192,199404,128,0,199626:0:0:0:0:
402,192,199404,128,0,199737:0:0:0:0:
182,192,199626,128,0,200070:0:0:0:0:
475,192,199626,128,0,199959:0:0:0:0:
109,192,199848,128,0,200070:0:0:0:0:
402,192,200070,128,0,200515:0:0:0:0:
256,192,200070,128,0,200404:0:0:0:0:
329,192,200293,128,0,200626:0:0:0:0:
109,192,200515,128,0,200848:0:0:0:0:
475,192,200515,128,0,200737:0:0:0:0:
402,192,200737,128,0,201181:0:0:0:0:
36,192,200737,128,0,201070:0:0:0:0:
256,192,200737,128,0,201626:0:0:0:0:
109,192,200959,128,0,201293:0:0:0:0:
329,192,201181,128,0,201515:0:0:0:0:
475,192,201181,128,0,201515:0:0:0:0:
402,192,201404,128,0,201737:0:0:0:0:
329,192,201626,128,0,201737:0:0:0:0:
475,192,201626,128,0,201959:0:0:0:0:
329,192,201848,128,0,202070:0:0:0:0:
182,192,201848,128,0,202181:0:0:0:0:
256,192,202070,128,0,202181:0:0:0:0:
109,192,202070,128,0,202404:0:0:0:0:
256,192,202293,128,0,202404:0:0:0:0:
36,192,202293,128,0,202626:0:0:0:0:
256,192,202515,128,0,202737:0:0:0:0:
475,192,202515,128,0,202848:0:0:0:0:
402,192,202515,128,0,203404:0:0:0:0:
182,192,202737,128,0,203181:0:0:0:0:
329,192,202737,128,0,203070:0:0:0:0:
109,192,202959,128,0,203293:0:0:0:0:
329,192,203181,128,0,203626:0:0:0:0:
36,192,203181,128,0,203515:0:0:0:0:
182,192,203404,128,0,203737:0:0:0:0:
475,192,203626,128,0,204070:0:0:0:0:
402,192,203626,128,0,203959:0:0:0:0:
256,192,203848,128,0,204181:0:0:0:0:
402,192,204070,128,0,204515:0:0:0:0:
109,192,204070,128,0,204404:0:0:0:0:
36,192,204293,128,0,204626:0:0:0:0:
182,192,204293,128,0,205181:0:0:0:0:
329,192,204515,128,0,204737:0:0:0:0:
256,192,204515,128,0,204848:0:0:0:0:
109,192,204737,128,0,204959:0:0:0:0:
475,192,204737,128,0,205070:0:0:0:0:
402,192,204959,128,0,206070:0:0:0:0:
36,192,204959,128,0,205293:0:0:0:0:
256,192,205181,128,0,205515:0:0:0:0:
329,192,205404,128,0,205737:0:0:0:0:
475,192,205626,128,0,205959:0:0:0:0:
182,192,205848,128,0,206181:0:0:0:0:
36,192,206070,128,0,206404:0:0:0:0:
109,192,206737,128,0,207070:0:0:0:0:
256,192,206959,128,0,207293:0:0:0:0:
402,192,207181,128,0,207515:0:0:0:0:
36,192,207404,128,0,207737:0:0:0:0:
182,192,207626,128,0,207848:0:0:0:0:
475,192,207626,128,0,207959:0:0:0:0:
329,192,207848,128,0,210515:0:0:0:0:
109,192,207848,128,0,208181:0:0:0:0:
36,192,207848,128,0,210070:0:0:0:0:
402,192,208070,128,0,208404:0:0:0:0:
182,192,208293,128,0,208626:0:0:0:0:
475,192,208515,128,0,208848:0:0:0:0:
109,192,208737,128,0,209070:0:0:0:0:
256,192,208959,128,0,209293:0:0:0:0:
402,192,209181,128,0,209515:0:0:0:0:
182,192,209404,128,0,209737:0:0:0:0:
475,192,209626,128,0,209959:0:0:0:0:
256,192,209848,128,0,210181:0:0:0:0:
109,192,210070,128,0,210515:0:0:0:0:
402,192,210070,128,0,210404:0:0:0:0:
36,192,210293,128,0,210626:0:0:0:0:
256,192,210515,128,0,211404:0:0:0:0:
475,192,210515,128,0,210848:0:0:0:0:
329,192,210737,128,0,211070:0:0:0:0:
36,192,210959,128,0,211293:0:0:0:0:
109,192,210959,128,0,212293:0:0:0:0:
182,192,211181,128,0,211626:0:0:0:0:
475,192,211404,128,0,211737:0:0:0:0:
329,192,211626,128,0,214293:0:0:0:0:
36,192,211626,128,0,211959:0:0:0:0:
256,192,211848,128,0,212181:0:0:0:0:
182,192,212070,128,0,212404:0:0:0:0:
475,192,212293,128,0,214070:0:0:0:0:
402,192,212293,128,0,212626:0:0:0:0:
36,192,212515,128,0,212848:0:0:0:0:
182,192,212737,128,0,213070:0:0:0:0:
402,192,212959,128,0,213293:0:0:0:0:
109,192,213181,128,0,213515:0:0:0:0:
256,192,213404,128,0,213737:0:0:0:0:
36,192,213626,128,0,213959:0:0:0:0:
182,192,213848,128,0,214181:0:0:0:0:
109,192,214070,128,0,214959:0:0:0:0:
402,192,214070,128,0,214404:0:0:0:0:
256,192,214293,128,0,214626:0:0:0:0:
36,192,214515,128,0,214848:0:0:0:0:
256,192,214737,128,0,214959:0:0:0:0:
475,192,214737,128,0,215070:0:0:0:0:
182,192,214959,128,0,217848:0:0:0:0:
402,192,214959,128,0,217626:0:0:0:0:
329,192,214959,128,0,215293:0:0:0:0:
109,192,215181,128,0,215515:0:0:0:0:
256,192,215404,128,0,215737:0:0:0:0:
475,192,215626,128,0,215959:0:0:0:0:
329,192,215848,128,0,216181:0:0:0:0:
36,192,216070,128,0,216404:0:0:0:0:
256,192,216293,128,0,216626:0:0:0:0:
475,192,216515,128,0,216848:0:0:0:0:
329,192,216737,128,0,217070:0:0:0:0:
109,192,216959,128,0,217293:0:0:0:0:
256,192,217181,128,0,217515:0:0:0:0:
475,192,217404,128,0,217737:0:0:0:0:
36,192,217626,128,0,218515:0:0:0:0:
329,192,217626,128,0,217959:0:0:0:0:
109,192,217848,128,0,218181:0:0:0:0:
256,192,218070,128,0,218404:0:0:0:0:
182,192,218293,128,0,218404:0:0:0:0:
475,192,218293,128,0,218626:0:0:0:0:
182,192,218515,128,0,220070:0:0:0:0:
329,192,218515,128,0,220293:0:0:0:0:
109,192,218515,128,0,218848:0:0:0:0:
256,192,218737,128,0,219070:0:0:0:0:
36,192,218959,128,0,219293:0:0:0:0:
402,192,219181,128,0,219515:0:0:0:0:
256,192,219404,128,0,219737:0:0:0:0:
109,192,219626,128,0,219959:0:0:0:0:
475,192,219848,128,0,220181:0:0:0:0:
109,192,220070,128,0,220293:0:0:0:0:
402,192,220070,128,0,220404:0:0:0:0:
36,192,220293,128,0,222959:0:0:0:0:
475,192,220293,128,0,222515:0:0:0:0:
182,192,220293,128,0,220626:0:0:0:0:
329,192,220515,128,0,220848:0:0:0:0:
109,192,220737,128,0,221070:0:0:0:0:
256,192,220959,128,0,221293:0:0:0:0:
402,192,221181,128,0,221515:0:0:0:0:
182,192,221404,128,0,221737:0:0:0:0:
329,192,221626,128,0,221959:0:0:0:0:
256,192,221848,128,0,222181:0:0:0:0:
109,192,222070,128,0,222404:0:0:0:0:
256,192,222293,128,0,222626:0:0:0:0:
402,192,222515,128,0,222848:0:0:0:0:
182,192,222737,128,0,223070:0:0:0:0:
109,192,222737,128,0,222848:0:0:0:0:
329,192,222959,128,0,223293:0:0:0:0:
475,192,222959,128,0,225626:0:0:0:0:
256,192,222959,128,0,223070:0:0:0:0:
402,192,223181,128,0,223515:0:0:0:0:
36,192,223181,128,0,223404:0:0:0:0:
109,192,223404,128,0,223737:0:0:0:0:
182,192,223404,128,0,223515:0:0:0:0:
256,192,223626,128,0,223959:0:0:0:0:
329,192,223626,128,0,223737:0:0:0:0:
402,192,223848,128,0,224181:0:0:0:0:
36,192,223848,128,0,223959:0:0:0:0:
36,192,224070,128,0,224404:0:0:0:0:
109,192,224070,128,0,224181:0:0:0:0:
182,192,224293,128,0,224626:0:0:0:0:
256,192,224293,128,0,224404:0:0:0:0:
329,192,224515,128,0,224848:0:0:0:0:
402,192,224515,128,0,224626:0:0:0:0:
109,192,224737,128,0,225070:0:0:0:0:
182,192,224737,128,0,224848:0:0:0:0:
256,192,224959,128,0,225293:0:0:0:0:
329,192,224959,128,0,225070:0:0:0:0:
402,192,225181,128,0,225515:0:0:0:0:
36,192,225181,128,0,225293:0:0:0:0:
36,192,225404,128,0,225737:0:0:0:0:
109,192,225404,128,0,225515:0:0:0:0:
329,192,225404,1,0,0:0:0:0:
182,192,225515,1,0,0:0:0:0:
256,192,225626,128,0,225959:0:0:0:0:
109,192,225626,1,0,0:0:0:0:
329,192,225626,128,0,225737:0:0:0:0:
475,192,225737,1,0,0:0:0:0:
182,192,225737,128,0,225848:0:0:0:0:
329,192,225848,1,0,0:0:0:0:
402,192,225848,128,0,226070:0:0:0:0:
182,192,225959,1,0,0:0:0:0:
109,192,226015,1,0,0:0:0:0:
36,192,226070,1,0,0:0:0:0:
329,192,226070,128,0,227404:0:0:0:0:
475,192,226070,1,0,0:0:0:0:
182,192,226515,1,0,0:0:0:0:
256,192,226515,1,0,0:0:0:0:
36,192,226515,1,0,0:0:0:0:
109,192,226848,1,0,0:0:0:0:
402,192,226848,1,0,0:0:0:0:
475,192,226848,1,0,0:0:0:0:
256,192,227181,1,0,0:0:0:0:
182,192,227181,1,0,0:0:0:0:
36,192,227181,1,0,0:0:0:0:
402,192,227404,1,0,0:0:0:0:
475,192,227404,1,0,0:0:0:0:
109,192,227404,128,0,227626:0:0:0:0:
475,192,227626,128,0,227737:0:0:0:0:
475,192,227848,128,0,227959:0:0:0:0:
36,192,227848,128,0,228070:0:0:0:0:
475,192,228070,128,0,228181:0:0:0:0:
329,192,228293,128,0,228404:0:0:0:0:
109,192,228293,128,0,228515:0:0:0:0:
402,192,228515,128,0,228626:0:0:0:0:
256,192,228737,128,0,228848:0:0:0:0:
182,192,228737,128,0,228959:0:0:0:0:
329,192,228959,128,0,229070:0:0:0:0:
475,192,228959,128,0,229181:0:0:0:0:
36,192,228959,1,0,0:0:0:0:
109,192,229070,1,0,0:0:0:0:
182,192,229181,128,0,229293:0:0:0:0:
256,192,229181,1,0,0:0:0:0:
402,192,229181,128,0,229404:0:0:0:0:
256,192,229404,128,0,229515:0:0:0:0:
109,192,229626,128,0,229737:0:0:0:0:
329,192,229626,128,0,229848:0:0:0:0:
182,192,229848,128,0,229959:0:0:0:0:
36,192,230070,128,0,230404:0:0:0:0:
256,192,230070,128,0,230293:0:0:0:0:
475,192,230404,128,0,231181:0:0:0:0:
36,192,230515,128,0,230737:0:0:0:0:
402,192,230589,1,0,0:0:0:0:
109,192,230663,1,0,0:0:0:0:
329,192,230737,1,0,0:0:0:0:
182,192,230811,1,0,0:0:0:0:
256,192,230885,1,0,0:0:0:0:
36,192,230959,128,0,231181:0:0:0:0:
109,192,230959,1,0,0:0:0:0:
182,192,231181,128,0,231293:0:0:0:0:
182,192,231404,128,0,231515:0:0:0:0:
329,192,231404,128,0,231626:0:0:0:0:
182,192,231626,128,0,231737:0:0:0:0:
329,192,231848,128,0,231959:0:0:0:0:
109,192,231848,128,0,232070:0:0:0:0:
402,192,232070,128,0,232181:0:0:0:0:
256,192,232293,128,0,232404:0:0:0:0:
475,192,232293,128,0,232515:0:0:0:0:
36,192,232293,128,0,232737:0:0:0:0:
402,192,232515,128,0,232589:0:0:0:0:
182,192,232589,1,0,0:0:0:0:
475,192,232663,1,0,0:0:0:0:
182,192,232737,128,0,232848:0:0:0:0:
109,192,232737,128,0,232959:0:0:0:0:
256,192,232737,1,0,0:0:0:0:
256,192,232959,128,0,233070:0:0:0:0:
36,192,232959,1,0,0:0:0:0:
182,192,233070,1,0,0:0:0:0:
475,192,233070,1,0,0:0:0:0:
109,192,233181,128,0,233293:0:0:0:0:
402,192,233181,128,0,233404:0:0:0:0:
182,192,233404,128,0,233515:0:0:0:0:
256,192,233404,1,0,0:0:0:0:
329,192,233404,1,0,0:0:0:0:
36,192,233626,128,0,233848:0:0:0:0:
475,192,233626,128,0,233848:0:0:0:0:
402,192,233626,1,0,0:0:0:0:
109,192,233848,128,0,234515:0:0:0:0:
182,192,233848,1,0,0:0:0:0:
402,192,233922,1,0,0:0:0:0:
36,192,233996,1,0,0:0:0:0:
182,192,234070,1,0,0:0:0:0:
475,192,234144,1,0,0:0:0:0:
329,192,234219,1,0,0:0:0:0:
36,192,234293,1,0,0:0:0:0:
256,192,234367,1,0,0:0:0:0:
402,192,234441,1,0,0:0:0:0:
182,192,234515,128,0,234737:0:0:0:0:
36,192,234515,1,0,0:0:0:0:
475,192,234515,1,0,0:0:0:0:
402,192,234737,128,0,234848:0:0:0:0:
256,192,234737,128,0,234959:0:0:0:0:
475,192,234737,1,0,0:0:0:0:
329,192,234848,1,0,0:0:0:0:
402,192,234959,128,0,235070:0:0:0:0:
182,192,234959,128,0,235181:0:0:0:0:
109,192,234959,1,0,0:0:0:0:
36,192,234959,1,0,0:0:0:0:
256,192,235070,1,0,0:0:0:0:
402,192,235181,128,0,235404:0:0:0:0:
109,192,235181,128,0,235404:0:0:0:0:
329,192,235181,1,0,0:0:0:0:
475,192,235293,1,0,0:0:0:0:
329,192,235404,128,0,235626:0:0:0:0:
36,192,235404,128,0,235626:0:0:0:0:
256,192,235404,1,0,0:0:0:0:
182,192,235404,1,0,0:0:0:0:
402,192,235626,128,0,235848:0:0:0:0:
182,192,235626,128,0,235848:0:0:0:0:
109,192,235737,1,0,0:0:0:0:
475,192,235848,128,0,236070:0:0:0:0:
329,192,235848,1,0,0:0:0:0:
256,192,235848,1,0,0:0:0:0:
36,192,235848,128,0,235959:0:0:0:0:
109,192,235959,128,0,236070:0:0:0:0:
402,192,235959,1,0,0:0:0:0:
182,192,236070,128,0,236293:0:0:0:0:
256,192,236070,128,0,236181:0:0:0:0:
36,192,236070,1,0,0:0:0:0:
329,192,236181,128,0,236293:0:0:0:0:
402,192,236181,1,0,0:0:0:0:
109,192,236293,128,0,236737:0:0:0:0:
475,192,236293,128,0,236515:0:0:0:0:
36,192,236293,1,0,0:0:0:0:
256,192,236293,1,0,0:0:0:0:
182,192,236515,128,0,236626:0:0:0:0:
329,192,236626,128,0,236737:0:0:0:0:
402,192,236626,1,0,0:0:0:0:
36,192,236737,128,0,237181:0:0:0:0:
475,192,236737,128,0,236848:0:0:0:0:
256,192,236737,1,0,0:0:0:0:
182,192,236737,1,0,0:0:0:0:
402,192,236848,128,0,236959:0:0:0:0:
329,192,236848,1,0,0:0:0:0:
182,192,236959,128,0,237070:0:0:0:0:
109,192,236959,1,0,0:0:0:0:
475,192,237070,128,0,237181:0:0:0:0:
402,192,237070,1,0,0:0:0:0:
109,192,237181,128,0,237515:0:0:0:0:
329,192,237181,1,0,0:0:0:0:
182,192,237181,128,0,237404:0:0:0:0:
256,192,237181,1,0,0:0:0:0:
475,192,237404,128,0,237626:0:0:0:0:
36,192,237515,1,0,0:0:0:0:
182,192,237515,128,0,237848:0:0:0:0:
256,192,237626,1,0,0:0:0:0:
329,192,237626,1,0,0:0:0:0:
402,192,237626,128,0,237848:0:0:0:0:
109,192,237737,1,0,0:0:0:0:
36,192,237848,128,0,238070:0:0:0:0:
256,192,237848,128,0,238070:0:0:0:0:
475,192,237848,1,0,0:0:0:0:
182,192,237959,1,0,0:0:0:0:
475,192,238070,128,0,238293:0:0:0:0:
109,192,238070,128,0,238293:0:0:0:0:
402,192,238070,1,0,0:0:0:0:
329,192,238070,1,0,0:0:0:0:
329,192,238293,128,0,238626:0:0:0:0:
36,192,238404,1,0,0:0:0:0:
402,192,238515,1,0,0:0:0:0:
475,192,238515,1,0,0:0:0:0:
256,192,238626,1,0,0:0:0:0:
329,192,238737,128,0,239626:0:0:0:0:
36,192,238737,128,0,238848:0:0:0:0:
182,192,238737,1,0,0:0:0:0:
109,192,238848,128,0,238959:0:0:0:0:
475,192,238848,1,0,0:0:0:0:
182,192,238959,128,0,239293:0:0:0:0:
402,192,238959,1,0,0:0:0:0:
256,192,238959,1,0,0:0:0:0:
256,192,239293,128,0,239626:0:0:0:0:
36,192,239293,1,0,0:0:0:0:
109,192,239404,1,0,0:0:0:0:
182,192,239404,1,0,0:0:0:0:
475,192,239515,1,0,0:0:0:0:
402,192,239626,128,0,239848:0:0:0:0:
36,192,239626,128,0,239959:0:0:0:0:
182,192,239626,1,0,0:0:0:0:
256,192,239737,1,0,0:0:0:0:
109,192,239848,128,0,240515:0:0:0:0:
329,192,239848,1,0,0:0:0:0:
475,192,239848,1,0,0:0:0:0:
402,192,239959,128,0,240293:0:0:0:0:
36,192,240181,1,0,0:0:0:0:
182,192,240293,128,0,241404:0:0:0:0:
329,192,240293,1,0,0:0:0:0:
256,192,240293,1,0,0:0:0:0:
402,192,240404,1,0,0:0:0:0:
329,192,240515,128,0,240626:0:0:0:0:
475,192,240515,1,0,0:0:0:0:
256,192,240626,128,0,240737:0:0:0:0:
36,192,240626,1,0,0:0:0:0:
402,192,240737,128,0,241070:0:0:0:0:
475,192,240737,1,0,0:0:0:0:
109,192,240737,1,0,0:0:0:0:
36,192,241070,128,0,241404:0:0:0:0:
475,192,241070,1,0,0:0:0:0:
329,192,241181,1,0,0:0:0:0:
402,192,241181,1,0,0:0:0:0:
475,192,241404,128,0,241626:0:0:0:0:
329,192,241404,128,0,241626:0:0:0:0:
109,192,241404,1,0,0:0:0:0:
36,192,241515,1,0,0:0:0:0:
256,192,241626,128,0,242293:0:0:0:0:
182,192,241626,1,0,0:0:0:0:
402,192,241626,1,0,0:0:0:0:
475,192,241737,128,0,241959:0:0:0:0:
182,192,241848,1,0,0:0:0:0:
36,192,241959,1,0,0:0:0:0:
109,192,241959,128,0,243404:0:0:0:0:
329,192,242070,1,0,0:0:0:0:
402,192,242070,1,0,0:0:0:0:
182,192,242181,1,0,0:0:0:0:
36,192,242293,128,0,242959:0:0:0:0:
475,192,242293,1,0,0:0:0:0:
402,192,242404,1,0,0:0:0:0:
329,192,242515,1,0,0:0:0:0:
256,192,242515,1,0,0:0:0:0:
475,192,242626,1,0,0:0:0:0:
182,192,242681,1,0,0:0:0:0:
329,192,242737,1,0,0:0:0:0:
402,192,242848,1,0,0:0:0:0:
256,192,242904,1,0,0:0:0:0:
182,192,242959,128,0,243404:0:0:0:0:
475,192,242959,1,0,0:0:0:0:
329,192,243015,1,0,0:0:0:0:
256,192,243070,1,0,0:0:0:0:
402,192,243181,1,0,0:0:0:0:
256,192,243293,1,0,0:0:0:0:
475,192,243404,128,0,243737:0:0:0:0:
36,192,243404,1,0,0:0:0:0:
329,192,243404,128,0,243959:0:0:0:0:
402,192,243404,1,0,0:0:0:0:
256,192,243737,128,0,244293:0:0:0:0:
182,192,243737,128,0,244070:0:0:0:0:
402,192,244070,128,0,244626:0:0:0:0:
475,192,244070,128,0,244293:0:0:0:0:
36,192,244070,128,0,244181:0:0:0:0:
109,192,244181,128,0,244293:0:0:0:0:
182,192,244293,128,0,245404:0:0:0:0:
329,192,244293,128,0,244626:0:0:0:0:
36,192,244293,128,0,244737:0:0:0:0:
256,192,244404,1,0,0:0:0:0:
109,192,244515,1,0,0:0:0:0:
256,192,244626,128,0,244959:0:0:0:0:
475,192,244626,128,0,244959:0:0:0:0:
329,192,244737,1,0,0:0:0:0:
36,192,244848,1,0,0:0:0:0:
109,192,244959,128,0,245181:0:0:0:0:
402,192,244959,128,0,245181:0:0:0:0:
329,192,244959,1,0,0:0:0:0:
475,192,245070,1,0,0:0:0:0:
329,192,245181,128,0,245626:0:0:0:0:
256,192,245181,128,0,245848:0:0:0:0:
36,192,245181,128,0,245404:0:0:0:0:
475,192,245404,128,0,245626:0:0:0:0:
109,192,245515,1,0,0:0:0:0:
36,192,245626,128,0,245848:0:0:0:0:
182,192,245626,1,0,0:0:0:0:
402,192,245626,1,0,0:0:0:0:
182,192,245848,128,0,246070:0:0:0:0:
475,192,245848,128,0,246737:0:0:0:0:
109,192,246070,128,0,246293:0:0:0:0:
402,192,246070,128,0,246293:0:0:0:0:
329,192,246293,128,0,246515:0:0:0:0:
256,192,246293,1,0,0:0:0:0:
36,192,246404,1,0,0:0:0:0:
182,192,246515,128,0,246737:0:0:0:0:
402,192,246515,1,0,0:0:0:0:
109,192,246515,128,0,246737:0:0:0:0:
256,192,246626,1,0,0:0:0:0:
402,192,246737,128,0,246959:0:0:0:0:
36,192,246737,128,0,247626:0:0:0:0:
329,192,246737,1,0,0:0:0:0:
256,192,246959,128,0,247181:0:0:0:0:
329,192,246959,128,0,247181:0:0:0:0:
475,192,247181,128,0,247293:0:0:0:0:
109,192,247181,1,0,0:0:0:0:
182,192,247293,1,0,0:0:0:0:
475,192,247404,128,0,247626:0:0:0:0:
256,192,247404,1,0,0:0:0:0:
329,192,247404,128,0,247626:0:0:0:0:
109,192,247626,128,0,248070:0:0:0:0:
402,192,247626,128,0,248070:0:0:0:0:
182,192,247626,128,0,247848:0:0:0:0:
36,192,247848,128,0,248070:0:0:0:0:
475,192,248070,128,0,248737:0:0:0:0:
256,192,248070,128,0,248737:0:0:0:0:
329,192,248070,128,0,248293:0:0:0:0:
182,192,248181,1,0,0:0:0:0:
36,192,248293,1,0,0:0:0:0:
109,192,248293,128,0,248515:0:0:0:0:
329,192,248404,1,0,0:0:0:0:
402,192,248515,128,0,248737:0:0:0:0:
36,192,248626,1,0,0:0:0:0:
109,192,248737,128,0,249404:0:0:0:0:
182,192,248737,1,0,0:0:0:0:
329,192,248737,1,0,0:0:0:0:
402,192,248959,128,0,249181:0:0:0:0:
475,192,248959,1,0,0:0:0:0:
329,192,249070,1,0,0:0:0:0:
36,192,249181,128,0,249404:0:0:0:0:
182,192,249181,1,0,0:0:0:0:
256,192,249181,1,0,0:0:0:0:
256,192,249404,128,0,249626:0:0:0:0:
475,192,249404,128,0,250293:0:0:0:0:
109,192,249626,128,0,249848:0:0:0:0:
36,192,249626,128,0,249848:0:0:0:0:
329,192,249848,128,0,250070:0:0:0:0:
256,192,249848,1,0,0:0:0:0:
402,192,249959,1,0,0:0:0:0:
182,192,250070,128,0,250293:0:0:0:0:
36,192,250070,128,0,250293:0:0:0:0:
109,192,250070,1,0,0:0:0:0:
329,192,250181,1,0,0:0:0:0:
402,192,250293,128,0,250515:0:0:0:0:
109,192,250293,128,0,251181:0:0:0:0:
256,192,250293,1,0,0:0:0:0:
256,192,250515,128,0,250737:0:0:0:0:
329,192,250515,128,0,250737:0:0:0:0:
475,192,250737,128,0,250848:0:0:0:0:
36,192,250737,1,0,0:0:0:0:
256,192,250848,1,0,0:0:0:0:
475,192,250959,128,0,251070:0:0:0:0:
329,192,250959,1,0,0:0:0:0:
402,192,250959,128,0,251181:0:0:0:0:
182,192,251070,1,0,0:0:0:0:
475,192,251181,128,0,251293:0:0:0:0:
256,192,251181,128,0,251626:0:0:0:0:
36,192,251181,1,0,0:0:0:0:
329,192,251181,128,0,251293:0:0:0:0:
182,192,251293,128,0,251404:0:0:0:0:
475,192,251404,128,0,251626:0:0:0:0:
36,192,251404,128,0,251626:0:0:0:0:
109,192,251404,1,0,0:0:0:0:
329,192,251626,128,0,251848:0:0:0:0:
109,192,251626,128,0,252293:0:0:0:0:
182,192,251626,1,0,0:0:0:0:
402,192,251737,1,0,0:0:0:0:
182,192,251848,128,0,252293:0:0:0:0:
475,192,251848,128,0,252070:0:0:0:0:
36,192,251848,1,0,0:0:0:0:
256,192,251959,1,0,0:0:0:0:
329,192,252070,1,0,0:0:0:0:
402,192,252181,1,0,0:0:0:0:
36,192,252293,128,0,252959:0:0:0:0:
475,192,252293,128,0,253181:0:0:0:0:
329,192,252293,1,0,0:0:0:0:
256,192,252293,1,0,0:0:0:0:
109,192,252626,1,0,0:0:0:0:
182,192,252737,1,0,0:0:0:0:
256,192,252737,1,0,0:0:0:0:
182,192,252959,128,0,253070:0:0:0:0:
402,192,252959,1,0,0:0:0:0:
329,192,253070,128,0,253181:0:0:0:0:
256,192,253181,128,0,253626:0:0:0:0:
36,192,253181,128,0,254070:0:0:0:0:
109,192,253181,1,0,0:0:0:0:
475,192,253293,1,0,0:0:0:0:
402,192,253404,1,0,0:0:0:0:
329,192,253515,1,0,0:0:0:0:
475,192,253626,128,0,254070:0:0:0:0:
182,192,253626,1,0,0:0:0:0:
109,192,253626,1,0,0:0:0:0:
182,192,253848,1,0,0:0:0:0:
256,192,253959,1,0,0:0:0:0:
109,192,254070,128,0,254737:0:0:0:0:
182,192,254070,128,0,254959:0:0:0:0:
402,192,254070,1,0,0:0:0:0:
329,192,254070,1,0,0:0:0:0:
256,192,254293,1,0,0:0:0:0:
329,192,254404,1,0,0:0:0:0:
402,192,254515,1,0,0:0:0:0:
475,192,254515,1,0,0:0:0:0:
36,192,254626,1,0,0:0:0:0:
256,192,254737,128,0,254848:0:0:0:0:
329,192,254737,1,0,0:0:0:0:
402,192,254848,128,0,254959:0:0:0:0:
109,192,254848,1,0,0:0:0:0:
329,192,254959,128,0,255404:0:0:0:0:
36,192,254959,128,0,255848:0:0:0:0:
475,192,254959,1,0,0:0:0:0:
256,192,254959,1,0,0:0:0:0:
109,192,255181,1,0,0:0:0:0:
402,192,255237,1,0,0:0:0:0:
256,192,255293,1,0,0:0:0:0:
475,192,255404,128,0,255848:0:0:0:0:
182,192,255404,1,0,0:0:0:0:
109,192,255404,1,0,0:0:0:0:
402,192,255626,1,0,0:0:0:0:
329,192,255737,1,0,0:0:0:0:
256,192,255848,128,0,256293:0:0:0:0:
402,192,255848,128,0,256737:0:0:0:0:
182,192,255848,128,0,256070:0:0:0:0:
109,192,255848,128,0,255959:0:0:0:0:
36,192,256070,1,0,0:0:0:0:
329,192,256181,128,0,256404:0:0:0:0:
182,192,256181,128,0,256293:0:0:0:0:
109,192,256293,128,0,256737:0:0:0:0:
475,192,256293,1,0,0:0:0:0:
256,192,256515,128,0,256959:0:0:0:0:
36,192,256515,128,0,256626:0:0:0:0:
475,192,256515,128,0,256737:0:0:0:0:
182,192,256737,128,0,257181:0:0:0:0:
329,192,256737,128,0,256848:0:0:0:0:
36,192,256737,128,0,256959:0:0:0:0:
109,192,256959,1,0,0:0:0:0:
475,192,257070,128,0,257181:0:0:0:0:
329,192,257070,128,0,257293:0:0:0:0:
402,192,257181,128,0,258070:0:0:0:0:
36,192,257181,128,0,258070:0:0:0:0:
256,192,257181,1,0,0:0:0:0:
109,192,257181,1,0,0:0:0:0:
109,192,257404,128,0,257626:0:0:0:0:
182,192,257404,128,0,257515:0:0:0:0:
475,192,257626,128,0,257848:0:0:0:0:
256,192,257626,128,0,257737:0:0:0:0:
329,192,257626,1,0,0:0:0:0:
256,192,257848,1,0,0:0:0:0:
329,192,257959,128,0,258181:0:0:0:0:
182,192,257959,128,0,258070:0:0:0:0:
475,192,258070,128,0,258293:0:0:0:0:
109,192,258070,1,0,0:0:0:0:
109,192,258293,128,0,258404:0:0:0:0:
402,192,258293,128,0,258515:0:0:0:0:
36,192,258293,128,0,258515:0:0:0:0:
182,192,258515,128,0,258737:0:0:0:0:
329,192,258515,128,0,258626:0:0:0:0:
109,192,258515,128,0,258959:0:0:0:0:
475,192,258626,128,0,258737:0:0:0:0:
256,192,258737,128,0,258848:0:0:0:0:
475,192,258848,128,0,259070:0:0:0:0:
329,192,258848,128,0,258959:0:0:0:0:
402,192,258959,128,0,259404:0:0:0:0:
36,192,258959,128,0,259070:0:0:0:0:
182,192,259070,128,0,259181:0:0:0:0:
109,192,259181,128,0,259404:0:0:0:0:
256,192,259181,128,0,259293:0:0:0:0:
475,192,259293,128,0,259404:0:0:0:0:
182,192,259404,128,0,263404:0:0:0:0:
36,192,259404,128,0,259626:0:0:0:0:
329,192,259404,128,0,260070:0:0:0:0:
256,192,259626,128,0,259848:0:0:0:0:
475,192,259848,128,0,260070:0:0:0:0:
109,192,260070,128,0,260293:0:0:0:0:
256,192,260070,128,0,260737:0:0:0:0:
329,192,260293,128,0,260515:0:0:0:0:
475,192,260515,128,0,260737:0:0:0:0:
36,192,260737,128,0,260959:0:0:0:0:
109,192,260737,128,0,261404:0:0:0:0:
256,192,260959,128,0,261181:0:0:0:0:
475,192,261181,128,0,261404:0:0:0:0:
256,192,261404,128,0,261626:0:0:0:0:
402,192,261404,128,0,262107:0:0:0:0:
329,192,261626,128,0,261848:0:0:0:0:
109,192,261626,128,0,262107:0:0:0:0:
475,192,261848,128,0,262107:0:0:0:0:
36,192,262107,128,0,262293:0:0:0:0:
329,192,262107,128,0,265626:0:0:0:0:
256,192,262107,128,0,262959:0:0:0:0:
