osu file format v14

[General]
AudioFilename: audio.mp3
AudioLeadIn: 0
PreviewTime: 88410
Countdown: 0
SampleSet: Soft
StackLeniency: 0.7
Mode: 0
LetterboxInBreaks: 0
WidescreenStoryboard: 1

[Editor]
DistanceSpacing: 0.5
BeatDivisor: 4
GridSize: 4
TimelineZoom: 1

[Metadata]
Title:elegante
TitleUnicode:elegante
Artist:Junk
ArtistUnicode:Junk
Creator:ktgster
Version:Hyper
Source:CHUNITHM
Tags:チュウニズム 高嶺愛花 Takane Manaka Be-Music Source Script THE BMS OF FIGHTERS Evolution of War BOF2010 Team ラブプラス+ LOVEPLUS+ shota murotani しゅく Syuku Shuku euphorise Maiden House BEST MUSIC SELECTION VARIETY SOUNDTRACK OST electro planet SEGA Games Company Limited Co. Ltd. Video Game Videogame Electronic Instrumental
BeatmapID:2225828
BeatmapSetID:1045019

[Difficulty]
HPDrainRate:4
CircleSize:4
OverallDifficulty:7
ApproachRate:8
SliderMultiplier:1.6
SliderTickRate:1

[Events]
//Background and Video events
0,0,"elegante_title.jpg",0,0
//Break Periods
2,14396,15476
//Storyboard Layer 0 (Background)
//Storyboard Layer 1 (Fail)
//Storyboard Layer 2 (Pass)
//Storyboard Layer 3 (Foreground)
//Storyboard Layer 4 (Overlay)
//Storyboard Sound Samples

[TimingPoints]
1790,451.127819548872,4,2,2,50,1,0
1790,-200,4,2,2,50,0,0
16226,-125,4,2,1,50,0,0
45098,-125,4,2,1,60,0,0
57729,-200,4,2,1,60,0,0
58180,-166.666666666667,4,2,1,60,0,0
58632,-142.857142857143,4,2,1,60,0,0
59534,-125,4,2,1,50,0,0
73970,-125,4,2,1,60,0,0
88406,-125,4,2,1,70,0,1
102391,-125,4,2,1,60,0,0
102842,-125,4,2,1,70,0,1
117278,-125,4,2,1,60,0,0

[Colours]
Combo1 : 255,168,255
Combo2 : 255,137,81
Combo3 : 149,149,255
Combo4 : 255,196,17

[HitObjects]
409,299,1790,5,6,0:2:0:0:
332,158,2241,5,0,0:2:0:0:
332,158,2466,1,2,0:2:0:0:
256,298,2917,5,0,0:2:0:0:
206,361,3143,1,0,0:2:0:0:
127,373,3368,1,2,0:2:0:0:
127,373,4722,6,0,L|87:367,2,40,0|2|0,0:2|0:2|0:2,0:2:0:0:
206,361,5399,5,2,0:2:0:0:
259,210,5850,5,2,0:2:0:0:
259,210,6075,1,0,0:2:0:0:
390,301,6526,5,0,0:2:0:0:
402,221,6752,1,0,0:2:0:0:
465,171,6977,1,2,0:2:0:0:
351,57,7429,5,0,0:2:0:0:
288,107,7654,1,2,0:2:0:0:
214,77,7880,1,0,0:2:0:0:
214,77,9008,5,2,0:2:0:0:
100,190,9459,5,2,0:2:0:0:
100,190,9684,1,0,0:2:0:0:
165,335,10135,5,0,0:2:0:0:
235,297,10361,1,0,0:2:0:0:
314,309,10586,1,2,0:2:0:0:
314,309,11038,1,0,0:2:0:0:
379,353,11263,5,2,0:2:0:0:
497,245,11714,1,2,0:2:0:0:
435,97,12165,1,2,0:2:0:0:
278,130,12617,5,2,0:2:0:0:
75,191,13068,5,2,0:2:0:0:
75,191,13293,1,0,0:2:0:0:
156,366,13744,5,0,0:2:0:0:
203,301,13970,1,0,0:2:0:0:
282,285,14196,1,2,0:2:0:0:
41,52,16226,6,0,L|23:183,2,128,4|0|0,0:2|3:2|3:2,0:2:0:0:
117,44,17353,1,0,0:2:0:0:
114,60,17466,1,0,0:2:0:0:
112,76,17579,1,0,3:2:0:0:
166,130,17805,1,0,0:2:0:0:
207,65,18030,5,0,3:2:0:0:
242,133,18256,2,0,L|230:216,1,64,0|0,0:2|3:2,0:2:0:0:
268,264,18707,1,0,0:2:0:0:
322,209,18932,1,0,3:2:0:0:
354,278,19158,2,0,L|348:319,2,32,0|0|0,0:2|0:2|3:2,0:2:0:0:
408,223,19609,1,0,0:2:0:0:
471,332,19835,6,0,L|488:200,2,128,0|0|0,3:2|3:2|3:2,0:2:0:0:
395,340,20962,1,0,0:2:0:0:
398,324,21075,1,0,0:2:0:0:
400,308,21188,1,0,3:2:0:0:
346,254,21414,1,0,0:2:0:0:
305,319,21639,5,0,3:2:0:0:
270,251,21865,2,0,L|281:167,1,64,0|0,0:2|3:2,0:2:0:0:
244,120,22316,1,0,0:2:0:0:
190,175,22541,1,0,3:2:0:0:
158,106,22767,1,0,0:2:0:0:
161,90,22880,1,0,0:2:0:0:
163,74,22993,1,0,3:2:0:0:
108,19,23218,1,0,0:2:0:0:
27,113,23444,6,0,L|15:196,1,64,2|0,3:2|0:2,0:2:0:0:
72,230,23895,1,0,3:2:0:0:
126,175,24120,1,0,0:2:0:0:
129,159,24233,1,0,0:2:0:0:
131,143,24346,1,2,3:2:0:0:
185,88,24571,2,0,L|192:29,2,32,0|0|0,0:2|0:2|3:2,0:2:0:0:
239,142,25023,1,0,0:2:0:0:
228,218,25248,5,0,3:2:0:0:
282,272,25474,2,0,L|272:344,1,64,2|0,0:2|3:2,0:2:0:0:
349,347,25925,1,0,0:2:0:0:
352,331,26038,1,0,0:2:0:0:
354,315,26150,1,0,3:2:0:0:
408,260,26376,1,0,0:2:0:0:
353,205,26602,1,0,3:2:0:0:
407,150,26827,1,0,0:2:0:0:
353,95,27053,6,0,L|364:11,1,64,2|0,3:2|0:2,0:2:0:0:
285,42,27504,2,0,L|273:125,1,64,0|0,3:2|0:2,0:2:0:0:
264,181,27955,5,2,3:2:0:0:
202,225,28180,1,0,0:2:0:0:
194,149,28406,1,0,3:2:0:0:
46,44,28857,5,2,3:2:0:0:
256,192,28970,12,0,30211,0:2:0:0:
446,219,30662,6,0,L|467:376,2,128,12|10|8,0:2|0:2|0:2,0:2:0:0:
379,183,31789,1,0,0:2:0:0:
376,167,31902,1,0,0:2:0:0:
374,151,32015,1,8,0:2:0:0:
307,115,32241,1,0,0:2:0:0:
271,183,32466,5,8,0:2:0:0:
204,147,32692,2,0,L|197:88,2,32,0|0|8,0:2|0:2|0:2,0:2:0:0:
206,223,33143,1,0,0:2:0:0:
130,211,33368,1,8,0:2:0:0:
88,275,33594,2,0,L|98:353,2,64,2|8|0,0:2|0:2|0:2,0:2:0:0:
17,181,34271,6,0,L|-4:23,1,128,8|8,0:2|0:2,0:2:0:0:
68,21,34947,1,2,0:2:0:0:
79,97,35173,1,8,0:2:0:0:
146,133,35399,1,0,0:2:0:0:
149,149,35511,1,0,0:2:0:0:
151,165,35624,1,8,0:2:0:0:
218,201,35850,1,0,0:2:0:0:
253,133,36075,5,8,0:2:0:0:
307,187,36301,2,0,L|314:246,2,32,0|0|8,0:2|0:2|0:2,0:2:0:0:
361,132,36752,1,0,0:2:0:0:
415,186,36977,1,8,0:2:0:0:
426,262,37203,2,0,L|436:340,2,64,0|8|0,0:2|0:2|0:2,0:2:0:0:
509,176,37880,6,0,L|488:19,1,128,10|8,0:2|0:2,0:2:0:0:
416,37,38556,1,0,0:2:0:0:
427,113,38782,1,8,0:2:0:0:
357,146,39008,1,0,0:2:0:0:
354,130,39120,1,0,0:0:0:0:
352,114,39233,1,8,0:2:0:0:
285,78,39459,1,0,0:2:0:0:
246,143,39684,5,8,0:2:0:0:
179,107,39910,2,0,L|172:48,2,32,0|0|8,0:2|0:2|0:2,0:2:0:0:
144,175,40361,1,0,0:2:0:0:
155,251,40586,1,8,0:2:0:0:
83,221,40812,5,0,0:2:0:0:
72,145,41038,1,10,0:2:0:0:
61,70,41263,1,0,0:2:0:0:
166,11,41489,6,0,L|175:75,1,64,10|0,0:2|0:2,0:2:0:0:
178,91,41827,1,0,0:2:0:0:
180,107,41940,1,8,0:2:0:0:
255,96,42165,2,0,L|248:37,2,32,2|0|8,0:2|0:2|0:2,0:2:0:0:
266,172,42617,1,0,0:2:0:0:
196,204,42842,2,0,L|204:267,1,64,10|0,0:2|0:2,0:2:0:0:
278,287,43293,5,8,0:2:0:0:
347,320,43519,1,0,0:2:0:0:
349,335,43632,1,0,0:2:0:0:
351,351,43744,1,8,0:2:0:0:
420,384,43970,1,0,0:2:0:0:
474,329,44196,6,0,L|466:266,1,64,8|0,0:2|0:2,0:2:0:0:
454,189,44647,1,8,0:2:0:0:
454,189,44872,1,8,0:2:0:0:
414,66,45098,5,14,0:2:0:0:
414,66,45323,1,0,0:2:0:0:
347,105,45549,2,0,L|338:168,1,64,10|0,0:3|0:2,0:2:0:0:
392,222,46000,1,8,0:2:0:0:
325,261,46226,1,0,0:2:0:0:
323,276,46338,1,0,0:2:0:0:
321,292,46451,1,8,0:3:0:0:
254,331,46677,1,0,0:2:0:0:
237,256,46902,5,8,0:2:0:0:
170,295,47128,1,0,0:2:0:0:
168,310,47241,1,0,0:2:0:0:
166,326,47353,1,8,0:3:0:0:
99,365,47579,1,0,0:2:0:0:
44,310,47805,1,8,0:2:0:0:
44,310,47917,2,0,L|59:203,1,96,8|10,0:3|0:3,0:2:0:0:
3,160,48481,1,0,0:2:0:0:
98,66,48707,5,8,0:2:0:0:
98,66,48932,1,0,0:2:0:0:
165,105,49158,2,0,L|174:168,1,64,8|2,0:3|0:2,0:2:0:0:
120,222,49609,1,8,0:2:0:0:
187,261,49835,1,0,0:2:0:0:
189,276,49947,1,0,0:2:0:0:
191,292,50060,1,8,0:3:0:0:
258,331,50286,1,0,0:2:0:0:
275,256,50511,5,8,0:2:0:0:
342,295,50737,1,0,0:2:0:0:
344,310,50850,1,0,0:2:0:0:
346,326,50962,1,8,0:3:0:0:
413,365,51188,1,0,0:2:0:0:
468,310,51414,1,8,0:2:0:0:
468,310,51526,2,0,L|452:203,1,96,8|8,0:3|0:3,0:2:0:0:
509,160,52090,1,0,0:2:0:0:
414,66,52316,5,10,0:2:0:0:
347,105,52541,1,0,0:2:0:0:
344,120,52654,1,0,0:2:0:0:
342,136,52767,1,8,0:3:0:0:
275,175,52993,1,0,0:2:0:0:
342,213,53218,2,0,L|333:276,1,64,8|0,0:2|0:2,0:2:0:0:
278,330,53669,1,8,0:3:0:0:
233,267,53895,1,0,0:2:0:0:
163,299,54120,5,8,0:2:0:0:
152,223,54346,1,0,0:2:0:0:
149,208,54459,1,0,0:2:0:0:
147,192,54571,1,8,0:3:0:0:
136,116,54797,1,0,0:2:0:0:
59,116,55023,1,8,0:2:0:0:
59,116,55135,2,0,L|43:223,1,96,8|8,0:3|0:3,0:2:0:0:
33,286,55699,1,0,0:2:0:0:
193,361,55925,5,10,0:2:0:0:
181,284,56150,2,0,L|172:221,1,64,2|8,0:2|0:3,0:2:0:0:
289,260,56602,5,2,0:2:0:0:
277,183,56827,1,10,0:2:0:0:
264,105,57053,2,0,L|255:42,1,64,2|8,0:2|0:3,0:2:0:0:
374,93,57504,5,2,0:2:0:0:
386,170,57729,2,0,L|392:216,1,40,8|0,0:2|0:2,0:2:0:0:
314,203,58180,6,0,L|321:255,1,47.9999985351563,8|0,0:2|0:2,0:2:0:0:
242,236,58632,6,0,L|250:293,1,55.9999982910157,8|0,0:2|0:2,0:2:0:0:
252,306,58970,1,0,3:2:0:0:
254,322,59083,1,8,3:0:0:0:
199,376,59308,1,0,3:2:0:0:
55,317,59534,5,4,0:2:0:0:
43,240,59759,1,2,0:2:0:0:
97,185,59985,1,2,0:2:0:0:
97,185,60098,1,0,0:2:0:0:
151,240,60323,2,0,L|160:308,2,64,2|0|2,0:2|0:2|0:2,0:2:0:0:
215,59,61338,5,0,0:2:0:0:
227,136,61564,1,2,0:2:0:0:
281,191,61789,1,0,0:2:0:0:
281,191,61902,1,2,0:2:0:0:
335,136,62128,2,0,L|325:67,2,64,2|0|2,0:2|0:2|0:2,0:2:0:0:
389,191,62805,1,0,0:2:0:0:
389,191,62917,1,2,0:2:0:0:
443,245,63143,5,0,0:2:0:0:
455,322,63368,1,2,0:2:0:0:
401,377,63594,1,0,0:2:0:0:
401,377,63707,1,2,0:2:0:0:
347,322,63932,2,0,L|337:253,2,64,2|0|2,0:2|0:2|0:2,0:2:0:0:
161,370,64947,5,2,0:2:0:0:
61,311,65286,1,2,0:2:0:0:
161,252,65624,1,2,0:2:0:0:
61,193,65962,1,2,0:2:0:0:
161,134,66301,2,0,L|170:65,1,64,2|0,0:2|0:2,0:2:0:0:
306,34,66752,5,0,0:2:0:0:
383,46,66977,1,2,0:2:0:0:
438,100,67203,1,8,0:3:0:0:
438,100,67316,1,2,0:2:0:0:
383,154,67541,2,0,L|314:144,1,64,2|0,0:2|0:2,0:2:0:0:
242,133,67993,1,2,0:2:0:0:
242,133,68105,1,8,0:3:0:0:
206,350,68556,5,0,0:2:0:0:
129,338,68782,1,2,0:2:0:0:
74,284,69008,1,8,0:3:0:0:
74,284,69120,1,2,0:2:0:0:
129,230,69346,2,0,L|197:239,1,64,2|8,0:2|0:3,0:2:0:0:
270,251,69797,1,2,0:2:0:0:
270,251,69910,1,8,0:3:0:0:
324,196,70135,1,2,0:2:0:0:
378,250,70361,5,0,0:2:0:0:
390,327,70586,1,2,0:2:0:0:
444,382,70812,1,8,0:3:0:0:
444,382,70925,1,2,0:2:0:0:
498,327,71150,2,0,L|488:258,1,64,2|0,0:2|0:2,0:2:0:0:
477,186,71602,1,2,0:2:0:0:
477,186,71714,1,8,0:3:0:0:
368,77,72165,5,2,0:2:0:0:
309,177,72504,1,2,0:2:0:0:
250,77,72842,1,2,0:2:0:0:
210,143,73068,1,0,3:2:0:0:
210,143,73180,1,2,0:2:0:0:
155,88,73406,2,0,L|100:80,3,32,8|10|0|8,0:2|3:2|3:2|3:2,0:2:0:0:
59,126,73970,5,12,0:2:0:0:
71,203,74196,1,2,0:2:0:0:
148,215,74421,1,8,0:3:0:0:
148,215,74534,1,2,0:2:0:0:
159,293,74759,2,0,L|165:336,2,32,2|8|2,0:2|0:2|0:2,0:2:0:0:
234,278,75211,1,2,0:2:0:0:
234,278,75323,2,0,L|223:206,1,64,8|0,0:3|0:2,0:2:0:0:
210,69,75774,5,8,0:2:0:0:
287,81,76000,1,2,0:2:0:0:
299,158,76226,1,8,0:3:0:0:
299,158,76338,1,2,0:2:0:0:
376,170,76564,2,0,L|419:176,2,32,2|8|10,0:2|0:2|0:3,0:2:0:0:
345,240,77015,1,2,0:2:0:0:
345,240,77128,1,8,0:3:0:0:
389,302,77353,1,2,0:2:0:0:
275,369,77579,5,8,0:2:0:0:
198,357,77805,1,2,0:2:0:0:
186,280,78030,1,8,0:3:0:0:
186,280,78143,1,2,0:2:0:0:
108,269,78368,2,0,L|64:262,2,32,2|8|2,0:2|0:2|0:2,0:2:0:0:
123,194,78820,1,2,0:2:0:0:
123,194,78932,2,0,L|195:205,1,64,8|2,0:3|0:2,0:2:0:0:
282,290,79383,6,0,L|377:276,1,96,8|0,0:2|0:2,0:2:0:0:
393,274,79835,1,8,0:3:0:0:
447,219,80060,1,2,0:2:0:0:
392,164,80286,1,10,0:2:0:0:
446,109,80511,1,2,0:2:0:0:
446,109,80624,1,0,0:3:0:0:
391,54,80850,2,0,L|323:63,1,64,2|2,0:2|0:2,0:2:0:0:
312,67,81188,5,8,0:2:0:0:
300,144,81414,1,2,0:2:0:0:
223,156,81639,1,8,0:3:0:0:
223,156,81752,1,2,0:2:0:0:
211,233,81977,1,2,0:2:0:0:
211,233,82090,2,0,L|204:276,1,32,8|2,0:2|0:2,0:2:0:0:
129,258,82429,1,2,0:2:0:0:
129,258,82541,2,0,L|140:186,1,64,8|0,0:3|0:2,0:2:0:0:
150,82,82993,5,8,0:2:0:0:
227,94,83218,1,2,0:2:0:0:
239,171,83444,1,8,0:3:0:0:
239,171,83556,1,2,0:2:0:0:
316,183,83782,1,2,0:2:0:0:
316,183,83895,2,0,L|359:189,1,32,8|10,0:2|0:3,0:2:0:0:
402,242,84233,1,2,0:2:0:0:
402,242,84346,1,8,0:3:0:0:
347,296,84571,1,2,0:2:0:0:
217,280,84797,5,8,0:2:0:0:
140,268,85023,1,10,3:2:0:0:
140,268,85135,1,0,3:2:0:0:
128,191,85361,1,10,3:2:0:0:
51,179,85586,2,0,L|29:175,4,16,10|8|8|8|10,3:2|3:2|3:2|3:2|3:2,0:2:0:0:
63,102,86038,1,10,0:2:0:0:
63,102,86150,5,8,3:2:0:0:
140,90,86376,2,0,L|161:86,4,16,10|8|10|8|14,3:2|3:2|3:2|3:2|3:2,0:2:0:0:
98,255,86940,5,10,3:2:0:0:
175,267,87165,2,0,L|196:270,4,16,10|8|8|8|10,3:2|3:2|3:2|3:2|3:2,0:2:0:0:
282,157,87842,5,8,3:2:0:0:
282,157,87955,1,8,3:2:0:0:
359,145,88180,1,8,0:2:0:0:
436,133,88406,5,12,0:2:0:0:
424,210,88632,1,2,0:2:0:0:
356,246,88857,2,0,L|350:289,1,32,8|2,0:2|0:2,0:2:0:0:
223,357,89308,5,10,0:2:0:0:
220,341,89421,1,2,0:2:0:0:
150,307,89647,1,2,0:2:0:0:
80,273,89872,1,2,0:2:0:0:
77,257,89985,1,0,0:2:0:0:
166,204,90211,5,8,0:2:0:0:
178,127,90436,1,2,0:2:0:0:
246,91,90662,2,0,L|252:48,1,32,8|2,0:2|0:2,0:2:0:0:
325,199,91113,5,10,0:2:0:0:
328,183,91226,1,2,0:2:0:0:
398,149,91451,1,2,0:2:0:0:
468,115,91677,2,0,L|474:72,2,32,0|2|2,0:2|0:2|0:2,0:2:0:0:
490,137,92015,5,8,0:2:0:0:
478,214,92241,1,2,0:2:0:0:
410,250,92466,2,0,L|404:293,1,32,8|2,0:2|0:2,0:2:0:0:
271,357,92917,5,10,0:2:0:0:
268,341,93030,1,2,0:2:0:0:
198,307,93256,1,2,0:2:0:0:
209,231,93481,1,0,0:2:0:0:
212,215,93594,1,2,0:2:0:0:
234,63,93820,5,10,0:2:0:0:
304,97,94045,1,2,0:2:0:0:
307,113,94158,1,2,0:2:0:0:
377,147,94383,1,2,0:2:0:0:
322,201,94609,2,0,L|331:272,1,64,2|2,0:2|0:2,0:2:0:0:
406,284,95060,1,2,0:2:0:0:
409,300,95173,1,8,0:2:0:0:
354,354,95399,1,2,0:2:0:0:
223,280,95624,5,8,0:2:0:0:
211,203,95850,1,2,0:2:0:0:
143,167,96075,2,0,L|137:124,1,32,8|2,0:2|0:2,0:2:0:0:
276,21,96526,5,10,0:2:0:0:
292,24,96639,1,2,0:2:0:0:
326,94,96865,1,2,0:2:0:0:
360,164,97090,1,2,0:2:0:0:
376,167,97203,1,0,0:2:0:0:
498,180,97429,5,8,0:2:0:0:
486,257,97654,1,2,0:2:0:0:
418,293,97880,2,0,L|412:336,1,32,8|2,0:2|0:2,0:2:0:0:
277,244,98331,5,10,0:2:0:0:
274,228,98444,1,2,0:2:0:0:
204,194,98669,1,2,0:2:0:0:
134,160,98895,2,0,L|128:117,2,32,0|2|2,0:2|0:2|0:2,0:2:0:0:
112,182,99233,5,8,0:2:0:0:
34,170,99459,1,2,0:2:0:0:
5,98,99684,2,0,L|11:55,1,32,8|2,0:2|0:2,0:2:0:0:
210,4,100135,5,10,0:2:0:0:
213,20,100248,1,2,0:2:0:0:
283,54,100474,1,2,0:2:0:0:
272,130,100699,1,0,0:2:0:0:
269,146,100812,1,2,0:2:0:0:
245,284,101038,6,0,L|239:325,4,32,14|2|2|2|2,0:2|0:2|0:2|0:2|0:2,0:2:0:0:
190,229,101714,2,0,L|184:188,4,32,2|2|2|2|2,0:2|0:2|0:2|0:2|0:2,0:2:0:0:
135,283,102391,1,8,0:2:0:0:
58,271,102617,1,10,0:2:0:0:
58,113,102842,5,12,0:2:0:0:
135,101,103068,1,2,0:2:0:0:
189,46,103293,1,8,0:3:0:0:
205,49,103406,1,2,0:2:0:0:
297,198,103744,5,10,0:2:0:0:
313,195,103857,1,2,0:2:0:0:
367,249,104083,1,2,0:2:0:0:
383,252,104196,2,0,L|426:258,2,32,8|2|0,0:3|0:2|0:2,0:2:0:0:
336,112,104647,5,8,0:2:0:0:
259,124,104872,1,2,0:2:0:0:
205,179,105098,1,8,0:3:0:0:
189,176,105211,1,2,0:2:0:0:
90,299,105549,5,10,0:2:0:0:
106,296,105662,1,10,0:3:0:0:
160,350,105887,1,2,0:2:0:0:
176,353,106000,1,8,0:3:0:0:
230,298,106226,1,2,0:2:0:0:
204,225,106451,5,8,0:2:0:0:
281,213,106677,1,2,0:2:0:0:
335,158,106902,1,8,0:3:0:0:
351,161,107015,1,2,0:2:0:0:
281,37,107353,5,10,0:2:0:0:
265,34,107466,1,2,0:2:0:0:
211,88,107692,1,2,0:2:0:0:
195,91,107805,2,0,L|152:97,2,32,8|0|2,0:3|0:2|0:2,0:2:0:0:
249,145,108256,5,14,0:2:0:0:
194,199,108481,1,14,0:2:0:0:
191,215,108594,1,10,0:2:0:0:
245,269,108820,2,0,L|266:273,4,16,14|8|8|8|14,0:2|0:2|0:2|0:2|0:2,0:2:0:0:
190,323,109271,1,14,0:2:0:0:
113,311,109496,1,14,0:2:0:0:
78,242,109722,1,8,0:2:0:0:
81,226,109835,1,10,0:2:0:0:
93,149,110060,5,12,0:2:0:0:
170,161,110286,1,2,0:2:0:0:
224,216,110511,1,8,0:3:0:0:
240,213,110624,1,2,0:2:0:0:
362,133,110962,5,10,0:2:0:0:
365,117,111075,1,2,0:2:0:0:
311,63,111301,1,2,0:2:0:0:
308,47,111414,2,0,L|302:4,2,32,8|2|0,0:3|0:2|0:2,0:2:0:0:
228,136,111865,5,8,0:2:0:0:
240,213,112090,1,2,0:2:0:0:
295,267,112316,1,8,0:3:0:0:
292,283,112429,1,2,0:2:0:0:
486,262,112767,5,10,0:2:0:0:
489,246,112880,1,10,0:3:0:0:
435,192,113105,1,2,0:2:0:0:
432,176,113218,1,8,0:3:0:0:
487,122,113444,1,2,0:2:0:0:
432,67,113669,5,8,0:2:0:0:
355,79,113895,1,2,0:2:0:0:
301,134,114120,1,8,0:3:0:0:
285,131,114233,1,2,0:2:0:0:
164,247,114571,5,10,0:2:0:0:
161,263,114684,1,2,0:2:0:0:
215,317,114910,1,2,0:2:0:0:
218,333,115023,2,0,L|224:376,2,32,8|0|2,0:3|0:2|0:2,0:2:0:0:
324,227,115474,6,0,L|330:186,4,32,14|2|2|2|2,0:2|0:2|0:2|0:2|0:2,0:2:0:0:
379,282,116150,2,0,L|385:323,4,32,2|2|2|2|2,0:2|0:2|3:2|0:2|0:2,0:2:0:0:
434,228,116827,1,8,0:2:0:0:
499,268,117053,1,10,0:2:0:0:
485,343,117278,5,4,0:2:0:0:
