osu file format v14

[General]
AudioFilename: audio.mp3
AudioLeadIn: 0
PreviewTime: 70027
Countdown: 0
SampleSet: Soft
StackLeniency: 0.7
Mode: 3
LetterboxInBreaks: 0
SpecialStyle: 0
WidescreenStoryboard: 0

[Editor]
DistanceSpacing: 1.7
BeatDivisor: 4
GridSize: 16
TimelineZoom: 3.599998

[Metadata]
Title:The Formula
TitleUnicode:The Formula
Artist:Junk
ArtistUnicode:Junk
Creator:leqek
Version:4K MX
Source:BMS
Tags:
BeatmapID:1388949
BeatmapSetID:655420

[Difficulty]
HPDrainRate:7.4
CircleSize:4
OverallDifficulty:6.9
ApproachRate:5
SliderMultiplier:1.4
SliderTickRate:1

[Events]
//Background and Video events
0,0,"BG.jpg",0,0
//Break Periods
//Storyboard Layer 0 (Background)
//Storyboard Layer 1 (Fail)
//Storyboard Layer 2 (Pass)
//Storyboard Layer 3 (Foreground)
//Storyboard Sound Samples

[TimingPoints]
80,416.666666666667,4,2,0,22,1,0
70080,-100,4,2,0,22,0,1
83413,-100,4,2,0,22,0,0
96746,-100,4,2,0,22,0,1
123413,-100,4,2,0,22,0,0

[HitObjects]
448,192,106,5,0,0:0:0:0:
64,192,106,1,0,0:0:0:0:
192,192,149,1,0,0:0:0:0:
320,192,218,1,0,0:0:0:0:
448,192,288,1,0,0:0:0:0:
192,192,357,1,0,0:0:0:0:
320,192,427,1,0,0:0:0:0:
64,192,496,1,0,0:0:0:0:
448,192,496,1,0,0:0:0:0:
192,192,566,1,0,0:0:0:0:
320,192,635,1,0,0:0:0:0:
448,192,705,1,0,0:0:0:0:
192,192,774,1,0,0:0:0:0:
320,192,843,1,0,0:0:0:0:
448,192,913,1,0,0:0:0:0:
64,192,913,1,0,0:0:0:0:
320,192,982,1,0,0:0:0:0:
192,192,1052,1,0,0:0:0:0:
448,192,1121,1,0,0:0:0:0:
64,192,1121,1,0,0:0:0:0:
320,192,1191,1,0,0:0:0:0:
192,192,1260,1,0,0:0:0:0:
448,192,1330,1,0,0:0:0:0:
64,192,1330,1,0,0:0:0:0:
320,192,1399,1,0,0:0:0:0:
192,192,1468,1,0,0:0:0:0:
64,192,1538,1,0,0:0:0:0:
320,192,1607,1,0,0:0:0:0:
192,192,1677,1,0,0:0:0:0:
64,192,1746,1,0,0:0:0:0:
448,192,1746,1,0,0:0:0:0:
192,192,1816,1,0,0:0:0:0:
320,192,1885,1,0,0:0:0:0:
448,192,1955,1,0,0:0:0:0:
64,192,2024,1,0,0:0:0:0:
192,192,2093,1,0,0:0:0:0:
448,192,2163,1,0,0:0:0:0:
320,192,2163,1,0,0:0:0:0:
192,192,2232,1,0,0:0:0:0:
64,192,2302,1,0,0:0:0:0:
192,192,2371,1,0,0:0:0:0:
320,192,2441,1,0,0:0:0:0:
192,192,2510,1,0,0:0:0:0:
448,192,2580,1,0,0:0:0:0:
64,192,2580,1,0,0:0:0:0:
320,192,2649,1,0,0:0:0:0:
192,192,2718,1,0,0:0:0:0:
448,192,2788,1,0,0:0:0:0:
64,192,2788,1,0,0:0:0:0:
320,192,2857,1,0,0:0:0:0:
192,192,2927,1,0,0:0:0:0:
320,192,2996,128,0,3135:0:0:0:0:
448,192,2996,128,0,3135:0:0:0:0:
448,192,3205,128,0,3343:0:0:0:0:
320,192,3205,128,0,3343:0:0:0:0:
64,192,3413,1,0,0:0:0:0:
192,192,3413,1,0,0:0:0:0:
320,192,3482,1,0,0:0:0:0:
448,192,3552,1,0,0:0:0:0:
64,192,3621,1,0,0:0:0:0:
192,192,3691,1,0,0:0:0:0:
320,192,3760,1,0,0:0:0:0:
448,192,3830,1,0,0:0:0:0:
64,192,3830,1,0,0:0:0:0:
192,192,3899,1,0,0:0:0:0:
320,192,3968,1,0,0:0:0:0:
448,192,4038,1,0,0:0:0:0:
192,192,4107,1,0,0:0:0:0:
320,192,4177,1,0,0:0:0:0:
64,192,4246,1,0,0:0:0:0:
448,192,4246,1,0,0:0:0:0:
320,192,4316,1,0,0:0:0:0:
192,192,4385,1,0,0:0:0:0:
64,192,4455,1,0,0:0:0:0:
448,192,4455,1,0,0:0:0:0:
320,192,4524,1,0,0:0:0:0:
192,192,4593,1,0,0:0:0:0:
448,192,4663,1,0,0:0:0:0:
64,192,4663,1,0,0:0:0:0:
320,192,4732,1,0,0:0:0:0:
192,192,4802,1,0,0:0:0:0:
64,192,4871,1,0,0:0:0:0:
448,192,4941,1,0,0:0:0:0:
320,192,5010,1,0,0:0:0:0:
64,192,5080,1,0,0:0:0:0:
192,192,5080,1,0,0:0:0:0:
320,192,5149,1,0,0:0:0:0:
448,192,5218,1,0,0:0:0:0:
64,192,5288,1,0,0:0:0:0:
192,192,5357,1,0,0:0:0:0:
320,192,5427,1,0,0:0:0:0:
448,192,5496,1,0,0:0:0:0:
64,192,5496,1,0,0:0:0:0:
192,192,5566,1,0,0:0:0:0:
320,192,5635,1,0,0:0:0:0:
64,192,5705,1,0,0:0:0:0:
192,192,5774,1,0,0:0:0:0:
320,192,5843,1,0,0:0:0:0:
64,192,5913,1,0,0:0:0:0:
448,192,5913,1,0,0:0:0:0:
320,192,5982,1,0,0:0:0:0:
192,192,6052,1,0,0:0:0:0:
64,192,6121,1,0,0:0:0:0:
448,192,6121,1,0,0:0:0:0:
320,192,6191,1,0,0:0:0:0:
192,192,6260,1,0,0:0:0:0:
64,192,6330,128,0,6677:0:0:0:0:
448,192,6330,1,0,0:0:0:0:
64,192,6746,1,0,0:0:0:0:
448,192,6746,1,0,0:0:0:0:
192,192,6746,1,0,0:0:0:0:
64,192,6850,1,0,0:0:0:0:
192,192,7059,1,0,0:0:0:0:
192,192,7163,1,0,0:0:0:0:
448,192,7163,1,0,0:0:0:0:
320,192,7163,1,0,0:0:0:0:
320,192,7371,1,0,0:0:0:0:
320,192,7475,1,0,0:0:0:0:
192,192,7580,1,0,0:0:0:0:
64,192,7580,1,0,0:0:0:0:
192,192,7684,1,0,0:0:0:0:
64,192,7788,1,0,0:0:0:0:
448,192,7788,1,0,0:0:0:0:
320,192,7892,1,0,0:0:0:0:
320,192,7996,1,0,0:0:0:0:
64,192,7996,1,0,0:0:0:0:
192,192,7996,1,0,0:0:0:0:
448,192,8205,1,0,0:0:0:0:
448,192,8309,1,0,0:0:0:0:
64,192,8413,1,0,0:0:0:0:
320,192,8413,1,0,0:0:0:0:
320,192,8517,1,0,0:0:0:0:
192,192,8725,1,0,0:0:0:0:
192,192,8830,1,0,0:0:0:0:
448,192,8830,1,0,0:0:0:0:
64,192,8830,1,0,0:0:0:0:
64,192,9038,1,0,0:0:0:0:
64,192,9142,1,0,0:0:0:0:
320,192,9246,1,0,0:0:0:0:
192,192,9246,1,0,0:0:0:0:
320,192,9350,1,0,0:0:0:0:
448,192,9455,1,0,0:0:0:0:
64,192,9455,1,0,0:0:0:0:
192,192,9559,1,0,0:0:0:0:
192,192,9663,1,0,0:0:0:0:
448,192,9663,1,0,0:0:0:0:
320,192,9663,1,0,0:0:0:0:
64,192,9871,1,0,0:0:0:0:
64,192,9975,1,0,0:0:0:0:
192,192,10080,1,0,0:0:0:0:
448,192,10080,1,0,0:0:0:0:
192,192,10184,1,0,0:0:0:0:
320,192,10288,1,0,0:0:0:0:
320,192,10392,1,0,0:0:0:0:
448,192,10496,1,0,0:0:0:0:
192,192,10496,1,0,0:0:0:0:
64,192,10496,1,0,0:0:0:0:
448,192,10600,1,0,0:0:0:0:
64,192,10705,1,0,0:0:0:0:
64,192,10809,1,0,0:0:0:0:
320,192,10913,1,0,0:0:0:0:
192,192,10913,1,0,0:0:0:0:
320,192,11017,1,0,0:0:0:0:
64,192,11121,1,0,0:0:0:0:
448,192,11121,1,0,0:0:0:0:
64,192,11225,1,0,0:0:0:0:
192,192,11330,1,0,0:0:0:0:
320,192,11330,1,0,0:0:0:0:
448,192,11330,1,0,0:0:0:0:
192,192,11434,1,0,0:0:0:0:
448,192,11538,1,0,0:0:0:0:
448,192,11642,1,0,0:0:0:0:
448,192,11746,1,0,0:0:0:0:
448,192,11850,1,0,0:0:0:0:
448,192,11955,1,0,0:0:0:0:
448,192,12059,1,0,0:0:0:0:
448,192,12163,1,0,0:0:0:0:
448,192,12267,1,0,0:0:0:0:
448,192,12371,1,0,0:0:0:0:
448,192,12475,1,0,0:0:0:0:
448,192,12580,1,0,0:0:0:0:
448,192,12684,1,0,0:0:0:0:
448,192,12788,1,0,0:0:0:0:
448,192,12892,1,0,0:0:0:0:
192,192,12996,128,0,13048:0:0:0:0:
64,192,12996,128,0,13048:0:0:0:0:
320,192,12996,128,0,13048:0:0:0:0:
448,192,12996,128,0,13048:0:0:0:0:
320,192,13413,1,0,0:0:0:0:
64,192,13413,1,0,0:0:0:0:
448,192,13413,128,0,13517:0:0:0:0:
192,192,13517,1,0,0:0:0:0:
448,192,13621,1,0,0:0:0:0:
64,192,13725,1,0,0:0:0:0:
320,192,13725,128,0,13830:0:0:0:0:
64,192,13934,1,0,0:0:0:0:
192,192,14038,128,0,14142:0:0:0:0:
448,192,14142,1,0,0:0:0:0:
320,192,14350,1,0,0:0:0:0:
192,192,14350,128,0,14455:0:0:0:0:
64,192,14455,1,0,0:0:0:0:
320,192,14559,1,0,0:0:0:0:
448,192,14663,128,0,14767:0:0:0:0:
64,192,14767,1,0,0:0:0:0:
448,192,14871,128,0,14975:0:0:0:0:
192,192,14871,1,0,0:0:0:0:
320,192,14975,1,0,0:0:0:0:
448,192,15080,1,0,0:0:0:0:
64,192,15080,128,0,15184:0:0:0:0:
320,192,15184,1,0,0:0:0:0:
192,192,15288,1,0,0:0:0:0:
448,192,15392,1,0,0:0:0:0:
64,192,15392,128,0,15496:0:0:0:0:
192,192,15600,1,0,0:0:0:0:
320,192,15705,128,0,15809:0:0:0:0:
448,192,15809,1,0,0:0:0:0:
64,192,16017,1,0,0:0:0:0:
320,192,16017,128,0,16121:0:0:0:0:
192,192,16121,1,0,0:0:0:0:
448,192,16225,1,0,0:0:0:0:
64,192,16330,128,0,16399:0:0:0:0:
320,192,16399,128,0,16468:0:0:0:0:
192,192,16468,128,0,16538:0:0:0:0:
448,192,16538,128,0,16607:0:0:0:0:
320,192,16642,1,0,0:0:0:0:
192,192,16746,1,0,0:0:0:0:
64,192,16746,128,0,16850:0:0:0:0:
320,192,16850,1,0,0:0:0:0:
448,192,16955,1,0,0:0:0:0:
320,192,17059,1,0,0:0:0:0:
64,192,17059,128,0,17163:0:0:0:0:
192,192,17267,1,0,0:0:0:0:
320,192,17371,128,0,17475:0:0:0:0:
448,192,17475,1,0,0:0:0:0:
64,192,17684,1,0,0:0:0:0:
320,192,17684,128,0,17788:0:0:0:0:
192,192,17788,1,0,0:0:0:0:
448,192,17892,1,0,0:0:0:0:
192,192,17996,128,0,18100:0:0:0:0:
320,192,18100,1,0,0:0:0:0:
192,192,18205,128,0,18309:0:0:0:0:
64,192,18309,1,0,0:0:0:0:
320,192,18413,1,0,0:0:0:0:
448,192,18413,128,0,18517:0:0:0:0:
192,192,18517,1,0,0:0:0:0:
64,192,18621,1,0,0:0:0:0:
192,192,18725,1,0,0:0:0:0:
448,192,18725,128,0,18830:0:0:0:0:
64,192,18934,1,0,0:0:0:0:
320,192,19038,128,0,19142:0:0:0:0:
448,192,19142,1,0,0:0:0:0:
192,192,19350,1,0,0:0:0:0:
320,192,19350,128,0,19455:0:0:0:0:
64,192,19455,1,0,0:0:0:0:
320,192,19559,1,0,0:0:0:0:
448,192,19663,128,0,19732:0:0:0:0:
192,192,19732,128,0,19802:0:0:0:0:
320,192,19802,128,0,19871:0:0:0:0:
64,192,19871,128,0,19941:0:0:0:0:
192,192,19975,1,0,0:0:0:0:
320,192,20080,1,0,0:0:0:0:
448,192,20080,128,0,20184:0:0:0:0:
64,192,20184,1,0,0:0:0:0:
192,192,20288,1,0,0:0:0:0:
320,192,20392,1,0,0:0:0:0:
448,192,20392,128,0,20496:0:0:0:0:
64,192,20600,1,0,0:0:0:0:
320,192,20705,128,0,20809:0:0:0:0:
448,192,20809,1,0,0:0:0:0:
64,192,21017,1,0,0:0:0:0:
320,192,21017,128,0,21121:0:0:0:0:
448,192,21121,1,0,0:0:0:0:
64,192,21225,1,0,0:0:0:0:
192,192,21330,128,0,21434:0:0:0:0:
320,192,21434,1,0,0:0:0:0:
448,192,21538,1,0,0:0:0:0:
192,192,21538,128,0,21642:0:0:0:0:
320,192,21642,1,0,0:0:0:0:
448,192,21746,1,0,0:0:0:0:
64,192,21746,128,0,21850:0:0:0:0:
320,192,21850,1,0,0:0:0:0:
192,192,21955,1,0,0:0:0:0:
448,192,22059,1,0,0:0:0:0:
64,192,22059,128,0,22163:0:0:0:0:
320,192,22267,1,0,0:0:0:0:
192,192,22371,128,0,22475:0:0:0:0:
448,192,22475,1,0,0:0:0:0:
64,192,22684,1,0,0:0:0:0:
192,192,22684,128,0,22788:0:0:0:0:
448,192,22788,1,0,0:0:0:0:
192,192,22892,1,0,0:0:0:0:
320,192,22996,128,0,23066:0:0:0:0:
64,192,23066,128,0,23135:0:0:0:0:
448,192,23135,128,0,23205:0:0:0:0:
192,192,23205,128,0,23274:0:0:0:0:
320,192,23309,1,0,0:0:0:0:
448,192,23413,1,0,0:0:0:0:
64,192,23413,128,0,23517:0:0:0:0:
192,192,23517,1,0,0:0:0:0:
320,192,23621,1,0,0:0:0:0:
192,192,23725,1,0,0:0:0:0:
64,192,23725,128,0,23830:0:0:0:0:
320,192,23934,1,0,0:0:0:0:
192,192,24038,128,0,24142:0:0:0:0:
448,192,24142,1,0,0:0:0:0:
64,192,24350,1,0,0:0:0:0:
192,192,24350,128,0,24455:0:0:0:0:
448,192,24455,1,0,0:0:0:0:
64,192,24559,1,0,0:0:0:0:
320,192,24663,128,0,24767:0:0:0:0:
192,192,24767,1,0,0:0:0:0:
320,192,24871,128,0,24975:0:0:0:0:
64,192,24975,1,0,0:0:0:0:
192,192,25080,1,0,0:0:0:0:
448,192,25080,128,0,25184:0:0:0:0:
320,192,25184,1,0,0:0:0:0:
192,192,25288,1,0,0:0:0:0:
64,192,25392,1,0,0:0:0:0:
448,192,25392,128,0,25496:0:0:0:0:
192,192,25600,1,0,0:0:0:0:
320,192,25705,128,0,25809:0:0:0:0:
64,192,25809,1,0,0:0:0:0:
320,192,26017,128,0,26121:0:0:0:0:
192,192,26017,1,0,0:0:0:0:
64,192,26121,1,0,0:0:0:0:
320,192,26225,1,0,0:0:0:0:
64,192,26330,128,0,26434:0:0:0:0:
448,192,26434,128,0,26538:0:0:0:0:
64,192,26538,128,0,26642:0:0:0:0:
448,192,26642,128,0,26746:0:0:0:0:
64,192,26746,1,0,0:0:0:0:
192,192,26746,1,0,0:0:0:0:
320,192,26746,1,0,0:0:0:0:
448,192,26850,1,0,0:0:0:0:
192,192,26955,1,0,0:0:0:0:
320,192,27059,128,0,27267:0:0:0:0:
64,192,27163,1,0,0:0:0:0:
448,192,27163,1,0,0:0:0:0:
192,192,27267,1,0,0:0:0:0:
320,192,27371,1,0,0:0:0:0:
448,192,27475,1,0,0:0:0:0:
64,192,27580,1,0,0:0:0:0:
192,192,27580,1,0,0:0:0:0:
448,192,27684,1,0,0:0:0:0:
320,192,27788,1,0,0:0:0:0:
192,192,27892,1,0,0:0:0:0:
64,192,27996,1,0,0:0:0:0:
448,192,27996,1,0,0:0:0:0:
320,192,28100,1,0,0:0:0:0:
192,192,28205,1,0,0:0:0:0:
64,192,28309,1,0,0:0:0:0:
320,192,28413,1,0,0:0:0:0:
448,192,28413,1,0,0:0:0:0:
64,192,28517,1,0,0:0:0:0:
320,192,28621,1,0,0:0:0:0:
192,192,28725,128,0,28934:0:0:0:0:
64,192,28830,1,0,0:0:0:0:
448,192,28830,1,0,0:0:0:0:
320,192,28934,1,0,0:0:0:0:
64,192,29038,1,0,0:0:0:0:
192,192,29142,1,0,0:0:0:0:
320,192,29246,1,0,0:0:0:0:
64,192,29246,1,0,0:0:0:0:
448,192,29350,1,0,0:0:0:0:
192,192,29455,1,0,0:0:0:0:
320,192,29559,1,0,0:0:0:0:
192,192,29663,1,0,0:0:0:0:
448,192,29663,1,0,0:0:0:0:
64,192,29767,1,0,0:0:0:0:
320,192,29871,1,0,0:0:0:0:
192,192,29975,1,0,0:0:0:0:
64,192,30080,1,0,0:0:0:0:
448,192,30080,1,0,0:0:0:0:
320,192,30184,1,0,0:0:0:0:
192,192,30288,1,0,0:0:0:0:
64,192,30392,128,0,30600:0:0:0:0:
320,192,30496,1,0,0:0:0:0:
448,192,30496,1,0,0:0:0:0:
192,192,30600,1,0,0:0:0:0:
320,192,30705,1,0,0:0:0:0:
448,192,30809,1,0,0:0:0:0:
64,192,30913,1,0,0:0:0:0:
192,192,30913,1,0,0:0:0:0:
320,192,31017,1,0,0:0:0:0:
64,192,31121,1,0,0:0:0:0:
448,192,31225,1,0,0:0:0:0:
192,192,31330,1,0,0:0:0:0:
320,192,31330,1,0,0:0:0:0:
64,192,31434,1,0,0:0:0:0:
320,192,31538,1,0,0:0:0:0:
192,192,31642,1,0,0:0:0:0:
448,192,31746,1,0,0:0:0:0:
64,192,31746,1,0,0:0:0:0:
320,192,31850,1,0,0:0:0:0:
192,192,31955,1,0,0:0:0:0:
448,192,32059,128,0,32267:0:0:0:0:
64,192,32163,1,0,0:0:0:0:
192,192,32163,1,0,0:0:0:0:
320,192,32267,1,0,0:0:0:0:
448,192,32371,1,0,0:0:0:0:
64,192,32475,1,0,0:0:0:0:
192,192,32580,1,0,0:0:0:0:
320,192,32580,1,0,0:0:0:0:
448,192,32684,1,0,0:0:0:0:
320,192,32788,1,0,0:0:0:0:
192,192,32892,1,0,0:0:0:0:
64,192,32996,1,0,0:0:0:0:
448,192,32996,1,0,0:0:0:0:
320,192,33100,1,0,0:0:0:0:
192,192,33205,1,0,0:0:0:0:
64,192,33309,1,0,0:0:0:0:
192,192,33413,1,0,0:0:0:0:
448,192,33413,1,0,0:0:0:0:
320,192,33517,1,0,0:0:0:0:
64,192,33621,1,0,0:0:0:0:
192,192,33725,128,0,33934:0:0:0:0:
320,192,33830,1,0,0:0:0:0:
448,192,33830,1,0,0:0:0:0:
64,192,33934,1,0,0:0:0:0:
320,192,34038,1,0,0:0:0:0:
192,192,34142,1,0,0:0:0:0:
448,192,34246,1,0,0:0:0:0:
64,192,34246,1,0,0:0:0:0:
192,192,34350,1,0,0:0:0:0:
320,192,34455,1,0,0:0:0:0:
448,192,34559,1,0,0:0:0:0:
64,192,34663,1,0,0:0:0:0:
192,192,34663,1,0,0:0:0:0:
320,192,34767,1,0,0:0:0:0:
448,192,34871,1,0,0:0:0:0:
192,192,34975,1,0,0:0:0:0:
320,192,35080,1,0,0:0:0:0:
64,192,35080,1,0,0:0:0:0:
192,192,35184,1,0,0:0:0:0:
448,192,35288,1,0,0:0:0:0:
320,192,35392,128,0,35600:0:0:0:0:
192,192,35496,1,0,0:0:0:0:
64,192,35496,1,0,0:0:0:0:
448,192,35600,1,0,0:0:0:0:
192,192,35705,1,0,0:0:0:0:
320,192,35809,1,0,0:0:0:0:
448,192,35913,1,0,0:0:0:0:
64,192,35913,1,0,0:0:0:0:
192,192,36017,1,0,0:0:0:0:
320,192,36121,1,0,0:0:0:0:
192,192,36225,1,0,0:0:0:0:
64,192,36330,1,0,0:0:0:0:
448,192,36330,1,0,0:0:0:0:
320,192,36434,1,0,0:0:0:0:
192,192,36538,1,0,0:0:0:0:
64,192,36642,1,0,0:0:0:0:
320,192,36746,1,0,0:0:0:0:
448,192,36746,1,0,0:0:0:0:
192,192,36850,1,0,0:0:0:0:
64,192,36955,1,0,0:0:0:0:
448,192,37059,128,0,37267:0:0:0:0:
320,192,37163,1,0,0:0:0:0:
192,192,37163,1,0,0:0:0:0:
64,192,37267,1,0,0:0:0:0:
448,192,37371,1,0,0:0:0:0:
320,192,37475,1,0,0:0:0:0:
64,192,37580,1,0,0:0:0:0:
192,192,37580,1,0,0:0:0:0:
320,192,37684,1,0,0:0:0:0:
448,192,37788,1,0,0:0:0:0:
64,192,37892,1,0,0:0:0:0:
192,192,37996,1,0,0:0:0:0:
320,192,37996,1,0,0:0:0:0:
448,192,38100,1,0,0:0:0:0:
64,192,38205,1,0,0:0:0:0:
320,192,38309,1,0,0:0:0:0:
64,192,38413,1,0,0:0:0:0:
192,192,38413,1,0,0:0:0:0:
320,192,38517,1,0,0:0:0:0:
448,192,38621,1,0,0:0:0:0:
64,192,38725,128,0,38934:0:0:0:0:
192,192,38830,1,0,0:0:0:0:
320,192,38830,1,0,0:0:0:0:
448,192,38934,1,0,0:0:0:0:
64,192,39038,1,0,0:0:0:0:
192,192,39142,1,0,0:0:0:0:
320,192,39246,1,0,0:0:0:0:
448,192,39246,1,0,0:0:0:0:
192,192,39350,1,0,0:0:0:0:
64,192,39455,1,0,0:0:0:0:
448,192,39559,1,0,0:0:0:0:
64,192,39663,1,0,0:0:0:0:
192,192,39663,1,0,0:0:0:0:
320,192,39767,1,0,0:0:0:0:
320,192,39871,1,0,0:0:0:0:
320,192,39975,1,0,0:0:0:0:
64,192,40080,1,0,0:0:0:0:
448,192,40080,1,0,0:0:0:0:
320,192,40080,1,0,0:0:0:0:
192,192,40184,1,0,0:0:0:0:
320,192,40288,1,0,0:0:0:0:
448,192,40392,1,0,0:0:0:0:
64,192,40392,1,0,0:0:0:0:
192,192,40496,1,0,0:0:0:0:
320,192,40496,1,0,0:0:0:0:
448,192,40600,1,0,0:0:0:0:
64,192,40600,1,0,0:0:0:0:
192,192,40705,1,0,0:0:0:0:
320,192,40705,1,0,0:0:0:0:
448,192,40809,1,0,0:0:0:0:
64,192,40809,1,0,0:0:0:0:
192,192,40913,1,0,0:0:0:0:
320,192,40913,1,0,0:0:0:0:
448,192,41017,1,0,0:0:0:0:
64,192,41121,1,0,0:0:0:0:
320,192,41225,1,0,0:0:0:0:
448,192,41225,1,0,0:0:0:0:
192,192,41330,1,0,0:0:0:0:
64,192,41330,1,0,0:0:0:0:
320,192,41434,1,0,0:0:0:0:
448,192,41434,1,0,0:0:0:0:
192,192,41538,1,0,0:0:0:0:
64,192,41538,1,0,0:0:0:0:
320,192,41642,1,0,0:0:0:0:
448,192,41642,1,0,0:0:0:0:
192,192,41746,1,0,0:0:0:0:
64,192,41746,1,0,0:0:0:0:
320,192,41850,1,0,0:0:0:0:
448,192,41955,1,0,0:0:0:0:
64,192,42059,1,0,0:0:0:0:
320,192,42059,1,0,0:0:0:0:
448,192,42163,1,0,0:0:0:0:
192,192,42163,1,0,0:0:0:0:
64,192,42267,1,0,0:0:0:0:
320,192,42267,1,0,0:0:0:0:
448,192,42371,1,0,0:0:0:0:
192,192,42371,1,0,0:0:0:0:
64,192,42475,1,0,0:0:0:0:
320,192,42475,1,0,0:0:0:0:
192,192,42580,1,0,0:0:0:0:
448,192,42580,1,0,0:0:0:0:
64,192,42684,1,0,0:0:0:0:
320,192,42788,1,0,0:0:0:0:
192,192,42892,1,0,0:0:0:0:
64,192,42892,1,0,0:0:0:0:
320,192,42996,1,0,0:0:0:0:
448,192,42996,1,0,0:0:0:0:
192,192,43100,1,0,0:0:0:0:
64,192,43100,1,0,0:0:0:0:
320,192,43205,1,0,0:0:0:0:
448,192,43205,1,0,0:0:0:0:
192,192,43309,1,0,0:0:0:0:
64,192,43309,1,0,0:0:0:0:
320,192,43413,1,0,0:0:0:0:
448,192,43413,1,0,0:0:0:0:
192,192,43517,1,0,0:0:0:0:
64,192,43621,1,0,0:0:0:0:
448,192,43725,1,0,0:0:0:0:
192,192,43725,1,0,0:0:0:0:
64,192,43830,1,0,0:0:0:0:
320,192,43830,1,0,0:0:0:0:
448,192,43934,1,0,0:0:0:0:
192,192,43934,1,0,0:0:0:0:
64,192,44038,1,0,0:0:0:0:
320,192,44038,1,0,0:0:0:0:
448,192,44142,1,0,0:0:0:0:
192,192,44142,1,0,0:0:0:0:
64,192,44246,1,0,0:0:0:0:
320,192,44246,1,0,0:0:0:0:
192,192,44350,1,0,0:0:0:0:
448,192,44455,1,0,0:0:0:0:
192,192,44559,1,0,0:0:0:0:
320,192,44559,1,0,0:0:0:0:
64,192,44663,1,0,0:0:0:0:
448,192,44663,1,0,0:0:0:0:
192,192,44767,1,0,0:0:0:0:
320,192,44767,1,0,0:0:0:0:
448,192,44871,1,0,0:0:0:0:
64,192,44871,1,0,0:0:0:0:
192,192,44975,1,0,0:0:0:0:
320,192,44975,1,0,0:0:0:0:
448,192,45080,1,0,0:0:0:0:
64,192,45080,1,0,0:0:0:0:
320,192,45184,1,0,0:0:0:0:
192,192,45288,1,0,0:0:0:0:
64,192,45392,1,0,0:0:0:0:
448,192,45392,1,0,0:0:0:0:
320,192,45496,1,0,0:0:0:0:
192,192,45496,1,0,0:0:0:0:
64,192,45600,1,0,0:0:0:0:
448,192,45600,1,0,0:0:0:0:
320,192,45705,1,0,0:0:0:0:
192,192,45705,1,0,0:0:0:0:
448,192,45809,1,0,0:0:0:0:
64,192,45809,1,0,0:0:0:0:
320,192,45913,1,0,0:0:0:0:
192,192,45913,1,0,0:0:0:0:
448,192,46017,1,0,0:0:0:0:
64,192,46121,1,0,0:0:0:0:
320,192,46225,1,0,0:0:0:0:
448,192,46225,1,0,0:0:0:0:
192,192,46330,1,0,0:0:0:0:
64,192,46330,1,0,0:0:0:0:
320,192,46434,1,0,0:0:0:0:
448,192,46434,1,0,0:0:0:0:
192,192,46538,1,0,0:0:0:0:
64,192,46538,1,0,0:0:0:0:
320,192,46642,1,0,0:0:0:0:
448,192,46642,1,0,0:0:0:0:
192,192,46746,1,0,0:0:0:0:
64,192,46746,1,0,0:0:0:0:
448,192,46746,1,0,0:0:0:0:
320,192,46850,1,0,0:0:0:0:
448,192,46955,1,0,0:0:0:0:
64,192,47059,1,0,0:0:0:0:
192,192,47059,1,0,0:0:0:0:
192,192,47163,1,0,0:0:0:0:
320,192,47163,1,0,0:0:0:0:
64,192,47267,1,0,0:0:0:0:
448,192,47267,1,0,0:0:0:0:
192,192,47371,1,0,0:0:0:0:
320,192,47371,1,0,0:0:0:0:
64,192,47475,1,0,0:0:0:0:
448,192,47475,1,0,0:0:0:0:
192,192,47580,1,0,0:0:0:0:
320,192,47580,1,0,0:0:0:0:
64,192,47684,1,0,0:0:0:0:
448,192,47788,1,0,0:0:0:0:
320,192,47892,1,0,0:0:0:0:
64,192,47892,1,0,0:0:0:0:
192,192,47996,1,0,0:0:0:0:
320,192,47996,1,0,0:0:0:0:
64,192,48100,1,0,0:0:0:0:
448,192,48100,1,0,0:0:0:0:
320,192,48205,1,0,0:0:0:0:
192,192,48205,1,0,0:0:0:0:
64,192,48309,1,0,0:0:0:0:
448,192,48309,1,0,0:0:0:0:
320,192,48413,1,0,0:0:0:0:
192,192,48413,1,0,0:0:0:0:
448,192,48517,1,0,0:0:0:0:
320,192,48621,1,0,0:0:0:0:
64,192,48725,1,0,0:0:0:0:
192,192,48725,1,0,0:0:0:0:
448,192,48830,1,0,0:0:0:0:
320,192,48830,1,0,0:0:0:0:
320,192,48934,1,0,0:0:0:0:
64,192,48934,1,0,0:0:0:0:
448,192,49038,1,0,0:0:0:0:
192,192,49038,1,0,0:0:0:0:
320,192,49142,1,0,0:0:0:0:
64,192,49142,1,0,0:0:0:0:
448,192,49246,1,0,0:0:0:0:
192,192,49246,1,0,0:0:0:0:
64,192,49350,1,0,0:0:0:0:
320,192,49455,1,0,0:0:0:0:
64,192,49559,1,0,0:0:0:0:
192,192,49559,1,0,0:0:0:0:
320,192,49663,1,0,0:0:0:0:
448,192,49663,1,0,0:0:0:0:
448,192,49767,1,0,0:0:0:0:
192,192,49767,1,0,0:0:0:0:
64,192,49871,1,0,0:0:0:0:
320,192,49871,1,0,0:0:0:0:
192,192,49975,1,0,0:0:0:0:
64,192,49975,1,0,0:0:0:0:
320,192,50080,1,0,0:0:0:0:
448,192,50080,1,0,0:0:0:0:
192,192,50080,1,0,0:0:0:0:
320,192,50184,1,0,0:0:0:0:
448,192,50184,1,0,0:0:0:0:
192,192,50288,1,0,0:0:0:0:
64,192,50288,1,0,0:0:0:0:
320,192,50392,1,0,0:0:0:0:
448,192,50392,1,0,0:0:0:0:
192,192,50496,1,0,0:0:0:0:
64,192,50496,1,0,0:0:0:0:
192,192,50600,1,0,0:0:0:0:
64,192,50600,1,0,0:0:0:0:
320,192,50705,1,0,0:0:0:0:
448,192,50705,1,0,0:0:0:0:
192,192,50809,1,0,0:0:0:0:
64,192,50809,1,0,0:0:0:0:
192,192,50913,1,0,0:0:0:0:
320,192,50913,1,0,0:0:0:0:
320,192,51017,1,0,0:0:0:0:
448,192,51017,1,0,0:0:0:0:
192,192,51121,1,0,0:0:0:0:
64,192,51121,1,0,0:0:0:0:
448,192,51225,1,0,0:0:0:0:
320,192,51225,1,0,0:0:0:0:
320,192,51330,1,0,0:0:0:0:
192,192,51330,1,0,0:0:0:0:
448,192,51434,1,0,0:0:0:0:
64,192,51434,1,0,0:0:0:0:
320,192,51538,1,0,0:0:0:0:
192,192,51538,1,0,0:0:0:0:
64,192,51642,1,0,0:0:0:0:
448,192,51642,1,0,0:0:0:0:
192,192,51746,1,0,0:0:0:0:
448,192,51746,1,0,0:0:0:0:
320,192,51746,1,0,0:0:0:0:
64,192,51746,1,0,0:0:0:0:
448,192,51850,1,0,0:0:0:0:
320,192,51850,1,0,0:0:0:0:
192,192,51850,1,0,0:0:0:0:
64,192,51850,1,0,0:0:0:0:
320,192,51955,128,0,52163:0:0:0:0:
192,192,51955,128,0,52163:0:0:0:0:
64,192,52163,128,0,52371:0:0:0:0:
448,192,52163,128,0,52371:0:0:0:0:
320,192,52371,1,0,0:0:0:0:
192,192,52371,1,0,0:0:0:0:
64,192,52580,1,0,0:0:0:0:
448,192,52580,1,0,0:0:0:0:
320,192,52684,128,0,52892:0:0:0:0:
192,192,52684,128,0,52892:0:0:0:0:
64,192,52684,128,0,52892:0:0:0:0:
448,192,52684,128,0,52892:0:0:0:0:
64,192,52996,1,0,0:0:0:0:
448,192,52996,1,0,0:0:0:0:
192,192,52996,1,0,0:0:0:0:
320,192,52996,1,0,0:0:0:0:
448,192,53100,1,0,0:0:0:0:
192,192,53100,1,0,0:0:0:0:
64,192,53100,1,0,0:0:0:0:
320,192,53100,1,0,0:0:0:0:
192,192,53205,1,0,0:0:0:0:
64,192,53205,1,0,0:0:0:0:
320,192,53205,1,0,0:0:0:0:
448,192,53205,1,0,0:0:0:0:
448,192,53309,1,0,0:0:0:0:
320,192,53309,1,0,0:0:0:0:
192,192,53309,1,0,0:0:0:0:
64,192,53309,1,0,0:0:0:0:
64,192,53413,1,0,0:0:0:0:
192,192,53413,1,0,0:0:0:0:
320,192,53413,1,0,0:0:0:0:
448,192,53413,1,0,0:0:0:0:
64,192,55080,128,0,56746:0:0:0:0:
448,192,56746,128,0,58205:0:0:0:0:
192,192,56746,1,0,0:0:0:0:
320,192,57163,1,0,0:0:0:0:
64,192,57580,1,0,0:0:0:0:
64,192,57788,1,0,0:0:0:0:
320,192,57996,1,0,0:0:0:0:
192,192,58413,128,0,58830:0:0:0:0:
64,192,58413,1,0,0:0:0:0:
448,192,58830,1,0,0:0:0:0:
320,192,59038,128,0,59663:0:0:0:0:
64,192,59246,1,0,0:0:0:0:
64,192,59455,1,0,0:0:0:0:
192,192,59663,1,0,0:0:0:0:
320,192,59871,1,0,0:0:0:0:
448,192,60080,128,0,60496:0:0:0:0:
64,192,60080,1,0,0:0:0:0:
320,192,60496,1,0,0:0:0:0:
192,192,60705,128,0,61538:0:0:0:0:
448,192,60913,1,0,0:0:0:0:
448,192,61121,1,0,0:0:0:0:
320,192,61330,1,0,0:0:0:0:
320,192,61746,128,0,61955:0:0:0:0:
64,192,61746,1,0,0:0:0:0:
320,192,62059,128,0,62163:0:0:0:0:
192,192,62163,1,0,0:0:0:0:
64,192,62371,128,0,62996:0:0:0:0:
448,192,62580,1,0,0:0:0:0:
448,192,62788,1,0,0:0:0:0:
192,192,62996,1,0,0:0:0:0:
320,192,63205,1,0,0:0:0:0:
448,192,63413,128,0,64663:0:0:0:0:
64,192,63413,1,0,0:0:0:0:
320,192,63830,1,0,0:0:0:0:
64,192,64246,1,0,0:0:0:0:
64,192,64455,1,0,0:0:0:0:
320,192,64663,1,0,0:0:0:0:
64,192,64871,1,0,0:0:0:0:
192,192,65080,128,0,65496:0:0:0:0:
448,192,65080,1,0,0:0:0:0:
320,192,65496,1,0,0:0:0:0:
64,192,65705,128,0,66330:0:0:0:0:
192,192,65705,1,0,0:0:0:0:
448,192,65913,1,0,0:0:0:0:
448,192,66121,1,0,0:0:0:0:
320,192,66330,1,0,0:0:0:0:
192,192,66538,1,0,0:0:0:0:
64,192,66642,1,0,0:0:0:0:
320,192,66746,1,0,0:0:0:0:
448,192,66746,128,0,67163:0:0:0:0:
64,192,67163,1,0,0:0:0:0:
192,192,67371,128,0,67996:0:0:0:0:
320,192,67475,1,0,0:0:0:0:
64,192,67580,1,0,0:0:0:0:
320,192,67684,1,0,0:0:0:0:
64,192,67788,1,0,0:0:0:0:
320,192,67996,128,0,69455:0:0:0:0:
448,192,67996,1,0,0:0:0:0:
64,192,68205,1,0,0:0:0:0:
192,192,68309,1,0,0:0:0:0:
448,192,68413,1,0,0:0:0:0:
192,192,68517,1,0,0:0:0:0:
448,192,68621,1,0,0:0:0:0:
64,192,68830,1,0,0:0:0:0:
192,192,69038,1,0,0:0:0:0:
64,192,69246,1,0,0:0:0:0:
448,192,69455,1,0,0:0:0:0:
64,192,69663,128,0,69715:0:0:0:0:
320,192,69663,128,0,69715:0:0:0:0:
448,192,69663,128,0,69715:0:0:0:0:
192,192,69663,128,0,69715:0:0:0:0:
64,192,70080,1,0,0:0:0:0:
192,192,70080,1,0,0:0:0:0:
320,192,70080,1,0,0:0:0:0:
320,192,70184,1,0,0:0:0:0:
448,192,70184,1,0,0:0:0:0:
64,192,70288,1,0,0:0:0:0:
192,192,70288,1,0,0:0:0:0:
192,192,70392,1,0,0:0:0:0:
448,192,70392,1,0,0:0:0:0:
64,192,70496,1,0,0:0:0:0:
320,192,70496,1,0,0:0:0:0:
192,192,70600,1,0,0:0:0:0:
448,192,70600,1,0,0:0:0:0:
448,192,70705,1,0,0:0:0:0:
320,192,70705,128,0,71746:0:0:0:0:
192,192,70913,1,0,0:0:0:0:
64,192,70913,1,0,0:0:0:0:
64,192,71121,1,0,0:0:0:0:
192,192,71121,1,0,0:0:0:0:
64,192,71330,1,0,0:0:0:0:
448,192,71330,1,0,0:0:0:0:
192,192,71538,1,0,0:0:0:0:
192,192,71746,1,0,0:0:0:0:
64,192,71746,1,0,0:0:0:0:
320,192,71850,1,0,0:0:0:0:
448,192,71850,1,0,0:0:0:0:
64,192,71955,1,0,0:0:0:0:
320,192,71955,1,0,0:0:0:0:
192,192,72059,1,0,0:0:0:0:
64,192,72059,1,0,0:0:0:0:
320,192,72163,1,0,0:0:0:0:
448,192,72163,1,0,0:0:0:0:
192,192,72267,1,0,0:0:0:0:
320,192,72267,1,0,0:0:0:0:
448,192,72371,128,0,73413:0:0:0:0:
64,192,72371,1,0,0:0:0:0:
192,192,72580,1,0,0:0:0:0:
320,192,72580,1,0,0:0:0:0:
320,192,72788,1,0,0:0:0:0:
192,192,72788,1,0,0:0:0:0:
64,192,72996,1,0,0:0:0:0:
320,192,72996,1,0,0:0:0:0:
192,192,73205,1,0,0:0:0:0:
64,192,73413,1,0,0:0:0:0:
320,192,73413,1,0,0:0:0:0:
192,192,73517,1,0,0:0:0:0:
64,192,73517,1,0,0:0:0:0:
320,192,73621,1,0,0:0:0:0:
448,192,73621,1,0,0:0:0:0:
448,192,73725,1,0,0:0:0:0:
64,192,73725,1,0,0:0:0:0:
320,192,73830,1,0,0:0:0:0:
192,192,73830,1,0,0:0:0:0:
448,192,73934,1,0,0:0:0:0:
64,192,73934,1,0,0:0:0:0:
192,192,74038,128,0,75080:0:0:0:0:
320,192,74038,1,0,0:0:0:0:
64,192,74246,1,0,0:0:0:0:
448,192,74246,1,0,0:0:0:0:
448,192,74455,1,0,0:0:0:0:
64,192,74455,1,0,0:0:0:0:
64,192,74663,1,0,0:0:0:0:
320,192,74663,1,0,0:0:0:0:
448,192,74871,1,0,0:0:0:0:
64,192,75080,1,0,0:0:0:0:
320,192,75080,1,0,0:0:0:0:
192,192,75184,1,0,0:0:0:0:
448,192,75184,1,0,0:0:0:0:
320,192,75288,1,0,0:0:0:0:
64,192,75288,1,0,0:0:0:0:
448,192,75392,1,0,0:0:0:0:
320,192,75392,1,0,0:0:0:0:
192,192,75496,1,0,0:0:0:0:
64,192,75496,1,0,0:0:0:0:
320,192,75600,1,0,0:0:0:0:
448,192,75600,1,0,0:0:0:0:
64,192,75705,128,0,76746:0:0:0:0:
192,192,75705,1,0,0:0:0:0:
320,192,75913,1,0,0:0:0:0:
448,192,75913,1,0,0:0:0:0:
448,192,76121,1,0,0:0:0:0:
320,192,76121,1,0,0:0:0:0:
192,192,76330,1,0,0:0:0:0:
448,192,76330,1,0,0:0:0:0:
192,192,76538,1,0,0:0:0:0:
320,192,76538,1,0,0:0:0:0:
320,192,76642,1,0,0:0:0:0:
448,192,76642,1,0,0:0:0:0:
448,192,76746,1,0,0:0:0:0:
192,192,76746,1,0,0:0:0:0:
320,192,76850,1,0,0:0:0:0:
64,192,76850,1,0,0:0:0:0:
192,192,76955,1,0,0:0:0:0:
64,192,76955,1,0,0:0:0:0:
320,192,77059,1,0,0:0:0:0:
448,192,77059,1,0,0:0:0:0:
64,192,77163,1,0,0:0:0:0:
192,192,77163,1,0,0:0:0:0:
192,192,77267,1,0,0:0:0:0:
320,192,77267,1,0,0:0:0:0:
320,192,77371,128,0,78413:0:0:0:0:
448,192,77371,1,0,0:0:0:0:
192,192,77580,1,0,0:0:0:0:
64,192,77580,1,0,0:0:0:0:
64,192,77788,1,0,0:0:0:0:
192,192,77788,1,0,0:0:0:0:
192,192,77996,1,0,0:0:0:0:
448,192,77996,1,0,0:0:0:0:
64,192,78205,1,0,0:0:0:0:
448,192,78413,1,0,0:0:0:0:
192,192,78413,1,0,0:0:0:0:
64,192,78517,1,0,0:0:0:0:
320,192,78517,1,0,0:0:0:0:
192,192,78621,1,0,0:0:0:0:
64,192,78621,1,0,0:0:0:0:
320,192,78725,1,0,0:0:0:0:
448,192,78725,1,0,0:0:0:0:
320,192,78830,1,0,0:0:0:0:
192,192,78830,1,0,0:0:0:0:
192,192,78934,1,0,0:0:0:0:
64,192,78934,1,0,0:0:0:0:
448,192,79038,128,0,80080:0:0:0:0:
320,192,79038,1,0,0:0:0:0:
192,192,79246,1,0,0:0:0:0:
64,192,79246,1,0,0:0:0:0:
64,192,79455,1,0,0:0:0:0:
192,192,79455,1,0,0:0:0:0:
64,192,79663,1,0,0:0:0:0:
320,192,79663,1,0,0:0:0:0:
192,192,79871,1,0,0:0:0:0:
64,192,80080,1,0,0:0:0:0:
320,192,80080,1,0,0:0:0:0:
192,192,80184,1,0,0:0:0:0:
448,192,80184,1,0,0:0:0:0:
320,192,80288,1,0,0:0:0:0:
64,192,80288,1,0,0:0:0:0:
192,192,80392,1,0,0:0:0:0:
320,192,80392,1,0,0:0:0:0:
448,192,80496,1,0,0:0:0:0:
64,192,80496,1,0,0:0:0:0:
192,192,80600,1,0,0:0:0:0:
320,192,80600,1,0,0:0:0:0:
64,192,80705,128,0,81330:0:0:0:0:
448,192,80705,1,0,0:0:0:0:
320,192,80913,1,0,0:0:0:0:
192,192,80913,1,0,0:0:0:0:
320,192,81121,1,0,0:0:0:0:
192,192,81121,1,0,0:0:0:0:
448,192,81330,128,0,81746:0:0:0:0:
192,192,81330,1,0,0:0:0:0:
320,192,81538,1,0,0:0:0:0:
320,192,81746,1,0,0:0:0:0:
64,192,81746,1,0,0:0:0:0:
192,192,81850,1,0,0:0:0:0:
64,192,81850,1,0,0:0:0:0:
320,192,81955,1,0,0:0:0:0:
448,192,81955,1,0,0:0:0:0:
192,192,82059,1,0,0:0:0:0:
448,192,82059,1,0,0:0:0:0:
64,192,82163,1,0,0:0:0:0:
192,192,82163,1,0,0:0:0:0:
448,192,82267,1,0,0:0:0:0:
320,192,82267,1,0,0:0:0:0:
448,192,82371,1,0,0:0:0:0:
64,192,82371,1,0,0:0:0:0:
192,192,82475,1,0,0:0:0:0:
320,192,82475,1,0,0:0:0:0:
448,192,82580,1,0,0:0:0:0:
64,192,82580,1,0,0:0:0:0:
192,192,82684,1,0,0:0:0:0:
448,192,82684,1,0,0:0:0:0:
320,192,82788,1,0,0:0:0:0:
64,192,82788,1,0,0:0:0:0:
192,192,82892,1,0,0:0:0:0:
64,192,82892,1,0,0:0:0:0:
192,192,82996,1,0,0:0:0:0:
320,192,82996,128,0,83413:0:0:0:0:
64,192,83205,1,0,0:0:0:0:
448,192,83205,1,0,0:0:0:0:
192,192,83413,1,0,0:0:0:0:
64,192,83413,1,0,0:0:0:0:
448,192,83413,1,0,0:0:0:0:
320,192,83517,1,0,0:0:0:0:
192,192,83621,1,0,0:0:0:0:
448,192,83621,1,0,0:0:0:0:
64,192,83725,1,0,0:0:0:0:
320,192,83830,1,0,0:0:0:0:
448,192,83830,1,0,0:0:0:0:
192,192,83934,1,0,0:0:0:0:
320,192,84038,1,0,0:0:0:0:
64,192,84038,1,0,0:0:0:0:
448,192,84142,1,0,0:0:0:0:
64,192,84246,1,0,0:0:0:0:
192,192,84246,1,0,0:0:0:0:
320,192,84350,1,0,0:0:0:0:
64,192,84455,1,0,0:0:0:0:
448,192,84455,1,0,0:0:0:0:
192,192,84559,1,0,0:0:0:0:
320,192,84663,1,0,0:0:0:0:
448,192,84663,1,0,0:0:0:0:
64,192,84767,1,0,0:0:0:0:
320,192,84871,1,0,0:0:0:0:
192,192,84871,1,0,0:0:0:0:
448,192,84975,1,0,0:0:0:0:
192,192,85080,1,0,0:0:0:0:
64,192,85080,1,0,0:0:0:0:
320,192,85184,1,0,0:0:0:0:
64,192,85288,1,0,0:0:0:0:
448,192,85288,1,0,0:0:0:0:
192,192,85392,1,0,0:0:0:0:
320,192,85496,1,0,0:0:0:0:
64,192,85496,1,0,0:0:0:0:
448,192,85600,1,0,0:0:0:0:
320,192,85705,1,0,0:0:0:0:
64,192,85705,1,0,0:0:0:0:
192,192,85809,1,0,0:0:0:0:
64,192,85913,1,0,0:0:0:0:
448,192,85913,1,0,0:0:0:0:
320,192,86017,1,0,0:0:0:0:
192,192,86121,1,0,0:0:0:0:
448,192,86121,1,0,0:0:0:0:
64,192,86225,1,0,0:0:0:0:
192,192,86330,1,0,0:0:0:0:
320,192,86330,1,0,0:0:0:0:
448,192,86434,1,0,0:0:0:0:
64,192,86538,1,0,0:0:0:0:
192,192,86538,1,0,0:0:0:0:
320,192,86642,1,0,0:0:0:0:
448,192,86642,1,0,0:0:0:0:
64,192,86746,1,0,0:0:0:0:
192,192,86746,1,0,0:0:0:0:
448,192,86746,1,0,0:0:0:0:
320,192,86850,1,0,0:0:0:0:
192,192,86955,1,0,0:0:0:0:
64,192,87059,1,0,0:0:0:0:
320,192,87059,1,0,0:0:0:0:
192,192,87163,1,0,0:0:0:0:
448,192,87163,1,0,0:0:0:0:
320,192,87267,1,0,0:0:0:0:
64,192,87267,1,0,0:0:0:0:
192,192,87371,1,0,0:0:0:0:
448,192,87371,1,0,0:0:0:0:
64,192,87475,1,0,0:0:0:0:
320,192,87475,1,0,0:0:0:0:
192,192,87580,1,0,0:0:0:0:
448,192,87580,1,0,0:0:0:0:
64,192,87684,1,0,0:0:0:0:
320,192,87788,1,0,0:0:0:0:
192,192,87788,1,0,0:0:0:0:
448,192,87892,1,0,0:0:0:0:
64,192,87892,1,0,0:0:0:0:
192,192,87996,1,0,0:0:0:0:
320,192,87996,1,0,0:0:0:0:
448,192,88100,1,0,0:0:0:0:
64,192,88100,1,0,0:0:0:0:
192,192,88205,1,0,0:0:0:0:
320,192,88205,1,0,0:0:0:0:
448,192,88309,1,0,0:0:0:0:
64,192,88309,1,0,0:0:0:0:
192,192,88413,1,0,0:0:0:0:
320,192,88413,1,0,0:0:0:0:
448,192,88517,1,0,0:0:0:0:
64,192,88621,1,0,0:0:0:0:
192,192,88621,1,0,0:0:0:0:
448,192,88725,1,0,0:0:0:0:
320,192,88725,1,0,0:0:0:0:
64,192,88830,1,0,0:0:0:0:
192,192,88830,1,0,0:0:0:0:
320,192,88934,1,0,0:0:0:0:
448,192,88934,1,0,0:0:0:0:
192,192,89038,1,0,0:0:0:0:
64,192,89038,1,0,0:0:0:0:
320,192,89142,1,0,0:0:0:0:
448,192,89142,1,0,0:0:0:0:
192,192,89246,1,0,0:0:0:0:
64,192,89246,1,0,0:0:0:0:
320,192,89350,1,0,0:0:0:0:
448,192,89455,1,0,0:0:0:0:
192,192,89455,1,0,0:0:0:0:
64,192,89559,1,0,0:0:0:0:
320,192,89559,1,0,0:0:0:0:
448,192,89663,1,0,0:0:0:0:
192,192,89663,1,0,0:0:0:0:
320,192,89767,1,0,0:0:0:0:
64,192,89767,1,0,0:0:0:0:
448,192,89871,1,0,0:0:0:0:
192,192,89871,1,0,0:0:0:0:
64,192,89975,1,0,0:0:0:0:
448,192,89975,1,0,0:0:0:0:
192,192,90080,1,0,0:0:0:0:
64,192,90080,1,0,0:0:0:0:
320,192,90080,1,0,0:0:0:0:
192,192,90184,1,0,0:0:0:0:
64,192,90184,1,0,0:0:0:0:
448,192,90288,1,0,0:0:0:0:
320,192,90392,1,0,0:0:0:0:
192,192,90392,1,0,0:0:0:0:
192,192,90496,1,0,0:0:0:0:
320,192,90496,1,0,0:0:0:0:
64,192,90600,1,0,0:0:0:0:
320,192,90705,1,0,0:0:0:0:
448,192,90705,1,0,0:0:0:0:
320,192,90809,1,0,0:0:0:0:
448,192,90809,1,0,0:0:0:0:
192,192,90913,1,0,0:0:0:0:
64,192,90913,1,0,0:0:0:0:
192,192,91017,1,0,0:0:0:0:
64,192,91017,1,0,0:0:0:0:
448,192,91121,1,0,0:0:0:0:
64,192,91225,1,0,0:0:0:0:
320,192,91225,1,0,0:0:0:0:
320,192,91330,1,0,0:0:0:0:
64,192,91330,1,0,0:0:0:0:
448,192,91434,1,0,0:0:0:0:
192,192,91538,1,0,0:0:0:0:
320,192,91538,1,0,0:0:0:0:
192,192,91642,1,0,0:0:0:0:
320,192,91642,1,0,0:0:0:0:
64,192,91746,1,0,0:0:0:0:
448,192,91746,1,0,0:0:0:0:
192,192,91746,1,0,0:0:0:0:
64,192,91850,1,0,0:0:0:0:
448,192,91850,1,0,0:0:0:0:
320,192,91955,1,0,0:0:0:0:
192,192,92059,1,0,0:0:0:0:
64,192,92059,1,0,0:0:0:0:
192,192,92163,1,0,0:0:0:0:
64,192,92163,1,0,0:0:0:0:
320,192,92267,1,0,0:0:0:0:
448,192,92371,1,0,0:0:0:0:
192,192,92371,1,0,0:0:0:0:
448,192,92475,1,0,0:0:0:0:
192,192,92475,1,0,0:0:0:0:
64,192,92580,1,0,0:0:0:0:
320,192,92580,1,0,0:0:0:0:
64,192,92684,1,0,0:0:0:0:
320,192,92684,1,0,0:0:0:0:
192,192,92788,1,0,0:0:0:0:
448,192,92892,1,0,0:0:0:0:
320,192,92892,1,0,0:0:0:0:
320,192,92996,1,0,0:0:0:0:
448,192,92996,1,0,0:0:0:0:
192,192,93100,1,0,0:0:0:0:
320,192,93205,1,0,0:0:0:0:
64,192,93205,1,0,0:0:0:0:
320,192,93309,1,0,0:0:0:0:
64,192,93309,1,0,0:0:0:0:
192,192,93413,1,0,0:0:0:0:
64,192,93413,1,0,0:0:0:0:
448,192,93413,1,0,0:0:0:0:
320,192,93517,1,0,0:0:0:0:
192,192,93517,1,0,0:0:0:0:
320,192,93621,1,0,0:0:0:0:
448,192,93621,1,0,0:0:0:0:
64,192,93725,1,0,0:0:0:0:
192,192,93725,1,0,0:0:0:0:
320,192,93830,1,0,0:0:0:0:
192,192,93830,1,0,0:0:0:0:
64,192,93830,1,0,0:0:0:0:
448,192,93934,1,0,0:0:0:0:
320,192,93934,1,0,0:0:0:0:
192,192,94038,1,0,0:0:0:0:
64,192,94038,1,0,0:0:0:0:
192,192,94142,1,0,0:0:0:0:
320,192,94142,1,0,0:0:0:0:
448,192,94246,1,0,0:0:0:0:
320,192,94246,1,0,0:0:0:0:
64,192,94246,1,0,0:0:0:0:
192,192,94350,1,0,0:0:0:0:
320,192,94350,1,0,0:0:0:0:
64,192,94455,1,0,0:0:0:0:
448,192,94455,1,0,0:0:0:0:
192,192,94559,1,0,0:0:0:0:
320,192,94559,1,0,0:0:0:0:
448,192,94663,1,0,0:0:0:0:
64,192,94663,1,0,0:0:0:0:
192,192,94663,1,0,0:0:0:0:
320,192,94767,1,0,0:0:0:0:
448,192,94767,1,0,0:0:0:0:
192,192,94871,1,0,0:0:0:0:
64,192,94871,1,0,0:0:0:0:
320,192,94975,1,0,0:0:0:0:
192,192,94975,1,0,0:0:0:0:
320,192,95080,1,0,0:0:0:0:
448,192,95080,1,0,0:0:0:0:
64,192,95080,128,0,95392:0:0:0:0:
192,192,95080,128,0,95392:0:0:0:0:
320,192,95184,1,0,0:0:0:0:
448,192,95184,1,0,0:0:0:0:
448,192,95288,1,0,0:0:0:0:
320,192,95288,1,0,0:0:0:0:
320,192,95392,1,0,0:0:0:0:
448,192,95392,1,0,0:0:0:0:
192,192,95496,128,0,95809:0:0:0:0:
64,192,95496,128,0,95809:0:0:0:0:
448,192,95496,1,0,0:0:0:0:
320,192,95496,1,0,0:0:0:0:
320,192,95600,1,0,0:0:0:0:
448,192,95600,1,0,0:0:0:0:
448,192,95705,1,0,0:0:0:0:
320,192,95705,1,0,0:0:0:0:
320,192,95809,1,0,0:0:0:0:
448,192,95809,1,0,0:0:0:0:
192,192,95913,128,0,96225:0:0:0:0:
64,192,95913,128,0,96225:0:0:0:0:
448,192,95913,1,0,0:0:0:0:
320,192,95913,1,0,0:0:0:0:
320,192,96017,1,0,0:0:0:0:
448,192,96017,1,0,0:0:0:0:
448,192,96121,1,0,0:0:0:0:
320,192,96121,1,0,0:0:0:0:
320,192,96225,1,0,0:0:0:0:
448,192,96225,1,0,0:0:0:0:
448,192,96330,1,0,0:0:0:0:
320,192,96330,1,0,0:0:0:0:
64,192,96330,1,0,0:0:0:0:
192,192,96330,1,0,0:0:0:0:
64,192,96746,1,0,0:0:0:0:
192,192,96746,1,0,0:0:0:0:
448,192,96746,1,0,0:0:0:0:
320,192,96746,1,0,0:0:0:0:
192,192,96850,1,0,0:0:0:0:
64,192,96850,1,0,0:0:0:0:
192,192,96955,1,0,0:0:0:0:
320,192,96955,1,0,0:0:0:0:
448,192,97059,1,0,0:0:0:0:
320,192,97059,1,0,0:0:0:0:
192,192,97163,1,0,0:0:0:0:
64,192,97163,1,0,0:0:0:0:
448,192,97163,1,0,0:0:0:0:
192,192,97267,1,0,0:0:0:0:
320,192,97267,1,0,0:0:0:0:
448,192,97371,1,0,0:0:0:0:
320,192,97371,128,0,98413:0:0:0:0:
64,192,97580,1,0,0:0:0:0:
192,192,97580,1,0,0:0:0:0:
448,192,97788,1,0,0:0:0:0:
64,192,97996,1,0,0:0:0:0:
192,192,97996,1,0,0:0:0:0:
448,192,97996,1,0,0:0:0:0:
64,192,98205,1,0,0:0:0:0:
448,192,98413,1,0,0:0:0:0:
192,192,98413,1,0,0:0:0:0:
320,192,98517,1,0,0:0:0:0:
64,192,98517,1,0,0:0:0:0:
192,192,98621,1,0,0:0:0:0:
64,192,98621,1,0,0:0:0:0:
192,192,98725,1,0,0:0:0:0:
320,192,98725,1,0,0:0:0:0:
320,192,98830,1,0,0:0:0:0:
448,192,98830,1,0,0:0:0:0:
64,192,98830,1,0,0:0:0:0:
320,192,98934,1,0,0:0:0:0:
192,192,98934,1,0,0:0:0:0:
448,192,99038,128,0,100080:0:0:0:0:
64,192,99038,1,0,0:0:0:0:
320,192,99246,1,0,0:0:0:0:
192,192,99246,1,0,0:0:0:0:
64,192,99455,1,0,0:0:0:0:
64,192,99663,1,0,0:0:0:0:
320,192,99663,1,0,0:0:0:0:
192,192,99663,1,0,0:0:0:0:
320,192,99871,1,0,0:0:0:0:
192,192,100080,1,0,0:0:0:0:
64,192,100080,1,0,0:0:0:0:
320,192,100184,1,0,0:0:0:0:
448,192,100184,1,0,0:0:0:0:
320,192,100288,1,0,0:0:0:0:
192,192,100288,1,0,0:0:0:0:
64,192,100392,1,0,0:0:0:0:
448,192,100392,1,0,0:0:0:0:
192,192,100496,1,0,0:0:0:0:
320,192,100496,1,0,0:0:0:0:
64,192,100496,1,0,0:0:0:0:
320,192,100600,1,0,0:0:0:0:
448,192,100600,1,0,0:0:0:0:
64,192,100705,128,0,101746:0:0:0:0:
192,192,100705,1,0,0:0:0:0:
320,192,100913,1,0,0:0:0:0:
448,192,100913,1,0,0:0:0:0:
192,192,101121,1,0,0:0:0:0:
320,192,101330,1,0,0:0:0:0:
448,192,101330,1,0,0:0:0:0:
192,192,101330,1,0,0:0:0:0:
448,192,101538,1,0,0:0:0:0:
192,192,101746,1,0,0:0:0:0:
320,192,101746,1,0,0:0:0:0:
448,192,101850,1,0,0:0:0:0:
320,192,101850,1,0,0:0:0:0:
192,192,101955,1,0,0:0:0:0:
64,192,101955,1,0,0:0:0:0:
320,192,102059,1,0,0:0:0:0:
448,192,102059,1,0,0:0:0:0:
448,192,102163,1,0,0:0:0:0:
64,192,102163,1,0,0:0:0:0:
192,192,102163,1,0,0:0:0:0:
320,192,102267,1,0,0:0:0:0:
64,192,102267,1,0,0:0:0:0:
192,192,102371,128,0,103413:0:0:0:0:
448,192,102371,1,0,0:0:0:0:
320,192,102580,1,0,0:0:0:0:
448,192,102580,1,0,0:0:0:0:
64,192,102788,1,0,0:0:0:0:
320,192,102996,1,0,0:0:0:0:
448,192,102996,1,0,0:0:0:0:
64,192,102996,1,0,0:0:0:0:
320,192,103205,1,0,0:0:0:0:
448,192,103309,1,0,0:0:0:0:
320,192,103309,1,0,0:0:0:0:
64,192,103413,1,0,0:0:0:0:
448,192,103413,1,0,0:0:0:0:
192,192,103517,1,0,0:0:0:0:
320,192,103517,1,0,0:0:0:0:
448,192,103621,1,0,0:0:0:0:
64,192,103621,1,0,0:0:0:0:
192,192,103725,1,0,0:0:0:0:
320,192,103725,1,0,0:0:0:0:
448,192,103830,1,0,0:0:0:0:
192,192,103830,1,0,0:0:0:0:
64,192,103830,1,0,0:0:0:0:
64,192,103934,1,0,0:0:0:0:
320,192,103934,1,0,0:0:0:0:
448,192,104038,1,0,0:0:0:0:
192,192,104038,128,0,105080:0:0:0:0:
320,192,104246,1,0,0:0:0:0:
64,192,104246,1,0,0:0:0:0:
448,192,104455,1,0,0:0:0:0:
320,192,104663,1,0,0:0:0:0:
448,192,104663,1,0,0:0:0:0:
64,192,104663,1,0,0:0:0:0:
64,192,104871,1,0,0:0:0:0:
320,192,105080,1,0,0:0:0:0:
448,192,105080,1,0,0:0:0:0:
192,192,105184,1,0,0:0:0:0:
64,192,105184,1,0,0:0:0:0:
320,192,105288,1,0,0:0:0:0:
192,192,105288,1,0,0:0:0:0:
320,192,105392,1,0,0:0:0:0:
448,192,105392,1,0,0:0:0:0:
192,192,105496,1,0,0:0:0:0:
64,192,105496,1,0,0:0:0:0:
448,192,105496,1,0,0:0:0:0:
64,192,105600,1,0,0:0:0:0:
320,192,105600,1,0,0:0:0:0:
192,192,105705,1,0,0:0:0:0:
448,192,105705,128,0,106746:0:0:0:0:
320,192,105913,1,0,0:0:0:0:
64,192,105913,1,0,0:0:0:0:
192,192,106121,1,0,0:0:0:0:
320,192,106330,1,0,0:0:0:0:
192,192,106330,1,0,0:0:0:0:
64,192,106330,1,0,0:0:0:0:
320,192,106538,1,0,0:0:0:0:
192,192,106746,1,0,0:0:0:0:
64,192,106746,1,0,0:0:0:0:
320,192,106850,1,0,0:0:0:0:
448,192,106850,1,0,0:0:0:0:
320,192,106955,1,0,0:0:0:0:
192,192,106955,1,0,0:0:0:0:
192,192,107059,1,0,0:0:0:0:
64,192,107059,1,0,0:0:0:0:
320,192,107163,1,0,0:0:0:0:
192,192,107163,1,0,0:0:0:0:
448,192,107163,1,0,0:0:0:0:
448,192,107267,1,0,0:0:0:0:
64,192,107267,1,0,0:0:0:0:
192,192,107371,1,0,0:0:0:0:
320,192,107371,128,0,107996:0:0:0:0:
64,192,107580,1,0,0:0:0:0:
448,192,107580,1,0,0:0:0:0:
192,192,107788,1,0,0:0:0:0:
64,192,107996,128,0,108413:0:0:0:0:
192,192,107996,1,0,0:0:0:0:
448,192,107996,1,0,0:0:0:0:
320,192,108205,1,0,0:0:0:0:
448,192,108413,1,0,0:0:0:0:
192,192,108413,1,0,0:0:0:0:
320,192,108517,1,0,0:0:0:0:
192,192,108517,1,0,0:0:0:0:
64,192,108621,1,0,0:0:0:0:
448,192,108621,1,0,0:0:0:0:
192,192,108725,1,0,0:0:0:0:
320,192,108725,1,0,0:0:0:0:
64,192,108830,1,0,0:0:0:0:
192,192,108830,1,0,0:0:0:0:
448,192,108830,1,0,0:0:0:0:
320,192,108934,1,0,0:0:0:0:
448,192,108934,1,0,0:0:0:0:
192,192,109038,1,0,0:0:0:0:
64,192,109038,1,0,0:0:0:0:
192,192,109142,1,0,0:0:0:0:
320,192,109142,1,0,0:0:0:0:
448,192,109246,1,0,0:0:0:0:
320,192,109246,1,0,0:0:0:0:
64,192,109350,1,0,0:0:0:0:
448,192,109350,1,0,0:0:0:0:
192,192,109350,1,0,0:0:0:0:
320,192,109455,1,0,0:0:0:0:
64,192,109455,1,0,0:0:0:0:
192,192,109559,1,0,0:0:0:0:
448,192,109559,1,0,0:0:0:0:
320,192,109663,1,0,0:0:0:0:
448,192,109663,1,0,0:0:0:0:
64,192,109663,128,0,110080:0:0:0:0:
192,192,109871,1,0,0:0:0:0:
448,192,109871,1,0,0:0:0:0:
192,192,109975,1,0,0:0:0:0:
320,192,109975,1,0,0:0:0:0:
320,192,110080,1,0,0:0:0:0:
448,192,110080,1,0,0:0:0:0:
192,192,110080,1,0,0:0:0:0:
64,192,110184,1,0,0:0:0:0:
448,192,110184,1,0,0:0:0:0:
320,192,110288,1,0,0:0:0:0:
192,192,110288,1,0,0:0:0:0:
192,192,110392,1,0,0:0:0:0:
448,192,110392,1,0,0:0:0:0:
64,192,110496,1,0,0:0:0:0:
320,192,110496,1,0,0:0:0:0:
448,192,110496,1,0,0:0:0:0:
320,192,110600,1,0,0:0:0:0:
192,192,110600,1,0,0:0:0:0:
448,192,110705,128,0,111746:0:0:0:0:
64,192,110705,1,0,0:0:0:0:
320,192,110809,1,0,0:0:0:0:
192,192,110913,1,0,0:0:0:0:
64,192,110913,1,0,0:0:0:0:
320,192,111121,1,0,0:0:0:0:
64,192,111225,1,0,0:0:0:0:
192,192,111330,1,0,0:0:0:0:
320,192,111330,1,0,0:0:0:0:
320,192,111434,1,0,0:0:0:0:
64,192,111538,1,0,0:0:0:0:
192,192,111642,1,0,0:0:0:0:
320,192,111746,1,0,0:0:0:0:
64,192,111746,1,0,0:0:0:0:
192,192,111850,1,0,0:0:0:0:
448,192,111850,1,0,0:0:0:0:
64,192,111955,1,0,0:0:0:0:
192,192,111955,1,0,0:0:0:0:
320,192,112059,1,0,0:0:0:0:
448,192,112059,1,0,0:0:0:0:
192,192,112163,1,0,0:0:0:0:
64,192,112163,1,0,0:0:0:0:
320,192,112163,1,0,0:0:0:0:
448,192,112267,1,0,0:0:0:0:
192,192,112267,1,0,0:0:0:0:
64,192,112371,1,0,0:0:0:0:
320,192,112371,128,0,113413:0:0:0:0:
448,192,112475,1,0,0:0:0:0:
192,192,112580,1,0,0:0:0:0:
64,192,112580,1,0,0:0:0:0:
448,192,112788,1,0,0:0:0:0:
192,192,112892,1,0,0:0:0:0:
448,192,112996,1,0,0:0:0:0:
64,192,112996,1,0,0:0:0:0:
448,192,113100,1,0,0:0:0:0:
192,192,113205,1,0,0:0:0:0:
64,192,113309,1,0,0:0:0:0:
448,192,113413,1,0,0:0:0:0:
192,192,113413,1,0,0:0:0:0:
320,192,113517,1,0,0:0:0:0:
64,192,113517,1,0,0:0:0:0:
192,192,113621,1,0,0:0:0:0:
448,192,113621,1,0,0:0:0:0:
64,192,113725,1,0,0:0:0:0:
320,192,113725,1,0,0:0:0:0:
192,192,113830,1,0,0:0:0:0:
448,192,113830,1,0,0:0:0:0:
64,192,113830,1,0,0:0:0:0:
448,192,113934,1,0,0:0:0:0:
320,192,113934,1,0,0:0:0:0:
64,192,114038,128,0,115080:0:0:0:0:
192,192,114038,1,0,0:0:0:0:
448,192,114142,1,0,0:0:0:0:
320,192,114246,1,0,0:0:0:0:
192,192,114246,1,0,0:0:0:0:
192,192,114455,1,0,0:0:0:0:
320,192,114559,1,0,0:0:0:0:
192,192,114663,1,0,0:0:0:0:
448,192,114663,1,0,0:0:0:0:
320,192,114767,1,0,0:0:0:0:
192,192,114871,1,0,0:0:0:0:
448,192,114975,1,0,0:0:0:0:
192,192,115080,1,0,0:0:0:0:
320,192,115080,1,0,0:0:0:0:
448,192,115184,1,0,0:0:0:0:
192,192,115184,1,0,0:0:0:0:
64,192,115288,1,0,0:0:0:0:
320,192,115288,1,0,0:0:0:0:
448,192,115392,1,0,0:0:0:0:
192,192,115392,1,0,0:0:0:0:
320,192,115496,1,0,0:0:0:0:
448,192,115496,1,0,0:0:0:0:
64,192,115496,1,0,0:0:0:0:
64,192,115600,1,0,0:0:0:0:
192,192,115600,1,0,0:0:0:0:
192,192,115705,128,0,116746:0:0:0:0:
448,192,115705,1,0,0:0:0:0:
320,192,115809,1,0,0:0:0:0:
64,192,115913,1,0,0:0:0:0:
448,192,115913,1,0,0:0:0:0:
320,192,116121,1,0,0:0:0:0:
64,192,116225,1,0,0:0:0:0:
448,192,116225,1,0,0:0:0:0:
320,192,116330,1,0,0:0:0:0:
448,192,116434,1,0,0:0:0:0:
64,192,116538,1,0,0:0:0:0:
448,192,116642,1,0,0:0:0:0:
320,192,116642,1,0,0:0:0:0:
64,192,116746,1,0,0:0:0:0:
448,192,116746,1,0,0:0:0:0:
192,192,116850,1,0,0:0:0:0:
320,192,116850,1,0,0:0:0:0:
320,192,116955,1,0,0:0:0:0:
64,192,116955,1,0,0:0:0:0:
448,192,117059,1,0,0:0:0:0:
192,192,117059,1,0,0:0:0:0:
64,192,117163,1,0,0:0:0:0:
320,192,117163,1,0,0:0:0:0:
448,192,117163,1,0,0:0:0:0:
192,192,117267,1,0,0:0:0:0:
64,192,117267,1,0,0:0:0:0:
320,192,117371,128,0,118413:0:0:0:0:
448,192,117371,1,0,0:0:0:0:
192,192,117475,1,0,0:0:0:0:
64,192,117580,1,0,0:0:0:0:
448,192,117580,1,0,0:0:0:0:
192,192,117788,1,0,0:0:0:0:
64,192,117892,1,0,0:0:0:0:
448,192,117996,1,0,0:0:0:0:
192,192,117996,1,0,0:0:0:0:
448,192,118100,1,0,0:0:0:0:
64,192,118205,1,0,0:0:0:0:
448,192,118309,1,0,0:0:0:0:
192,192,118413,1,0,0:0:0:0:
64,192,118413,1,0,0:0:0:0:
192,192,118517,1,0,0:0:0:0:
448,192,118517,1,0,0:0:0:0:
448,192,118621,1,0,0:0:0:0:
64,192,118621,1,0,0:0:0:0:
64,192,118725,1,0,0:0:0:0:
320,192,118725,1,0,0:0:0:0:
192,192,118830,1,0,0:0:0:0:
448,192,118830,1,0,0:0:0:0:
320,192,118934,1,0,0:0:0:0:
192,192,118934,1,0,0:0:0:0:
448,192,119038,128,0,120080:0:0:0:0:
64,192,119038,1,0,0:0:0:0:
320,192,119142,1,0,0:0:0:0:
192,192,119246,1,0,0:0:0:0:
64,192,119246,1,0,0:0:0:0:
320,192,119455,1,0,0:0:0:0:
192,192,119559,1,0,0:0:0:0:
64,192,119663,1,0,0:0:0:0:
320,192,119663,1,0,0:0:0:0:
192,192,119767,1,0,0:0:0:0:
320,192,119871,1,0,0:0:0:0:
192,192,119975,1,0,0:0:0:0:
320,192,120080,1,0,0:0:0:0:
64,192,120080,1,0,0:0:0:0:
192,192,120184,1,0,0:0:0:0:
448,192,120184,1,0,0:0:0:0:
64,192,120288,1,0,0:0:0:0:
320,192,120288,1,0,0:0:0:0:
192,192,120392,1,0,0:0:0:0:
448,192,120392,1,0,0:0:0:0:
320,192,120496,1,0,0:0:0:0:
448,192,120496,1,0,0:0:0:0:
192,192,120600,1,0,0:0:0:0:
320,192,120600,1,0,0:0:0:0:
64,192,120705,128,0,121330:0:0:0:0:
192,192,120705,1,0,0:0:0:0:
448,192,120809,1,0,0:0:0:0:
192,192,120913,1,0,0:0:0:0:
320,192,120913,1,0,0:0:0:0:
448,192,121121,1,0,0:0:0:0:
192,192,121225,1,0,0:0:0:0:
448,192,121330,128,0,121746:0:0:0:0:
320,192,121330,1,0,0:0:0:0:
192,192,121434,1,0,0:0:0:0:
64,192,121538,1,0,0:0:0:0:
320,192,121642,1,0,0:0:0:0:
192,192,121746,1,0,0:0:0:0:
64,192,121746,1,0,0:0:0:0:
64,192,121850,1,0,0:0:0:0:
448,192,121850,1,0,0:0:0:0:
64,192,121955,1,0,0:0:0:0:
320,192,121955,1,0,0:0:0:0:
64,192,122059,1,0,0:0:0:0:
192,192,122059,1,0,0:0:0:0:
64,192,122163,1,0,0:0:0:0:
320,192,122163,1,0,0:0:0:0:
64,192,122267,1,0,0:0:0:0:
448,192,122267,1,0,0:0:0:0:
64,192,122371,1,0,0:0:0:0:
192,192,122371,1,0,0:0:0:0:
64,192,122475,1,0,0:0:0:0:
448,192,122475,1,0,0:0:0:0:
64,192,122580,1,0,0:0:0:0:
320,192,122580,1,0,0:0:0:0:
64,192,122684,1,0,0:0:0:0:
448,192,122684,1,0,0:0:0:0:
64,192,122788,1,0,0:0:0:0:
192,192,122788,1,0,0:0:0:0:
64,192,122892,1,0,0:0:0:0:
448,192,122892,1,0,0:0:0:0:
64,192,122996,1,0,0:0:0:0:
320,192,122996,128,0,123413:0:0:0:0:
64,192,123100,1,0,0:0:0:0:
64,192,123205,1,0,0:0:0:0:
64,192,123309,1,0,0:0:0:0:
64,192,123413,1,0,0:0:0:0:
448,192,123413,128,0,125080:0:0:0:0:
192,192,123413,1,0,0:0:0:0:
320,192,123517,1,0,0:0:0:0:
192,192,123621,1,0,0:0:0:0:
64,192,123725,128,0,123830:0:0:0:0:
192,192,123830,1,0,0:0:0:0:
320,192,123830,128,0,123934:0:0:0:0:
64,192,123934,128,0,124038:0:0:0:0:
192,192,124038,128,0,124142:0:0:0:0:
320,192,124142,128,0,124246:0:0:0:0:
64,192,124246,1,0,0:0:0:0:
192,192,124246,1,0,0:0:0:0:
320,192,124350,1,0,0:0:0:0:
192,192,124455,1,0,0:0:0:0:
64,192,124559,128,0,124663:0:0:0:0:
192,192,124663,128,0,124767:0:0:0:0:
320,192,124663,1,0,0:0:0:0:
320,192,124767,128,0,124871:0:0:0:0:
64,192,124871,128,0,124975:0:0:0:0:
192,192,124975,128,0,125080:0:0:0:0:
320,192,125080,128,0,125496:0:0:0:0:
64,192,125080,1,0,0:0:0:0:
448,192,125184,1,0,0:0:0:0:
192,192,125288,1,0,0:0:0:0:
64,192,125392,128,0,125496:0:0:0:0:
448,192,125496,1,0,0:0:0:0:
192,192,125496,128,0,125600:0:0:0:0:
320,192,125600,128,0,125705:0:0:0:0:
192,192,125705,128,0,126746:0:0:0:0:
448,192,125705,128,0,125809:0:0:0:0:
320,192,125809,128,0,125913:0:0:0:0:
64,192,125913,1,0,0:0:0:0:
448,192,125913,1,0,0:0:0:0:
320,192,126017,1,0,0:0:0:0:
448,192,126121,1,0,0:0:0:0:
64,192,126225,128,0,126330:0:0:0:0:
448,192,126330,1,0,0:0:0:0:
320,192,126330,128,0,126434:0:0:0:0:
64,192,126434,128,0,126538:0:0:0:0:
448,192,126538,128,0,126642:0:0:0:0:
320,192,126642,128,0,126746:0:0:0:0:
448,192,126746,128,0,127059:0:0:0:0:
64,192,126746,1,0,0:0:0:0:
320,192,126850,1,0,0:0:0:0:
192,192,126955,1,0,0:0:0:0:
320,192,127059,128,0,127163:0:0:0:0:
64,192,127059,128,0,127163:0:0:0:0:
192,192,127163,128,0,127267:0:0:0:0:
448,192,127163,1,0,0:0:0:0:
320,192,127267,128,0,127371:0:0:0:0:
64,192,127371,128,0,127996:0:0:0:0:
192,192,127371,128,0,127475:0:0:0:0:
448,192,127475,128,0,127580:0:0:0:0:
192,192,127580,1,0,0:0:0:0:
320,192,127580,1,0,0:0:0:0:
448,192,127684,1,0,0:0:0:0:
320,192,127788,1,0,0:0:0:0:
192,192,127892,128,0,127996:0:0:0:0:
448,192,127996,128,0,128413:0:0:0:0:
320,192,127996,128,0,128100:0:0:0:0:
192,192,128100,128,0,128205:0:0:0:0:
64,192,128205,128,0,128309:0:0:0:0:
320,192,128309,128,0,128413:0:0:0:0:
192,192,128413,128,0,128725:0:0:0:0:
64,192,128413,1,0,0:0:0:0:
320,192,128517,1,0,0:0:0:0:
64,192,128621,1,0,0:0:0:0:
448,192,128725,128,0,128830:0:0:0:0:
320,192,128725,128,0,128830:0:0:0:0:
64,192,128830,1,0,0:0:0:0:
192,192,128830,128,0,128934:0:0:0:0:
320,192,128934,128,0,129038:0:0:0:0:
64,192,129038,128,0,129455:0:0:0:0:
448,192,129038,128,0,129142:0:0:0:0:
192,192,129142,128,0,129246:0:0:0:0:
448,192,129246,1,0,0:0:0:0:
320,192,129246,1,0,0:0:0:0:
320,192,129350,1,0,0:0:0:0:
192,192,129455,128,0,129663:0:0:0:0:
448,192,129455,1,0,0:0:0:0:
320,192,129559,1,0,0:0:0:0:
448,192,129663,1,0,0:0:0:0:
64,192,129663,128,0,129767:0:0:0:0:
192,192,129767,128,0,129871:0:0:0:0:
320,192,129871,128,0,129975:0:0:0:0:
64,192,129975,1,0,0:0:0:0:
448,192,129975,128,0,130080:0:0:0:0:
64,192,130080,1,0,0:0:0:0:
192,192,130080,1,0,0:0:0:0:
320,192,130080,1,0,0:0:0:0:
448,192,130184,1,0,0:0:0:0:
320,192,130288,1,0,0:0:0:0:
64,192,130288,1,0,0:0:0:0:
192,192,130392,1,0,0:0:0:0:
448,192,130496,1,0,0:0:0:0:
64,192,130496,1,0,0:0:0:0:
320,192,130496,1,0,0:0:0:0:
192,192,130600,1,0,0:0:0:0:
320,192,130705,1,0,0:0:0:0:
64,192,130705,1,0,0:0:0:0:
448,192,130809,1,0,0:0:0:0:
192,192,130913,1,0,0:0:0:0:
64,192,130913,1,0,0:0:0:0:
320,192,131017,1,0,0:0:0:0:
64,192,131121,1,0,0:0:0:0:
448,192,131121,1,0,0:0:0:0:
320,192,131225,1,0,0:0:0:0:
448,192,131330,1,0,0:0:0:0:
64,192,131330,1,0,0:0:0:0:
192,192,131330,1,0,0:0:0:0:
320,192,131434,1,0,0:0:0:0:
192,192,131538,1,0,0:0:0:0:
64,192,131538,1,0,0:0:0:0:
448,192,131642,1,0,0:0:0:0:
320,192,131746,1,0,0:0:0:0:
448,192,131746,1,0,0:0:0:0:
192,192,131746,1,0,0:0:0:0:
64,192,131746,1,0,0:0:0:0:
64,192,131850,1,0,0:0:0:0:
448,192,131955,1,0,0:0:0:0:
192,192,131955,1,0,0:0:0:0:
320,192,132059,1,0,0:0:0:0:
192,192,132163,1,0,0:0:0:0:
448,192,132163,1,0,0:0:0:0:
64,192,132163,1,0,0:0:0:0:
320,192,132267,1,0,0:0:0:0:
64,192,132371,1,0,0:0:0:0:
448,192,132371,1,0,0:0:0:0:
192,192,132475,1,0,0:0:0:0:
448,192,132580,1,0,0:0:0:0:
320,192,132580,1,0,0:0:0:0:
192,192,132684,1,0,0:0:0:0:
448,192,132788,1,0,0:0:0:0:
64,192,132788,1,0,0:0:0:0:
192,192,132892,1,0,0:0:0:0:
320,192,132996,1,0,0:0:0:0:
448,192,132996,1,0,0:0:0:0:
64,192,132996,1,0,0:0:0:0:
192,192,133100,1,0,0:0:0:0:
448,192,133205,1,0,0:0:0:0:
64,192,133205,1,0,0:0:0:0:
320,192,133309,1,0,0:0:0:0:
64,192,133413,1,0,0:0:0:0:
192,192,133413,1,0,0:0:0:0:
320,192,133413,1,0,0:0:0:0:
448,192,133413,1,0,0:0:0:0:
192,192,133517,1,0,0:0:0:0:
64,192,133517,1,0,0:0:0:0:
192,192,133621,1,0,0:0:0:0:
64,192,133621,1,0,0:0:0:0:
64,192,133725,1,0,0:0:0:0:
192,192,133725,1,0,0:0:0:0:
320,192,133830,1,0,0:0:0:0:
448,192,133830,1,0,0:0:0:0:
64,192,133830,1,0,0:0:0:0:
192,192,133830,1,0,0:0:0:0:
448,192,133934,1,0,0:0:0:0:
320,192,133934,1,0,0:0:0:0:
320,192,134038,1,0,0:0:0:0:
448,192,134038,1,0,0:0:0:0:
448,192,134142,1,0,0:0:0:0:
320,192,134142,1,0,0:0:0:0:
192,192,134246,1,0,0:0:0:0:
64,192,134246,1,0,0:0:0:0:
320,192,134246,1,0,0:0:0:0:
448,192,134246,1,0,0:0:0:0:
192,192,134350,1,0,0:0:0:0:
64,192,134350,1,0,0:0:0:0:
320,192,134455,1,0,0:0:0:0:
192,192,134455,1,0,0:0:0:0:
320,192,134559,1,0,0:0:0:0:
448,192,134559,1,0,0:0:0:0:
192,192,134663,1,0,0:0:0:0:
64,192,134663,1,0,0:0:0:0:
320,192,134663,1,0,0:0:0:0:
448,192,134663,1,0,0:0:0:0:
192,192,134715,1,0,0:0:0:0:
64,192,134715,1,0,0:0:0:0:
320,192,134767,1,0,0:0:0:0:
448,192,134767,1,0,0:0:0:0:
192,192,134819,1,0,0:0:0:0:
64,192,134819,1,0,0:0:0:0:
320,192,134871,1,0,0:0:0:0:
448,192,134871,1,0,0:0:0:0:
192,192,134975,1,0,0:0:0:0:
64,192,134975,1,0,0:0:0:0:
192,192,135080,1,0,0:0:0:0:
64,192,135080,1,0,0:0:0:0:
320,192,135080,1,0,0:0:0:0:
448,192,135080,1,0,0:0:0:0:
448,192,135184,1,0,0:0:0:0:
320,192,135184,1,0,0:0:0:0:
448,192,135288,1,0,0:0:0:0:
192,192,135288,1,0,0:0:0:0:
448,192,135392,1,0,0:0:0:0:
64,192,135392,1,0,0:0:0:0:
448,192,135496,1,0,0:0:0:0:
192,192,135496,1,0,0:0:0:0:
320,192,135496,1,0,0:0:0:0:
448,192,135600,1,0,0:0:0:0:
64,192,135600,1,0,0:0:0:0:
448,192,135705,1,0,0:0:0:0:
192,192,135705,1,0,0:0:0:0:
448,192,135809,1,0,0:0:0:0:
320,192,135809,1,0,0:0:0:0:
64,192,135913,1,0,0:0:0:0:
192,192,135913,1,0,0:0:0:0:
448,192,135913,1,0,0:0:0:0:
64,192,136017,1,0,0:0:0:0:
320,192,136017,1,0,0:0:0:0:
64,192,136121,1,0,0:0:0:0:
448,192,136121,1,0,0:0:0:0:
64,192,136225,1,0,0:0:0:0:
192,192,136225,1,0,0:0:0:0:
64,192,136330,1,0,0:0:0:0:
320,192,136330,1,0,0:0:0:0:
448,192,136330,1,0,0:0:0:0:
64,192,136434,1,0,0:0:0:0:
192,192,136434,1,0,0:0:0:0:
64,192,136538,1,0,0:0:0:0:
448,192,136538,1,0,0:0:0:0:
64,192,136642,1,0,0:0:0:0:
320,192,136642,1,0,0:0:0:0:
64,192,136746,1,0,0:0:0:0:
192,192,136746,1,0,0:0:0:0:
448,192,136746,1,0,0:0:0:0:
