osu file format v14

[General]
AudioFilename: audio.mp3
AudioLeadIn: 0
PreviewTime: 19849
Countdown: 0
SampleSet: Soft
StackLeniency: 0.7
Mode: 3
LetterboxInBreaks: 0
SpecialStyle: 1
WidescreenStoryboard: 0

[Editor]
DistanceSpacing: 1.8
BeatDivisor: 4
GridSize: 8
TimelineZoom: 1.4

[Metadata]
Title:Qualia
TitleUnicode:Qualia
Artist:Junk
ArtistUnicode:Junk
Creator:CrazyOnePro
Version:Lv.12???
Source:BMS
Tags:
BeatmapID:1802314
BeatmapSetID:861524

[Difficulty]
HPDrainRate:8
CircleSize:8
OverallDifficulty:8
ApproachRate:5
SliderMultiplier:1.4
SliderTickRate:1

[Events]
//Background and Video events
0,0,"BG.jpg",0,0
//Break Periods
//Storyboard Layer 0 (Background)
//Storyboard Layer 1 (Fail)
//Storyboard Layer 2 (Pass)
//Storyboard Layer 3 (Foreground)
//Storyboard Sound Samples

[TimingPoints]
0,451.127819548872,4,2,0,5,1,0

[HitObjects]
32,192,2030,5,0,0:0:0:0:
352,192,3609,1,0,0:0:0:0:
96,192,3609,1,0,0:0:0:0:
480,192,3609,1,0,0:0:0:0:
32,192,3609,1,0,0:0:0:0:
160,192,3834,1,0,0:0:0:0:
416,192,3834,1,0,0:0:0:0:
352,192,4060,1,0,0:0:0:0:
224,192,4060,1,0,0:0:0:0:
288,192,4285,1,0,0:0:0:0:
96,192,4285,1,0,0:0:0:0:
480,192,4511,1,0,0:0:0:0:
224,192,4511,1,0,0:0:0:0:
416,192,4736,1,0,0:0:0:0:
96,192,4736,1,0,0:0:0:0:
160,192,4849,1,0,0:0:0:0:
352,192,4849,1,0,0:0:0:0:
480,192,4962,1,0,0:0:0:0:
224,192,4962,1,0,0:0:0:0:
96,192,5187,1,0,0:0:0:0:
416,192,5187,1,0,0:0:0:0:
160,192,5413,1,0,0:0:0:0:
480,192,5413,1,0,0:0:0:0:
416,192,5526,1,0,0:0:0:0:
352,192,5639,1,0,0:0:0:0:
96,192,5639,1,0,0:0:0:0:
288,192,5751,1,0,0:0:0:0:
160,192,5864,1,0,0:0:0:0:
480,192,5864,1,0,0:0:0:0:
416,192,6090,1,0,0:0:0:0:
224,192,6090,1,0,0:0:0:0:
352,192,6203,1,0,0:0:0:0:
288,192,6315,1,0,0:0:0:0:
480,192,6315,1,0,0:0:0:0:
96,192,6428,1,0,0:0:0:0:
416,192,6428,1,0,0:0:0:0:
160,192,6541,1,0,0:0:0:0:
352,192,6541,1,0,0:0:0:0:
224,192,6654,1,0,0:0:0:0:
480,192,6654,1,0,0:0:0:0:
96,192,6766,1,0,0:0:0:0:
288,192,6766,1,0,0:0:0:0:
160,192,6879,1,0,0:0:0:0:
352,192,6879,1,0,0:0:0:0:
224,192,6992,1,0,0:0:0:0:
416,192,6992,1,0,0:0:0:0:
480,192,7105,1,0,0:0:0:0:
288,192,7105,1,0,0:0:0:0:
160,192,7218,1,0,0:0:0:0:
416,192,7218,1,0,0:0:0:0:
32,192,7218,1,0,0:0:0:0:
352,192,7330,1,0,0:0:0:0:
96,192,7330,1,0,0:0:0:0:
288,192,7443,1,0,0:0:0:0:
480,192,7443,1,0,0:0:0:0:
224,192,7556,1,0,0:0:0:0:
416,192,7556,1,0,0:0:0:0:
160,192,7669,1,0,0:0:0:0:
352,192,7669,1,0,0:0:0:0:
224,192,7894,1,0,0:0:0:0:
480,192,7894,1,0,0:0:0:0:
160,192,8007,1,0,0:0:0:0:
352,192,8007,1,0,0:0:0:0:
416,192,8120,1,0,0:0:0:0:
96,192,8120,1,0,0:0:0:0:
224,192,8233,1,0,0:0:0:0:
480,192,8233,1,0,0:0:0:0:
288,192,8345,1,0,0:0:0:0:
96,192,8345,1,0,0:0:0:0:
352,192,8458,1,0,0:0:0:0:
160,192,8458,1,0,0:0:0:0:
416,192,8571,1,0,0:0:0:0:
224,192,8571,1,0,0:0:0:0:
480,192,8684,1,0,0:0:0:0:
160,192,8684,1,0,0:0:0:0:
96,192,8796,1,0,0:0:0:0:
352,192,8796,1,0,0:0:0:0:
288,192,8909,1,0,0:0:0:0:
480,192,8909,1,0,0:0:0:0:
224,192,9022,1,0,0:0:0:0:
416,192,9022,1,0,0:0:0:0:
32,192,9022,1,0,0:0:0:0:
96,192,9135,1,0,0:0:0:0:
288,192,9248,1,0,0:0:0:0:
416,192,9360,1,0,0:0:0:0:
32,192,9473,1,0,0:0:0:0:
160,192,9473,1,0,0:0:0:0:
480,192,9473,1,0,0:0:0:0:
352,192,9586,1,0,0:0:0:0:
288,192,9699,1,0,0:0:0:0:
224,192,9812,1,0,0:0:0:0:
32,192,9924,1,0,0:0:0:0:
416,192,9924,1,0,0:0:0:0:
96,192,9924,1,0,0:0:0:0:
160,192,10150,1,0,0:0:0:0:
480,192,10150,1,0,0:0:0:0:
352,192,10150,1,0,0:0:0:0:
224,192,10375,1,0,0:0:0:0:
416,192,10375,1,0,0:0:0:0:
288,192,10375,1,0,0:0:0:0:
352,192,10601,1,0,0:0:0:0:
96,192,10601,1,0,0:0:0:0:
480,192,10601,1,0,0:0:0:0:
160,192,10827,1,0,0:0:0:0:
288,192,10827,1,0,0:0:0:0:
416,192,10827,1,0,0:0:0:0:
224,192,11052,1,0,0:0:0:0:
480,192,11052,1,0,0:0:0:0:
352,192,11052,1,0,0:0:0:0:
416,192,11278,1,0,0:0:0:0:
96,192,11278,1,0,0:0:0:0:
288,192,11278,1,0,0:0:0:0:
160,192,11503,1,0,0:0:0:0:
480,192,11503,1,0,0:0:0:0:
224,192,11503,1,0,0:0:0:0:
352,192,11729,1,0,0:0:0:0:
96,192,11729,1,0,0:0:0:0:
288,192,11729,1,0,0:0:0:0:
416,192,11842,1,0,0:0:0:0:
480,192,11954,1,0,0:0:0:0:
160,192,11954,1,0,0:0:0:0:
224,192,12067,1,0,0:0:0:0:
288,192,12180,1,0,0:0:0:0:
416,192,12180,1,0,0:0:0:0:
96,192,12180,1,0,0:0:0:0:
352,192,12406,1,0,0:0:0:0:
160,192,12406,1,0,0:0:0:0:
480,192,12406,1,0,0:0:0:0:
416,192,12631,1,0,0:0:0:0:
224,192,12631,1,0,0:0:0:0:
96,192,12631,1,0,0:0:0:0:
352,192,12857,1,0,0:0:0:0:
480,192,12857,1,0,0:0:0:0:
288,192,12857,1,0,0:0:0:0:
96,192,13082,1,0,0:0:0:0:
160,192,13082,1,0,0:0:0:0:
416,192,13082,1,0,0:0:0:0:
224,192,13308,1,0,0:0:0:0:
288,192,13308,1,0,0:0:0:0:
352,192,13308,1,0,0:0:0:0:
160,192,13533,1,0,0:0:0:0:
480,192,13533,1,0,0:0:0:0:
416,192,13533,1,0,0:0:0:0:
96,192,13646,1,0,0:0:0:0:
352,192,13646,1,0,0:0:0:0:
288,192,13759,1,0,0:0:0:0:
480,192,13759,1,0,0:0:0:0:
224,192,13872,1,0,0:0:0:0:
416,192,13872,1,0,0:0:0:0:
160,192,13984,1,0,0:0:0:0:
352,192,13984,1,0,0:0:0:0:
96,192,14097,1,0,0:0:0:0:
288,192,14097,1,0,0:0:0:0:
352,192,14210,1,0,0:0:0:0:
160,192,14210,1,0,0:0:0:0:
416,192,14323,1,0,0:0:0:0:
224,192,14323,1,0,0:0:0:0:
480,192,14436,1,0,0:0:0:0:
288,192,14436,1,0,0:0:0:0:
32,192,14436,1,0,0:0:0:0:
96,192,14548,1,0,0:0:0:0:
416,192,14661,1,0,0:0:0:0:
160,192,14774,1,0,0:0:0:0:
224,192,14887,1,0,0:0:0:0:
480,192,14887,1,0,0:0:0:0:
352,192,14999,1,0,0:0:0:0:
288,192,15112,1,0,0:0:0:0:
416,192,15112,1,0,0:0:0:0:
96,192,15112,1,0,0:0:0:0:
224,192,15225,1,0,0:0:0:0:
160,192,15225,1,0,0:0:0:0:
480,192,15225,1,0,0:0:0:0:
416,192,15338,1,0,0:0:0:0:
288,192,15338,1,0,0:0:0:0:
352,192,15338,1,0,0:0:0:0:
96,192,15451,1,0,0:0:0:0:
160,192,15563,1,0,0:0:0:0:
480,192,15563,1,0,0:0:0:0:
224,192,15676,1,0,0:0:0:0:
96,192,15789,1,0,0:0:0:0:
416,192,15789,1,0,0:0:0:0:
288,192,15902,1,0,0:0:0:0:
352,192,16015,1,0,0:0:0:0:
416,192,16127,1,0,0:0:0:0:
224,192,16240,1,0,0:0:0:0:
480,192,16240,1,0,0:0:0:0:
160,192,16353,1,0,0:0:0:0:
352,192,16466,1,0,0:0:0:0:
96,192,16466,1,0,0:0:0:0:
480,192,16466,1,0,0:0:0:0:
288,192,16578,1,0,0:0:0:0:
160,192,16691,1,0,0:0:0:0:
416,192,16691,1,0,0:0:0:0:
224,192,16917,1,0,0:0:0:0:
480,192,16917,1,0,0:0:0:0:
96,192,16917,1,0,0:0:0:0:
288,192,17030,1,0,0:0:0:0:
352,192,17142,1,0,0:0:0:0:
480,192,17142,1,0,0:0:0:0:
160,192,17255,1,0,0:0:0:0:
96,192,17368,1,0,0:0:0:0:
224,192,17481,1,0,0:0:0:0:
352,192,17593,1,0,0:0:0:0:
416,192,17593,1,0,0:0:0:0:
288,192,17706,1,0,0:0:0:0:
160,192,17819,1,0,0:0:0:0:
288,192,17932,1,0,0:0:0:0:
224,192,18045,1,0,0:0:0:0:
96,192,18045,1,0,0:0:0:0:
480,192,18045,1,0,0:0:0:0:
416,192,18157,1,0,0:0:0:0:
352,192,18270,1,0,0:0:0:0:
288,192,18270,1,0,0:0:0:0:
160,192,18270,1,0,0:0:0:0:
224,192,18496,1,0,0:0:0:0:
480,192,18496,1,0,0:0:0:0:
416,192,18496,1,0,0:0:0:0:
352,192,18721,1,0,0:0:0:0:
96,192,18721,1,0,0:0:0:0:
288,192,18721,1,0,0:0:0:0:
160,192,18834,1,0,0:0:0:0:
416,192,18834,1,0,0:0:0:0:
480,192,19060,1,0,0:0:0:0:
288,192,19060,1,0,0:0:0:0:
160,192,19172,1,0,0:0:0:0:
352,192,19172,1,0,0:0:0:0:
224,192,19285,1,0,0:0:0:0:
96,192,19285,1,0,0:0:0:0:
288,192,19398,1,0,0:0:0:0:
480,192,19398,1,0,0:0:0:0:
416,192,19398,1,0,0:0:0:0:
352,192,19849,1,0,0:0:0:0:
96,192,19849,1,0,0:0:0:0:
32,192,19849,1,0,0:0:0:0:
480,192,19849,1,0,0:0:0:0:
160,192,20075,1,0,0:0:0:0:
416,192,20075,1,0,0:0:0:0:
288,192,20300,1,0,0:0:0:0:
224,192,20300,1,0,0:0:0:0:
480,192,20300,1,0,0:0:0:0:
416,192,20413,1,0,0:0:0:0:
352,192,20526,1,0,0:0:0:0:
96,192,20526,1,0,0:0:0:0:
224,192,20639,1,0,0:0:0:0:
160,192,20751,1,0,0:0:0:0:
416,192,20751,1,0,0:0:0:0:
480,192,20751,1,0,0:0:0:0:
352,192,20977,1,0,0:0:0:0:
96,192,20977,1,0,0:0:0:0:
288,192,21090,1,0,0:0:0:0:
160,192,21203,1,0,0:0:0:0:
480,192,21203,1,0,0:0:0:0:
224,192,21203,1,0,0:0:0:0:
352,192,21428,1,0,0:0:0:0:
96,192,21428,1,0,0:0:0:0:
480,192,21654,1,0,0:0:0:0:
160,192,21654,1,0,0:0:0:0:
288,192,21654,1,0,0:0:0:0:
416,192,21879,1,0,0:0:0:0:
224,192,21879,1,0,0:0:0:0:
352,192,22105,1,0,0:0:0:0:
288,192,22105,1,0,0:0:0:0:
96,192,22105,1,0,0:0:0:0:
160,192,22330,1,0,0:0:0:0:
416,192,22330,1,0,0:0:0:0:
224,192,22443,1,0,0:0:0:0:
96,192,22556,1,0,0:0:0:0:
480,192,22556,1,0,0:0:0:0:
288,192,22556,1,0,0:0:0:0:
160,192,22781,1,0,0:0:0:0:
352,192,22781,1,0,0:0:0:0:
416,192,22894,1,0,0:0:0:0:
288,192,23007,1,0,0:0:0:0:
96,192,23007,1,0,0:0:0:0:
480,192,23007,1,0,0:0:0:0:
352,192,23120,1,0,0:0:0:0:
288,192,23233,1,0,0:0:0:0:
480,192,23233,1,0,0:0:0:0:
224,192,23345,1,0,0:0:0:0:
416,192,23345,1,0,0:0:0:0:
160,192,23458,1,0,0:0:0:0:
352,192,23458,1,0,0:0:0:0:
96,192,23458,1,0,0:0:0:0:
288,192,23684,1,0,0:0:0:0:
480,192,23684,1,0,0:0:0:0:
224,192,23909,1,0,0:0:0:0:
96,192,23909,1,0,0:0:0:0:
416,192,23909,1,0,0:0:0:0:
480,192,24135,1,0,0:0:0:0:
160,192,24135,1,0,0:0:0:0:
224,192,24248,1,0,0:0:0:0:
288,192,24360,1,0,0:0:0:0:
416,192,24360,1,0,0:0:0:0:
96,192,24360,1,0,0:0:0:0:
352,192,24586,1,0,0:0:0:0:
160,192,24586,1,0,0:0:0:0:
480,192,24586,1,0,0:0:0:0:
416,192,24812,1,0,0:0:0:0:
288,192,24812,1,0,0:0:0:0:
96,192,24812,1,0,0:0:0:0:
352,192,25037,1,0,0:0:0:0:
160,192,25037,1,0,0:0:0:0:
480,192,25037,1,0,0:0:0:0:
288,192,25263,1,0,0:0:0:0:
224,192,25263,1,0,0:0:0:0:
416,192,25263,1,0,0:0:0:0:
96,192,25488,1,0,0:0:0:0:
352,192,25488,1,0,0:0:0:0:
160,192,25714,1,0,0:0:0:0:
288,192,25714,1,0,0:0:0:0:
480,192,25714,1,0,0:0:0:0:
416,192,25939,1,0,0:0:0:0:
96,192,25939,1,0,0:0:0:0:
160,192,26165,1,0,0:0:0:0:
288,192,26165,1,0,0:0:0:0:
480,192,26165,1,0,0:0:0:0:
352,192,26390,1,0,0:0:0:0:
96,192,26390,1,0,0:0:0:0:
288,192,26503,1,0,0:0:0:0:
160,192,26503,1,0,0:0:0:0:
224,192,26616,1,0,0:0:0:0:
480,192,26616,1,0,0:0:0:0:
416,192,26616,1,0,0:0:0:0:
352,192,26842,1,0,0:0:0:0:
96,192,26842,1,0,0:0:0:0:
288,192,26842,1,0,0:0:0:0:
160,192,27067,1,0,0:0:0:0:
480,192,27067,1,0,0:0:0:0:
224,192,27067,1,0,0:0:0:0:
416,192,27293,1,0,0:0:0:0:
288,192,27293,1,0,0:0:0:0:
96,192,27293,1,0,0:0:0:0:
160,192,27518,1,0,0:0:0:0:
352,192,27518,1,0,0:0:0:0:
480,192,27518,1,0,0:0:0:0:
416,192,27744,1,0,0:0:0:0:
288,192,27744,1,0,0:0:0:0:
96,192,27744,1,0,0:0:0:0:
224,192,27857,1,0,0:0:0:0:
160,192,27969,1,0,0:0:0:0:
352,192,27969,1,0,0:0:0:0:
96,192,27969,1,0,0:0:0:0:
288,192,28195,1,0,0:0:0:0:
480,192,28195,1,0,0:0:0:0:
224,192,28308,1,0,0:0:0:0:
160,192,28421,1,0,0:0:0:0:
352,192,28421,1,0,0:0:0:0:
416,192,28421,1,0,0:0:0:0:
288,192,28646,1,0,0:0:0:0:
96,192,28646,1,0,0:0:0:0:
480,192,28646,1,0,0:0:0:0:
160,192,28872,1,0,0:0:0:0:
352,192,28872,1,0,0:0:0:0:
224,192,28872,1,0,0:0:0:0:
288,192,29097,1,0,0:0:0:0:
416,192,29097,1,0,0:0:0:0:
480,192,29097,1,0,0:0:0:0:
352,192,29323,1,0,0:0:0:0:
96,192,29323,1,0,0:0:0:0:
224,192,29323,1,0,0:0:0:0:
480,192,29548,1,0,0:0:0:0:
288,192,29548,1,0,0:0:0:0:
160,192,29548,1,0,0:0:0:0:
352,192,29661,1,0,0:0:0:0:
416,192,29774,1,0,0:0:0:0:
224,192,29774,1,0,0:0:0:0:
480,192,29774,1,0,0:0:0:0:
288,192,29999,1,0,0:0:0:0:
96,192,29999,1,0,0:0:0:0:
160,192,30112,1,0,0:0:0:0:
352,192,30112,1,0,0:0:0:0:
416,192,30225,1,0,0:0:0:0:
480,192,30225,1,0,0:0:0:0:
224,192,30225,1,0,0:0:0:0:
352,192,30338,1,0,0:0:0:0:
96,192,30338,1,0,0:0:0:0:
288,192,30451,1,0,0:0:0:0:
160,192,30451,1,0,0:0:0:0:
224,192,30563,1,0,0:0:0:0:
416,192,30563,1,0,0:0:0:0:
480,192,30676,1,0,0:0:0:0:
96,192,30676,1,0,0:0:0:0:
352,192,30676,1,0,0:0:0:0:
288,192,30902,1,0,0:0:0:0:
160,192,30902,1,0,0:0:0:0:
416,192,30902,1,0,0:0:0:0:
224,192,31127,1,0,0:0:0:0:
96,192,31127,1,0,0:0:0:0:
352,192,31127,1,0,0:0:0:0:
288,192,31353,1,0,0:0:0:0:
416,192,31353,1,0,0:0:0:0:
480,192,31353,1,0,0:0:0:0:
160,192,31466,1,0,0:0:0:0:
224,192,31578,1,0,0:0:0:0:
352,192,31578,1,0,0:0:0:0:
96,192,31578,1,0,0:0:0:0:
416,192,31804,1,0,0:0:0:0:
160,192,31804,1,0,0:0:0:0:
288,192,31804,1,0,0:0:0:0:
480,192,32030,1,0,0:0:0:0:
96,192,32030,1,0,0:0:0:0:
352,192,32030,1,0,0:0:0:0:
288,192,32142,1,0,0:0:0:0:
416,192,32255,1,0,0:0:0:0:
96,192,32255,1,0,0:0:0:0:
224,192,32255,1,0,0:0:0:0:
352,192,32368,1,0,0:0:0:0:
160,192,32481,1,0,0:0:0:0:
480,192,32481,1,0,0:0:0:0:
288,192,32481,1,0,0:0:0:0:
224,192,32706,1,0,0:0:0:0:
96,192,32706,1,0,0:0:0:0:
416,192,32706,1,0,0:0:0:0:
160,192,32932,1,0,0:0:0:0:
480,192,32932,1,0,0:0:0:0:
352,192,32932,1,0,0:0:0:0:
416,192,33157,1,0,0:0:0:0:
288,192,33157,1,0,0:0:0:0:
96,192,33157,1,0,0:0:0:0:
160,192,33383,1,0,0:0:0:0:
224,192,33383,1,0,0:0:0:0:
480,192,33383,1,0,0:0:0:0:
416,192,33496,1,0,0:0:0:0:
96,192,33496,1,0,0:0:0:0:
352,192,33609,1,0,0:0:0:0:
160,192,33609,1,0,0:0:0:0:
288,192,33721,1,0,0:0:0:0:
480,192,33721,1,0,0:0:0:0:
224,192,33834,1,0,0:0:0:0:
416,192,33834,1,0,0:0:0:0:
96,192,33834,1,0,0:0:0:0:
160,192,34060,1,0,0:0:0:0:
352,192,34060,1,0,0:0:0:0:
480,192,34060,1,0,0:0:0:0:
288,192,34060,1,0,0:0:0:0:
224,192,34285,1,0,0:0:0:0:
96,192,34285,1,0,0:0:0:0:
416,192,34285,1,0,0:0:0:0:
32,192,34285,1,0,0:0:0:0:
288,192,34511,1,0,0:0:0:0:
480,192,34511,1,0,0:0:0:0:
160,192,34511,1,0,0:0:0:0:
352,192,34736,1,0,0:0:0:0:
224,192,34736,1,0,0:0:0:0:
416,192,34736,1,0,0:0:0:0:
96,192,34962,1,0,0:0:0:0:
288,192,34962,1,0,0:0:0:0:
160,192,35075,1,0,0:0:0:0:
352,192,35075,1,0,0:0:0:0:
224,192,35187,1,0,0:0:0:0:
416,192,35187,1,0,0:0:0:0:
480,192,35187,1,0,0:0:0:0:
352,192,35413,1,0,0:0:0:0:
96,192,35413,1,0,0:0:0:0:
160,192,35639,1,0,0:0:0:0:
416,192,35639,1,0,0:0:0:0:
288,192,35639,1,0,0:0:0:0:
480,192,35864,1,0,0:0:0:0:
352,192,35864,1,0,0:0:0:0:
224,192,35864,1,0,0:0:0:0:
160,192,36090,1,0,0:0:0:0:
96,192,36090,1,0,0:0:0:0:
416,192,36090,1,0,0:0:0:0:
224,192,36315,1,0,0:0:0:0:
480,192,36315,1,0,0:0:0:0:
352,192,36315,1,0,0:0:0:0:
288,192,36541,1,0,0:0:0:0:
96,192,36541,1,0,0:0:0:0:
416,192,36541,1,0,0:0:0:0:
32,192,36541,1,0,0:0:0:0:
160,192,36766,1,0,0:0:0:0:
480,192,36766,1,0,0:0:0:0:
224,192,36992,1,0,0:0:0:0:
416,192,36992,1,0,0:0:0:0:
352,192,36992,1,0,0:0:0:0:
288,192,37218,1,0,0:0:0:0:
96,192,37218,1,0,0:0:0:0:
352,192,37330,1,0,0:0:0:0:
160,192,37443,1,0,0:0:0:0:
480,192,37443,1,0,0:0:0:0:
416,192,37443,1,0,0:0:0:0:
352,192,37669,1,0,0:0:0:0:
96,192,37669,1,0,0:0:0:0:
160,192,37781,1,0,0:0:0:0:
224,192,37894,1,0,0:0:0:0:
416,192,37894,1,0,0:0:0:0:
288,192,37894,1,0,0:0:0:0:
480,192,38120,1,0,0:0:0:0:
96,192,38120,1,0,0:0:0:0:
352,192,38120,1,0,0:0:0:0:
160,192,38345,1,0,0:0:0:0:
416,192,38345,1,0,0:0:0:0:
288,192,38345,1,0,0:0:0:0:
224,192,38571,1,0,0:0:0:0:
96,192,38571,1,0,0:0:0:0:
480,192,38571,1,0,0:0:0:0:
288,192,38684,1,0,0:0:0:0:
416,192,38796,1,0,0:0:0:0:
352,192,38796,1,0,0:0:0:0:
160,192,38796,1,0,0:0:0:0:
32,192,38796,1,0,0:0:0:0:
224,192,39022,1,0,0:0:0:0:
480,192,39022,1,0,0:0:0:0:
96,192,39022,1,0,0:0:0:0:
416,192,39248,1,0,0:0:0:0:
352,192,39248,1,0,0:0:0:0:
160,192,39248,1,0,0:0:0:0:
224,192,39473,1,0,0:0:0:0:
480,192,39473,1,0,0:0:0:0:
288,192,39699,1,0,0:0:0:0:
96,192,39699,1,0,0:0:0:0:
416,192,39699,1,0,0:0:0:0:
160,192,39924,1,0,0:0:0:0:
352,192,39924,1,0,0:0:0:0:
224,192,40150,1,0,0:0:0:0:
480,192,40150,1,0,0:0:0:0:
288,192,40150,1,0,0:0:0:0:
32,192,40150,1,0,0:0:0:0:
416,192,40375,1,0,0:0:0:0:
96,192,40375,1,0,0:0:0:0:
160,192,40601,1,0,0:0:0:0:
224,192,40601,1,0,0:0:0:0:
352,192,40601,1,0,0:0:0:0:
32,192,40601,1,0,0:0:0:0:
96,192,40827,1,0,0:0:0:0:
480,192,40827,1,0,0:0:0:0:
160,192,40939,1,0,0:0:0:0:
416,192,40939,1,0,0:0:0:0:
224,192,41052,1,0,0:0:0:0:
352,192,41052,1,0,0:0:0:0:
288,192,41052,1,0,0:0:0:0:
32,192,41052,1,0,0:0:0:0:
480,192,41278,1,0,0:0:0:0:
96,192,41278,1,0,0:0:0:0:
160,192,41503,1,0,0:0:0:0:
416,192,41503,1,0,0:0:0:0:
352,192,41503,1,0,0:0:0:0:
32,192,41503,1,0,0:0:0:0:
288,192,41729,1,0,0:0:0:0:
96,192,41729,1,0,0:0:0:0:
160,192,41954,1,0,0:0:0:0:
416,192,41954,1,0,0:0:0:0:
480,192,41954,1,0,0:0:0:0:
224,192,42180,1,0,0:0:0:0:
352,192,42180,1,0,0:0:0:0:
96,192,42293,1,0,0:0:0:0:
480,192,42293,1,0,0:0:0:0:
416,192,42406,1,0,0:0:0:0:
160,192,42406,1,0,0:0:0:0:
288,192,42406,1,0,0:0:0:0:
224,192,42631,1,0,0:0:0:0:
480,192,42631,1,0,0:0:0:0:
416,192,42744,1,0,0:0:0:0:
352,192,42857,1,0,0:0:0:0:
160,192,42857,1,0,0:0:0:0:
96,192,42857,1,0,0:0:0:0:
224,192,43082,1,0,0:0:0:0:
480,192,43082,1,0,0:0:0:0:
352,192,43082,1,0,0:0:0:0:
96,192,43308,1,0,0:0:0:0:
288,192,43308,1,0,0:0:0:0:
416,192,43308,1,0,0:0:0:0:
160,192,43533,1,0,0:0:0:0:
352,192,43533,1,0,0:0:0:0:
480,192,43533,1,0,0:0:0:0:
224,192,43759,1,0,0:0:0:0:
416,192,43759,1,0,0:0:0:0:
288,192,43759,1,0,0:0:0:0:
96,192,43984,1,0,0:0:0:0:
480,192,43984,1,0,0:0:0:0:
352,192,43984,1,0,0:0:0:0:
160,192,44210,1,0,0:0:0:0:
288,192,44210,1,0,0:0:0:0:
416,192,44210,1,0,0:0:0:0:
480,192,44436,1,0,0:0:0:0:
352,192,44436,1,0,0:0:0:0:
96,192,44436,1,0,0:0:0:0:
160,192,44548,1,0,0:0:0:0:
96,192,44661,1,0,0:0:0:0:
288,192,44661,1,0,0:0:0:0:
416,192,44661,1,0,0:0:0:0:
224,192,44887,1,0,0:0:0:0:
480,192,44887,1,0,0:0:0:0:
416,192,44999,1,0,0:0:0:0:
352,192,45112,1,0,0:0:0:0:
288,192,45112,1,0,0:0:0:0:
96,192,45112,1,0,0:0:0:0:
160,192,45338,1,0,0:0:0:0:
480,192,45338,1,0,0:0:0:0:
224,192,45338,1,0,0:0:0:0:
416,192,45563,1,0,0:0:0:0:
288,192,45563,1,0,0:0:0:0:
96,192,45563,1,0,0:0:0:0:
160,192,45789,1,0,0:0:0:0:
480,192,45789,1,0,0:0:0:0:
352,192,45789,1,0,0:0:0:0:
224,192,45902,1,0,0:0:0:0:
288,192,46015,1,0,0:0:0:0:
96,192,46015,1,0,0:0:0:0:
416,192,46015,1,0,0:0:0:0:
480,192,46240,1,0,0:0:0:0:
160,192,46240,1,0,0:0:0:0:
352,192,46240,1,0,0:0:0:0:
416,192,46466,1,0,0:0:0:0:
96,192,46466,1,0,0:0:0:0:
288,192,46466,1,0,0:0:0:0:
480,192,46691,1,0,0:0:0:0:
352,192,46691,1,0,0:0:0:0:
160,192,46691,1,0,0:0:0:0:
288,192,46804,1,0,0:0:0:0:
224,192,46917,1,0,0:0:0:0:
96,192,46917,1,0,0:0:0:0:
416,192,46917,1,0,0:0:0:0:
352,192,47142,1,0,0:0:0:0:
480,192,47142,1,0,0:0:0:0:
224,192,47142,1,0,0:0:0:0:
160,192,47368,1,0,0:0:0:0:
96,192,47368,1,0,0:0:0:0:
416,192,47368,1,0,0:0:0:0:
224,192,47593,1,0,0:0:0:0:
352,192,47593,1,0,0:0:0:0:
480,192,47593,1,0,0:0:0:0:
416,192,47819,1,0,0:0:0:0:
288,192,47819,1,0,0:0:0:0:
96,192,47819,1,0,0:0:0:0:
160,192,47932,1,0,0:0:0:0:
224,192,48045,1,0,0:0:0:0:
352,192,48045,1,0,0:0:0:0:
288,192,48157,1,0,0:0:0:0:
160,192,48270,1,0,0:0:0:0:
480,192,48270,1,0,0:0:0:0:
416,192,48270,1,0,0:0:0:0:
352,192,48383,1,0,0:0:0:0:
96,192,48496,1,0,0:0:0:0:
224,192,48609,1,0,0:0:0:0:
416,192,48721,1,0,0:0:0:0:
160,192,48721,1,0,0:0:0:0:
480,192,48721,1,0,0:0:0:0:
288,192,48721,1,0,0:0:0:0:
32,192,48721,1,0,0:0:0:0:
224,192,48947,1,0,0:0:0:0:
352,192,48947,1,0,0:0:0:0:
96,192,48947,1,0,0:0:0:0:
160,192,49172,1,0,0:0:0:0:
288,192,49172,1,0,0:0:0:0:
416,192,49172,1,0,0:0:0:0:
352,192,49172,1,0,0:0:0:0:
224,192,49398,1,0,0:0:0:0:
96,192,49398,1,0,0:0:0:0:
480,192,49398,1,0,0:0:0:0:
288,192,49511,1,0,0:0:0:0:
416,192,49511,1,0,0:0:0:0:
160,192,49624,1,0,0:0:0:0:
96,192,49624,1,0,0:0:0:0:
352,192,49624,1,0,0:0:0:0:
224,192,49736,1,0,0:0:0:0:
288,192,49962,1,0,0:0:0:0:
352,192,50075,1,0,0:0:0:0:
480,192,50075,1,0,0:0:0:0:
160,192,50075,1,0,0:0:0:0:
416,192,50075,1,0,0:0:0:0:
288,192,50300,1,0,0:0:0:0:
96,192,50300,1,0,0:0:0:0:
160,192,50526,1,0,0:0:0:0:
416,192,50526,1,0,0:0:0:0:
352,192,50526,1,0,0:0:0:0:
288,192,50751,1,0,0:0:0:0:
480,192,50751,1,0,0:0:0:0:
224,192,50977,1,0,0:0:0:0:
96,192,50977,1,0,0:0:0:0:
352,192,50977,1,0,0:0:0:0:
160,192,51203,1,0,0:0:0:0:
416,192,51203,1,0,0:0:0:0:
352,192,51315,1,0,0:0:0:0:
96,192,51315,1,0,0:0:0:0:
288,192,51428,1,0,0:0:0:0:
224,192,51428,1,0,0:0:0:0:
480,192,51428,1,0,0:0:0:0:
96,192,51541,1,0,0:0:0:0:
352,192,51541,1,0,0:0:0:0:
160,192,51654,1,0,0:0:0:0:
416,192,51654,1,0,0:0:0:0:
480,192,51766,1,0,0:0:0:0:
224,192,51766,1,0,0:0:0:0:
96,192,51879,1,0,0:0:0:0:
288,192,51879,1,0,0:0:0:0:
352,192,51879,1,0,0:0:0:0:
352,192,52105,1,0,0:0:0:0:
480,192,52105,1,0,0:0:0:0:
288,192,52330,1,0,0:0:0:0:
160,192,52330,1,0,0:0:0:0:
96,192,52330,1,0,0:0:0:0:
32,192,52330,1,0,0:0:0:0:
416,192,52556,1,0,0:0:0:0:
224,192,52556,1,0,0:0:0:0:
352,192,52781,1,0,0:0:0:0:
480,192,52781,1,0,0:0:0:0:
160,192,52781,1,0,0:0:0:0:
96,192,53007,1,0,0:0:0:0:
416,192,53007,1,0,0:0:0:0:
160,192,53120,1,0,0:0:0:0:
480,192,53120,1,0,0:0:0:0:
352,192,53233,1,0,0:0:0:0:
224,192,53233,1,0,0:0:0:0:
416,192,53233,1,0,0:0:0:0:
288,192,53345,1,0,0:0:0:0:
96,192,53345,1,0,0:0:0:0:
160,192,53571,1,0,0:0:0:0:
480,192,53571,1,0,0:0:0:0:
416,192,53684,1,0,0:0:0:0:
224,192,53684,1,0,0:0:0:0:
352,192,53684,1,0,0:0:0:0:
288,192,53684,1,0,0:0:0:0:
96,192,53909,1,0,0:0:0:0:
480,192,53909,1,0,0:0:0:0:
160,192,54135,1,0,0:0:0:0:
416,192,54135,1,0,0:0:0:0:
288,192,54135,1,0,0:0:0:0:
224,192,54360,1,0,0:0:0:0:
352,192,54360,1,0,0:0:0:0:
160,192,54586,1,0,0:0:0:0:
416,192,54586,1,0,0:0:0:0:
480,192,54586,1,0,0:0:0:0:
352,192,54699,1,0,0:0:0:0:
96,192,54699,1,0,0:0:0:0:
288,192,54812,1,0,0:0:0:0:
480,192,54812,1,0,0:0:0:0:
224,192,54924,1,0,0:0:0:0:
416,192,54924,1,0,0:0:0:0:
160,192,55037,1,0,0:0:0:0:
352,192,55037,1,0,0:0:0:0:
96,192,55037,1,0,0:0:0:0:
480,192,55150,1,0,0:0:0:0:
288,192,55150,1,0,0:0:0:0:
224,192,55263,1,0,0:0:0:0:
352,192,55263,1,0,0:0:0:0:
288,192,55488,1,0,0:0:0:0:
96,192,55488,1,0,0:0:0:0:
480,192,55488,1,0,0:0:0:0:
224,192,55714,1,0,0:0:0:0:
416,192,55714,1,0,0:0:0:0:
288,192,55939,1,0,0:0:0:0:
160,192,55939,1,0,0:0:0:0:
96,192,55939,1,0,0:0:0:0:
480,192,55939,1,0,0:0:0:0:
32,192,55939,1,0,0:0:0:0:
416,192,56165,1,0,0:0:0:0:
224,192,56165,1,0,0:0:0:0:
352,192,56390,1,0,0:0:0:0:
96,192,56390,1,0,0:0:0:0:
480,192,56390,1,0,0:0:0:0:
160,192,56616,1,0,0:0:0:0:
416,192,56616,1,0,0:0:0:0:
224,192,56729,1,0,0:0:0:0:
480,192,56729,1,0,0:0:0:0:
288,192,56842,1,0,0:0:0:0:
96,192,56842,1,0,0:0:0:0:
480,192,56954,1,0,0:0:0:0:
224,192,56954,1,0,0:0:0:0:
416,192,57067,1,0,0:0:0:0:
160,192,57067,1,0,0:0:0:0:
288,192,57180,1,0,0:0:0:0:
480,192,57180,1,0,0:0:0:0:
352,192,57293,1,0,0:0:0:0:
96,192,57293,1,0,0:0:0:0:
224,192,57293,1,0,0:0:0:0:
160,192,57518,1,0,0:0:0:0:
288,192,57518,1,0,0:0:0:0:
352,192,57631,1,0,0:0:0:0:
416,192,57744,1,0,0:0:0:0:
96,192,57744,1,0,0:0:0:0:
224,192,57744,1,0,0:0:0:0:
288,192,57969,1,0,0:0:0:0:
160,192,57969,1,0,0:0:0:0:
480,192,58195,1,0,0:0:0:0:
352,192,58195,1,0,0:0:0:0:
224,192,58195,1,0,0:0:0:0:
96,192,58421,1,0,0:0:0:0:
416,192,58421,1,0,0:0:0:0:
160,192,58533,1,0,0:0:0:0:
352,192,58533,1,0,0:0:0:0:
224,192,58646,1,0,0:0:0:0:
288,192,58646,1,0,0:0:0:0:
480,192,58646,1,0,0:0:0:0:
416,192,58759,1,0,0:0:0:0:
96,192,58759,1,0,0:0:0:0:
160,192,58984,1,0,0:0:0:0:
480,192,58984,1,0,0:0:0:0:
224,192,59097,1,0,0:0:0:0:
352,192,59097,1,0,0:0:0:0:
416,192,59097,1,0,0:0:0:0:
288,192,59323,1,0,0:0:0:0:
96,192,59323,1,0,0:0:0:0:
160,192,59548,1,0,0:0:0:0:
416,192,59548,1,0,0:0:0:0:
480,192,59548,1,0,0:0:0:0:
352,192,59774,1,0,0:0:0:0:
96,192,59774,1,0,0:0:0:0:
160,192,59999,1,0,0:0:0:0:
288,192,59999,1,0,0:0:0:0:
480,192,59999,1,0,0:0:0:0:
416,192,60225,1,0,0:0:0:0:
96,192,60225,1,0,0:0:0:0:
224,192,60338,1,0,0:0:0:0:
480,192,60338,1,0,0:0:0:0:
352,192,60451,1,0,0:0:0:0:
160,192,60451,1,0,0:0:0:0:
288,192,60451,1,0,0:0:0:0:
480,192,60563,1,0,0:0:0:0:
96,192,60563,1,0,0:0:0:0:
416,192,60676,1,0,0:0:0:0:
224,192,60676,1,0,0:0:0:0:
160,192,60789,1,0,0:0:0:0:
352,192,60789,1,0,0:0:0:0:
96,192,60902,1,0,0:0:0:0:
480,192,60902,1,0,0:0:0:0:
288,192,60902,1,0,0:0:0:0:
160,192,61127,1,0,0:0:0:0:
416,192,61127,1,0,0:0:0:0:
480,192,61240,1,0,0:0:0:0:
224,192,61353,1,0,0:0:0:0:
352,192,61353,1,0,0:0:0:0:
96,192,61353,1,0,0:0:0:0:
160,192,61578,1,0,0:0:0:0:
416,192,61578,1,0,0:0:0:0:
288,192,61804,1,0,0:0:0:0:
480,192,61804,1,0,0:0:0:0:
224,192,61804,1,0,0:0:0:0:
352,192,61917,1,0,0:0:0:0:
96,192,61917,1,0,0:0:0:0:
416,192,62030,1,0,0:0:0:0:
160,192,62030,1,0,0:0:0:0:
224,192,62142,1,0,0:0:0:0:
480,192,62142,1,0,0:0:0:0:
288,192,62255,1,0,0:0:0:0:
96,192,62255,1,0,0:0:0:0:
416,192,62255,1,0,0:0:0:0:
224,192,62368,1,0,0:0:0:0:
480,192,62368,1,0,0:0:0:0:
160,192,62481,1,0,0:0:0:0:
352,192,62481,1,0,0:0:0:0:
96,192,62593,1,0,0:0:0:0:
416,192,62593,1,0,0:0:0:0:
480,192,62706,1,0,0:0:0:0:
224,192,62706,1,0,0:0:0:0:
160,192,62706,1,0,0:0:0:0:
416,192,62819,1,0,0:0:0:0:
288,192,62819,1,0,0:0:0:0:
96,192,62819,1,0,0:0:0:0:
352,192,62932,1,0,0:0:0:0:
160,192,62932,1,0,0:0:0:0:
480,192,62932,1,0,0:0:0:0:
288,192,63157,1,0,0:0:0:0:
224,192,63157,1,0,0:0:0:0:
96,192,63157,1,0,0:0:0:0:
416,192,63157,1,0,0:0:0:0:
32,192,63157,1,0,0:0:0:0:
32,192,63496,1,0,0:0:0:0:
160,192,63609,1,0,0:0:0:0:
352,192,63609,1,0,0:0:0:0:
288,192,63609,1,0,0:0:0:0:
32,192,63834,1,0,0:0:0:0:
32,192,64060,1,0,0:0:0:0:
288,192,64060,1,0,0:0:0:0:
480,192,64060,1,0,0:0:0:0:
160,192,64060,1,0,0:0:0:0:
32,192,64398,1,0,0:0:0:0:
224,192,64511,1,0,0:0:0:0:
416,192,64511,1,0,0:0:0:0:
352,192,64511,1,0,0:0:0:0:
160,192,64736,1,0,0:0:0:0:
288,192,64849,1,0,0:0:0:0:
352,192,64962,1,0,0:0:0:0:
416,192,64962,1,0,0:0:0:0:
480,192,64962,1,0,0:0:0:0:
32,192,64962,1,0,0:0:0:0:
32,192,65300,1,0,0:0:0:0:
96,192,65413,1,0,0:0:0:0:
224,192,65413,1,0,0:0:0:0:
416,192,65413,1,0,0:0:0:0:
32,192,65526,1,0,0:0:0:0:
32,192,65639,1,0,0:0:0:0:
32,192,65864,1,0,0:0:0:0:
224,192,65864,1,0,0:0:0:0:
352,192,65864,1,0,0:0:0:0:
480,192,65864,1,0,0:0:0:0:
32,192,66203,1,0,0:0:0:0:
160,192,66315,1,0,0:0:0:0:
96,192,66315,1,0,0:0:0:0:
416,192,66315,1,0,0:0:0:0:
32,192,66766,1,0,0:0:0:0:
224,192,66766,1,0,0:0:0:0:
352,192,66766,1,0,0:0:0:0:
480,192,66766,1,0,0:0:0:0:
160,192,66992,1,0,0:0:0:0:
288,192,67105,1,0,0:0:0:0:
32,192,67105,1,0,0:0:0:0:
224,192,67218,1,0,0:0:0:0:
96,192,67218,1,0,0:0:0:0:
480,192,67218,1,0,0:0:0:0:
416,192,67330,1,0,0:0:0:0:
352,192,67443,1,0,0:0:0:0:
32,192,67443,1,0,0:0:0:0:
224,192,67669,1,0,0:0:0:0:
32,192,67669,1,0,0:0:0:0:
480,192,67669,1,0,0:0:0:0:
160,192,67669,1,0,0:0:0:0:
32,192,68007,1,0,0:0:0:0:
96,192,68120,1,0,0:0:0:0:
288,192,68120,1,0,0:0:0:0:
480,192,68120,1,0,0:0:0:0:
160,192,68233,1,0,0:0:0:0:
352,192,68345,1,0,0:0:0:0:
224,192,68458,1,0,0:0:0:0:
160,192,68571,1,0,0:0:0:0:
96,192,68571,1,0,0:0:0:0:
416,192,68571,1,0,0:0:0:0:
32,192,68571,1,0,0:0:0:0:
32,192,68909,1,0,0:0:0:0:
224,192,69022,1,0,0:0:0:0:
416,192,69022,1,0,0:0:0:0:
480,192,69022,1,0,0:0:0:0:
32,192,69135,1,0,0:0:0:0:
32,192,69248,1,0,0:0:0:0:
352,192,69248,1,0,0:0:0:0:
288,192,69360,1,0,0:0:0:0:
96,192,69473,1,0,0:0:0:0:
224,192,69473,1,0,0:0:0:0:
480,192,69473,1,0,0:0:0:0:
32,192,69473,1,0,0:0:0:0:
352,192,69699,1,0,0:0:0:0:
288,192,69924,1,0,0:0:0:0:
96,192,69924,1,0,0:0:0:0:
480,192,69924,1,0,0:0:0:0:
32,192,70037,1,0,0:0:0:0:
32,192,70150,1,0,0:0:0:0:
32,192,70263,1,0,0:0:0:0:
32,192,70375,1,0,0:0:0:0:
224,192,70375,1,0,0:0:0:0:
352,192,70375,1,0,0:0:0:0:
160,192,70375,1,0,0:0:0:0:
32,192,70714,1,0,0:0:0:0:
288,192,70827,1,0,0:0:0:0:
480,192,70827,1,0,0:0:0:0:
352,192,70827,1,0,0:0:0:0:
224,192,70939,1,0,0:0:0:0:
96,192,71052,1,0,0:0:0:0:
32,192,71052,1,0,0:0:0:0:
288,192,71165,1,0,0:0:0:0:
352,192,71278,1,0,0:0:0:0:
160,192,71278,1,0,0:0:0:0:
480,192,71278,1,0,0:0:0:0:
32,192,71278,1,0,0:0:0:0:
32,192,71616,1,0,0:0:0:0:
96,192,71729,1,0,0:0:0:0:
288,192,71729,1,0,0:0:0:0:
416,192,71729,1,0,0:0:0:0:
352,192,71842,1,0,0:0:0:0:
160,192,71954,1,0,0:0:0:0:
288,192,72067,1,0,0:0:0:0:
352,192,72180,1,0,0:0:0:0:
480,192,72180,1,0,0:0:0:0:
416,192,72180,1,0,0:0:0:0:
32,192,72180,1,0,0:0:0:0:
32,192,72518,1,0,0:0:0:0:
160,192,72631,1,0,0:0:0:0:
288,192,72631,1,0,0:0:0:0:
480,192,72631,1,0,0:0:0:0:
32,192,72744,1,0,0:0:0:0:
416,192,72744,1,0,0:0:0:0:
32,192,72857,1,0,0:0:0:0:
352,192,72857,1,0,0:0:0:0:
224,192,72969,1,0,0:0:0:0:
32,192,73082,1,0,0:0:0:0:
160,192,73082,1,0,0:0:0:0:
416,192,73082,1,0,0:0:0:0:
480,192,73082,1,0,0:0:0:0:
224,192,73308,1,0,0:0:0:0:
32,192,73421,1,0,0:0:0:0:
288,192,73533,1,0,0:0:0:0:
352,192,73533,1,0,0:0:0:0:
480,192,73533,1,0,0:0:0:0:
32,192,73759,1,0,0:0:0:0:
32,192,73984,1,0,0:0:0:0:
224,192,73984,1,0,0:0:0:0:
160,192,73984,1,0,0:0:0:0:
480,192,73984,1,0,0:0:0:0:
416,192,74210,1,0,0:0:0:0:
32,192,74323,1,0,0:0:0:0:
96,192,74436,1,0,0:0:0:0:
288,192,74436,1,0,0:0:0:0:
480,192,74436,1,0,0:0:0:0:
416,192,74548,1,0,0:0:0:0:
352,192,74661,1,0,0:0:0:0:
32,192,74661,1,0,0:0:0:0:
224,192,74774,1,0,0:0:0:0:
160,192,74887,1,0,0:0:0:0:
96,192,74887,1,0,0:0:0:0:
480,192,74887,1,0,0:0:0:0:
32,192,74887,1,0,0:0:0:0:
32,192,75225,1,0,0:0:0:0:
96,192,75338,1,0,0:0:0:0:
416,192,75338,1,0,0:0:0:0:
480,192,75338,1,0,0:0:0:0:
160,192,75451,1,0,0:0:0:0:
224,192,75563,1,0,0:0:0:0:
288,192,75676,1,0,0:0:0:0:
352,192,75789,1,0,0:0:0:0:
96,192,75789,1,0,0:0:0:0:
160,192,75789,1,0,0:0:0:0:
32,192,75789,1,0,0:0:0:0:
32,192,76127,1,0,0:0:0:0:
96,192,76240,1,0,0:0:0:0:
224,192,76240,1,0,0:0:0:0:
480,192,76240,1,0,0:0:0:0:
32,192,76466,1,0,0:0:0:0:
32,192,76691,1,0,0:0:0:0:
160,192,76691,1,0,0:0:0:0:
96,192,76691,1,0,0:0:0:0:
224,192,76691,1,0,0:0:0:0:
288,192,76691,1,0,0:0:0:0:
352,192,76691,1,0,0:0:0:0:
416,192,76691,1,0,0:0:0:0:
480,192,76691,1,0,0:0:0:0:
32,192,76804,1,0,0:0:0:0:
480,192,76804,1,0,0:0:0:0:
416,192,76804,1,0,0:0:0:0:
352,192,76804,1,0,0:0:0:0:
288,192,76804,1,0,0:0:0:0:
224,192,76804,1,0,0:0:0:0:
160,192,76804,1,0,0:0:0:0:
96,192,76804,1,0,0:0:0:0:
32,192,77030,1,0,0:0:0:0:
96,192,77030,1,0,0:0:0:0:
160,192,77030,1,0,0:0:0:0:
224,192,77030,1,0,0:0:0:0:
288,192,77030,1,0,0:0:0:0:
352,192,77030,1,0,0:0:0:0:
416,192,77030,1,0,0:0:0:0:
480,192,77030,1,0,0:0:0:0:
32,192,77368,1,0,0:0:0:0:
480,192,77368,1,0,0:0:0:0:
416,192,77368,1,0,0:0:0:0:
352,192,77368,1,0,0:0:0:0:
288,192,77368,1,0,0:0:0:0:
160,192,77368,1,0,0:0:0:0:
96,192,77368,1,0,0:0:0:0:
224,192,77368,1,0,0:0:0:0:
32,192,77593,1,0,0:0:0:0:
96,192,77593,1,0,0:0:0:0:
160,192,77593,1,0,0:0:0:0:
224,192,77593,1,0,0:0:0:0:
288,192,77593,1,0,0:0:0:0:
352,192,77593,1,0,0:0:0:0:
416,192,77593,1,0,0:0:0:0:
480,192,77593,1,0,0:0:0:0:
96,192,77819,1,0,0:0:0:0:
480,192,77819,1,0,0:0:0:0:
416,192,77932,1,0,0:0:0:0:
288,192,77932,1,0,0:0:0:0:
352,192,78045,1,0,0:0:0:0:
224,192,78045,1,0,0:0:0:0:
160,192,78045,1,0,0:0:0:0:
480,192,78270,1,0,0:0:0:0:
32,192,78270,1,0,0:0:0:0:
288,192,78270,1,0,0:0:0:0:
32,192,78383,1,0,0:0:0:0:
32,192,78496,1,0,0:0:0:0:
160,192,78496,1,0,0:0:0:0:
96,192,78496,1,0,0:0:0:0:
416,192,78496,1,0,0:0:0:0:
224,192,78721,1,0,0:0:0:0:
480,192,78721,1,0,0:0:0:0:
416,192,78834,1,0,0:0:0:0:
32,192,78834,1,0,0:0:0:0:
352,192,78947,1,0,0:0:0:0:
96,192,78947,1,0,0:0:0:0:
160,192,78947,1,0,0:0:0:0:
224,192,79060,1,0,0:0:0:0:
480,192,79060,1,0,0:0:0:0:
416,192,79172,1,0,0:0:0:0:
96,192,79172,1,0,0:0:0:0:
288,192,79285,1,0,0:0:0:0:
160,192,79285,1,0,0:0:0:0:
352,192,79398,1,0,0:0:0:0:
224,192,79398,1,0,0:0:0:0:
480,192,79398,1,0,0:0:0:0:
32,192,79398,1,0,0:0:0:0:
96,192,79624,1,0,0:0:0:0:
416,192,79624,1,0,0:0:0:0:
160,192,79736,1,0,0:0:0:0:
352,192,79736,1,0,0:0:0:0:
288,192,79849,1,0,0:0:0:0:
224,192,79849,1,0,0:0:0:0:
480,192,79849,1,0,0:0:0:0:
32,192,79962,1,0,0:0:0:0:
32,192,80075,1,0,0:0:0:0:
32,192,80187,1,0,0:0:0:0:
32,192,80300,1,0,0:0:0:0:
160,192,80300,1,0,0:0:0:0:
96,192,80300,1,0,0:0:0:0:
416,192,80300,1,0,0:0:0:0:
480,192,80300,1,0,0:0:0:0:
352,192,80526,1,0,0:0:0:0:
224,192,80526,1,0,0:0:0:0:
160,192,80639,1,0,0:0:0:0:
416,192,80639,1,0,0:0:0:0:
288,192,80751,1,0,0:0:0:0:
96,192,80751,1,0,0:0:0:0:
480,192,80751,1,0,0:0:0:0:
352,192,80977,1,0,0:0:0:0:
224,192,81203,1,0,0:0:0:0:
96,192,81203,1,0,0:0:0:0:
480,192,81203,1,0,0:0:0:0:
32,192,81203,1,0,0:0:0:0:
416,192,81428,1,0,0:0:0:0:
160,192,81428,1,0,0:0:0:0:
352,192,81541,1,0,0:0:0:0:
224,192,81541,1,0,0:0:0:0:
288,192,81654,1,0,0:0:0:0:
96,192,81654,1,0,0:0:0:0:
416,192,81654,1,0,0:0:0:0:
32,192,81879,1,0,0:0:0:0:
32,192,81992,1,0,0:0:0:0:
32,192,82105,1,0,0:0:0:0:
160,192,82105,1,0,0:0:0:0:
224,192,82105,1,0,0:0:0:0:
416,192,82105,1,0,0:0:0:0:
352,192,82330,1,0,0:0:0:0:
96,192,82330,1,0,0:0:0:0:
160,192,82443,1,0,0:0:0:0:
480,192,82443,1,0,0:0:0:0:
416,192,82556,1,0,0:0:0:0:
288,192,82556,1,0,0:0:0:0:
224,192,82556,1,0,0:0:0:0:
352,192,82781,1,0,0:0:0:0:
96,192,82781,1,0,0:0:0:0:
288,192,82894,1,0,0:0:0:0:
480,192,82894,1,0,0:0:0:0:
160,192,83007,1,0,0:0:0:0:
416,192,83007,1,0,0:0:0:0:
224,192,83007,1,0,0:0:0:0:
32,192,83007,1,0,0:0:0:0:
352,192,83233,1,0,0:0:0:0:
96,192,83233,1,0,0:0:0:0:
160,192,83345,1,0,0:0:0:0:
416,192,83345,1,0,0:0:0:0:
224,192,83458,1,0,0:0:0:0:
480,192,83458,1,0,0:0:0:0:
352,192,83458,1,0,0:0:0:0:
32,192,83684,1,0,0:0:0:0:
32,192,83796,1,0,0:0:0:0:
32,192,83909,1,0,0:0:0:0:
160,192,83909,1,0,0:0:0:0:
288,192,83909,1,0,0:0:0:0:
416,192,83909,1,0,0:0:0:0:
480,192,83909,1,0,0:0:0:0:
352,192,84135,1,0,0:0:0:0:
224,192,84135,1,0,0:0:0:0:
288,192,84360,1,0,0:0:0:0:
32,192,84473,1,0,0:0:0:0:
32,192,84586,1,0,0:0:0:0:
32,192,84699,1,0,0:0:0:0:
32,192,84812,1,0,0:0:0:0:
160,192,84812,1,0,0:0:0:0:
288,192,84812,1,0,0:0:0:0:
480,192,84812,1,0,0:0:0:0:
352,192,85150,1,0,0:0:0:0:
96,192,85150,1,0,0:0:0:0:
160,192,85263,1,0,0:0:0:0:
480,192,85263,1,0,0:0:0:0:
416,192,85263,1,0,0:0:0:0:
32,192,85488,1,0,0:0:0:0:
32,192,85601,1,0,0:0:0:0:
32,192,85714,1,0,0:0:0:0:
224,192,85714,1,0,0:0:0:0:
416,192,85714,1,0,0:0:0:0:
96,192,85714,1,0,0:0:0:0:
160,192,85939,1,0,0:0:0:0:
480,192,85939,1,0,0:0:0:0:
416,192,86052,1,0,0:0:0:0:
96,192,86052,1,0,0:0:0:0:
352,192,86165,1,0,0:0:0:0:
288,192,86165,1,0,0:0:0:0:
160,192,86165,1,0,0:0:0:0:
224,192,86278,1,0,0:0:0:0:
480,192,86278,1,0,0:0:0:0:
416,192,86390,1,0,0:0:0:0:
96,192,86390,1,0,0:0:0:0:
160,192,86616,1,0,0:0:0:0:
288,192,86616,1,0,0:0:0:0:
352,192,86616,1,0,0:0:0:0:
32,192,86616,1,0,0:0:0:0:
416,192,86954,1,0,0:0:0:0:
96,192,86954,1,0,0:0:0:0:
352,192,87067,1,0,0:0:0:0:
160,192,87067,1,0,0:0:0:0:
480,192,87067,1,0,0:0:0:0:
32,192,87180,1,0,0:0:0:0:
32,192,87293,1,0,0:0:0:0:
32,192,87406,1,0,0:0:0:0:
32,192,87518,1,0,0:0:0:0:
160,192,87518,1,0,0:0:0:0:
480,192,87518,1,0,0:0:0:0:
288,192,87518,1,0,0:0:0:0:
416,192,87744,1,0,0:0:0:0:
96,192,87744,1,0,0:0:0:0:
352,192,87857,1,0,0:0:0:0:
160,192,87857,1,0,0:0:0:0:
288,192,87969,1,0,0:0:0:0:
224,192,87969,1,0,0:0:0:0:
480,192,87969,1,0,0:0:0:0:
416,192,88195,1,0,0:0:0:0:
352,192,88421,1,0,0:0:0:0:
96,192,88421,1,0,0:0:0:0:
480,192,88421,1,0,0:0:0:0:
32,192,88421,1,0,0:0:0:0:
160,192,88646,1,0,0:0:0:0:
416,192,88646,1,0,0:0:0:0:
352,192,88759,1,0,0:0:0:0:
96,192,88759,1,0,0:0:0:0:
288,192,88872,1,0,0:0:0:0:
480,192,88872,1,0,0:0:0:0:
160,192,88872,1,0,0:0:0:0:
32,192,89097,1,0,0:0:0:0:
32,192,89210,1,0,0:0:0:0:
32,192,89323,1,0,0:0:0:0:
224,192,89323,1,0,0:0:0:0:
160,192,89323,1,0,0:0:0:0:
480,192,89323,1,0,0:0:0:0:
416,192,89548,1,0,0:0:0:0:
96,192,89548,1,0,0:0:0:0:
352,192,89661,1,0,0:0:0:0:
160,192,89661,1,0,0:0:0:0:
288,192,89774,1,0,0:0:0:0:
224,192,89774,1,0,0:0:0:0:
480,192,89774,1,0,0:0:0:0:
32,192,89774,1,0,0:0:0:0:
416,192,89999,1,0,0:0:0:0:
160,192,89999,1,0,0:0:0:0:
288,192,90112,1,0,0:0:0:0:
480,192,90112,1,0,0:0:0:0:
352,192,90225,1,0,0:0:0:0:
96,192,90225,1,0,0:0:0:0:
224,192,90225,1,0,0:0:0:0:
32,192,90225,1,0,0:0:0:0:
288,192,90676,1,0,0:0:0:0:
160,192,90676,1,0,0:0:0:0:
480,192,90676,1,0,0:0:0:0:
32,192,90676,1,0,0:0:0:0:
96,192,91127,1,0,0:0:0:0:
224,192,91127,1,0,0:0:0:0:
480,192,91127,1,0,0:0:0:0:
32,192,91127,1,0,0:0:0:0:
416,192,91296,1,0,0:0:0:0:
288,192,91296,1,0,0:0:0:0:
160,192,91296,1,0,0:0:0:0:
32,192,91296,1,0,0:0:0:0:
224,192,91409,1,0,0:0:0:0:
32,192,91409,1,0,0:0:0:0:
352,192,91409,1,0,0:0:0:0:
480,192,91409,1,0,0:0:0:0:
96,192,91578,1,0,0:0:0:0:
32,192,91578,1,0,0:0:0:0:
416,192,91578,1,0,0:0:0:0:
288,192,91578,1,0,0:0:0:0:
288,192,92030,1,0,0:0:0:0:
480,192,92030,1,0,0:0:0:0:
160,192,92030,1,0,0:0:0:0:
32,192,92030,1,0,0:0:0:0:
416,192,92255,1,0,0:0:0:0:
96,192,92255,1,0,0:0:0:0:
160,192,92481,1,0,0:0:0:0:
352,192,92481,1,0,0:0:0:0:
480,192,92481,1,0,0:0:0:0:
288,192,92706,1,0,0:0:0:0:
416,192,92706,1,0,0:0:0:0:
160,192,92819,1,0,0:0:0:0:
352,192,92819,1,0,0:0:0:0:
96,192,92932,1,0,0:0:0:0:
480,192,92932,1,0,0:0:0:0:
160,192,93157,1,0,0:0:0:0:
416,192,93157,1,0,0:0:0:0:
352,192,93270,1,0,0:0:0:0:
224,192,93270,1,0,0:0:0:0:
288,192,93383,1,0,0:0:0:0:
96,192,93383,1,0,0:0:0:0:
160,192,93609,1,0,0:0:0:0:
480,192,93609,1,0,0:0:0:0:
416,192,93834,1,0,0:0:0:0:
224,192,93834,1,0,0:0:0:0:
352,192,94060,1,0,0:0:0:0:
96,192,94060,1,0,0:0:0:0:
160,192,94285,1,0,0:0:0:0:
480,192,94285,1,0,0:0:0:0:
416,192,94511,1,0,0:0:0:0:
96,192,94511,1,0,0:0:0:0:
352,192,94624,1,0,0:0:0:0:
160,192,94624,1,0,0:0:0:0:
288,192,94736,1,0,0:0:0:0:
96,192,94736,1,0,0:0:0:0:
160,192,94962,1,0,0:0:0:0:
480,192,94962,1,0,0:0:0:0:
416,192,95075,1,0,0:0:0:0:
224,192,95075,1,0,0:0:0:0:
352,192,95187,1,0,0:0:0:0:
288,192,95187,1,0,0:0:0:0:
96,192,95413,1,0,0:0:0:0:
480,192,95413,1,0,0:0:0:0:
160,192,95639,1,0,0:0:0:0:
416,192,95639,1,0,0:0:0:0:
352,192,95864,1,0,0:0:0:0:
96,192,95864,1,0,0:0:0:0:
288,192,95977,1,0,0:0:0:0:
480,192,96090,1,0,0:0:0:0:
160,192,96090,1,0,0:0:0:0:
224,192,96203,1,0,0:0:0:0:
288,192,96315,1,0,0:0:0:0:
96,192,96315,1,0,0:0:0:0:
352,192,96428,1,0,0:0:0:0:
160,192,96428,1,0,0:0:0:0:
416,192,96541,1,0,0:0:0:0:
224,192,96541,1,0,0:0:0:0:
352,192,96766,1,0,0:0:0:0:
96,192,96766,1,0,0:0:0:0:
288,192,96879,1,0,0:0:0:0:
416,192,96879,1,0,0:0:0:0:
224,192,96992,1,0,0:0:0:0:
480,192,96992,1,0,0:0:0:0:
96,192,97105,1,0,0:0:0:0:
352,192,97105,1,0,0:0:0:0:
160,192,97218,1,0,0:0:0:0:
416,192,97218,1,0,0:0:0:0:
224,192,97330,1,0,0:0:0:0:
288,192,97443,1,0,0:0:0:0:
480,192,97443,1,0,0:0:0:0:
416,192,97556,1,0,0:0:0:0:
96,192,97669,1,0,0:0:0:0:
352,192,97669,1,0,0:0:0:0:
160,192,97781,1,0,0:0:0:0:
224,192,97894,1,0,0:0:0:0:
416,192,97894,1,0,0:0:0:0:
480,192,98007,1,0,0:0:0:0:
96,192,98007,1,0,0:0:0:0:
288,192,98120,1,0,0:0:0:0:
160,192,98120,1,0,0:0:0:0:
416,192,98233,1,0,0:0:0:0:
224,192,98233,1,0,0:0:0:0:
352,192,98345,1,0,0:0:0:0:
96,192,98345,1,0,0:0:0:0:
288,192,98458,1,0,0:0:0:0:
160,192,98458,1,0,0:0:0:0:
480,192,98571,1,0,0:0:0:0:
224,192,98571,1,0,0:0:0:0:
416,192,98684,1,0,0:0:0:0:
96,192,98684,1,0,0:0:0:0:
352,192,98796,1,0,0:0:0:0:
160,192,98796,1,0,0:0:0:0:
224,192,99022,1,0,0:0:0:0:
480,192,99022,1,0,0:0:0:0:
416,192,99248,1,0,0:0:0:0:
96,192,99248,1,0,0:0:0:0:
32,192,99248,1,0,0:0:0:0:
160,192,99473,1,0,0:0:0:0:
352,192,99473,1,0,0:0:0:0:
224,192,99699,1,0,0:0:0:0:
480,192,99699,1,0,0:0:0:0:
416,192,99924,1,0,0:0:0:0:
160,192,99924,1,0,0:0:0:0:
352,192,100037,1,0,0:0:0:0:
96,192,100037,1,0,0:0:0:0:
288,192,100150,1,0,0:0:0:0:
160,192,100150,1,0,0:0:0:0:
480,192,100375,1,0,0:0:0:0:
224,192,100375,1,0,0:0:0:0:
352,192,100488,1,0,0:0:0:0:
160,192,100488,1,0,0:0:0:0:
416,192,100601,1,0,0:0:0:0:
96,192,100601,1,0,0:0:0:0:
160,192,100827,1,0,0:0:0:0:
480,192,100827,1,0,0:0:0:0:
416,192,101052,1,0,0:0:0:0:
224,192,101052,1,0,0:0:0:0:
352,192,101278,1,0,0:0:0:0:
96,192,101278,1,0,0:0:0:0:
160,192,101503,1,0,0:0:0:0:
416,192,101503,1,0,0:0:0:0:
96,192,101616,1,0,0:0:0:0:
288,192,101729,1,0,0:0:0:0:
480,192,101729,1,0,0:0:0:0:
224,192,101842,1,0,0:0:0:0:
160,192,101954,1,0,0:0:0:0:
352,192,101954,1,0,0:0:0:0:
480,192,102067,1,0,0:0:0:0:
96,192,102180,1,0,0:0:0:0:
416,192,102180,1,0,0:0:0:0:
160,192,102293,1,0,0:0:0:0:
352,192,102293,1,0,0:0:0:0:
224,192,102406,1,0,0:0:0:0:
480,192,102406,1,0,0:0:0:0:
416,192,102518,1,0,0:0:0:0:
352,192,102631,1,0,0:0:0:0:
96,192,102631,1,0,0:0:0:0:
224,192,102744,1,0,0:0:0:0:
160,192,102857,1,0,0:0:0:0:
480,192,102857,1,0,0:0:0:0:
416,192,102969,1,0,0:0:0:0:
352,192,103082,1,0,0:0:0:0:
224,192,103082,1,0,0:0:0:0:
96,192,103195,1,0,0:0:0:0:
160,192,103308,1,0,0:0:0:0:
480,192,103308,1,0,0:0:0:0:
224,192,103421,1,0,0:0:0:0:
96,192,103533,1,0,0:0:0:0:
416,192,103533,1,0,0:0:0:0:
352,192,103646,1,0,0:0:0:0:
160,192,103646,1,0,0:0:0:0:
224,192,103759,1,0,0:0:0:0:
480,192,103759,1,0,0:0:0:0:
416,192,103759,1,0,0:0:0:0:
352,192,103984,1,0,0:0:0:0:
96,192,103984,1,0,0:0:0:0:
160,192,104097,1,0,0:0:0:0:
416,192,104097,1,0,0:0:0:0:
224,192,104210,1,0,0:0:0:0:
480,192,104210,1,0,0:0:0:0:
416,192,104436,1,0,0:0:0:0:
96,192,104436,1,0,0:0:0:0:
160,192,104661,1,0,0:0:0:0:
480,192,104661,1,0,0:0:0:0:
224,192,104887,1,0,0:0:0:0:
416,192,104887,1,0,0:0:0:0:
352,192,105112,1,0,0:0:0:0:
96,192,105112,1,0,0:0:0:0:
160,192,105338,1,0,0:0:0:0:
480,192,105338,1,0,0:0:0:0:
224,192,105451,1,0,0:0:0:0:
416,192,105451,1,0,0:0:0:0:
288,192,105563,1,0,0:0:0:0:
352,192,105563,1,0,0:0:0:0:
96,192,105676,1,0,0:0:0:0:
416,192,105676,1,0,0:0:0:0:
160,192,105789,1,0,0:0:0:0:
480,192,105789,1,0,0:0:0:0:
352,192,105902,1,0,0:0:0:0:
96,192,105902,1,0,0:0:0:0:
288,192,106015,1,0,0:0:0:0:
416,192,106015,1,0,0:0:0:0:
160,192,106240,1,0,0:0:0:0:
224,192,106353,1,0,0:0:0:0:
288,192,106466,1,0,0:0:0:0:
480,192,106466,1,0,0:0:0:0:
96,192,106578,1,0,0:0:0:0:
416,192,106578,1,0,0:0:0:0:
160,192,106691,1,0,0:0:0:0:
352,192,106691,1,0,0:0:0:0:
224,192,106917,1,0,0:0:0:0:
480,192,106917,1,0,0:0:0:0:
416,192,107142,1,0,0:0:0:0:
96,192,107142,1,0,0:0:0:0:
160,192,107255,1,0,0:0:0:0:
352,192,107255,1,0,0:0:0:0:
224,192,107481,1,0,0:0:0:0:
480,192,107481,1,0,0:0:0:0:
288,192,107593,1,0,0:0:0:0:
96,192,107593,1,0,0:0:0:0:
160,192,107706,1,0,0:0:0:0:
416,192,107706,1,0,0:0:0:0:
352,192,107819,1,0,0:0:0:0:
224,192,107819,1,0,0:0:0:0:
32,192,108270,1,0,0:0:0:0:
160,192,108270,1,0,0:0:0:0:
480,192,108270,1,0,0:0:0:0:
288,192,108270,1,0,0:0:0:0:
224,192,108496,1,0,0:0:0:0:
416,192,108496,1,0,0:0:0:0:
352,192,108721,1,0,0:0:0:0:
96,192,108721,1,0,0:0:0:0:
288,192,108721,1,0,0:0:0:0:
416,192,108834,1,0,0:0:0:0:
160,192,108947,1,0,0:0:0:0:
480,192,108947,1,0,0:0:0:0:
224,192,109060,1,0,0:0:0:0:
288,192,109172,1,0,0:0:0:0:
352,192,109172,1,0,0:0:0:0:
416,192,109172,1,0,0:0:0:0:
96,192,109285,1,0,0:0:0:0:
160,192,109398,1,0,0:0:0:0:
480,192,109398,1,0,0:0:0:0:
416,192,109511,1,0,0:0:0:0:
224,192,109624,1,0,0:0:0:0:
96,192,109624,1,0,0:0:0:0:
352,192,109624,1,0,0:0:0:0:
160,192,109849,1,0,0:0:0:0:
480,192,109849,1,0,0:0:0:0:
416,192,110075,1,0,0:0:0:0:
224,192,110075,1,0,0:0:0:0:
288,192,110075,1,0,0:0:0:0:
96,192,110300,1,0,0:0:0:0:
352,192,110300,1,0,0:0:0:0:
160,192,110526,1,0,0:0:0:0:
288,192,110526,1,0,0:0:0:0:
480,192,110526,1,0,0:0:0:0:
416,192,110751,1,0,0:0:0:0:
96,192,110751,1,0,0:0:0:0:
352,192,110864,1,0,0:0:0:0:
160,192,110977,1,0,0:0:0:0:
288,192,110977,1,0,0:0:0:0:
224,192,110977,1,0,0:0:0:0:
480,192,111203,1,0,0:0:0:0:
96,192,111203,1,0,0:0:0:0:
416,192,111315,1,0,0:0:0:0:
160,192,111315,1,0,0:0:0:0:
352,192,111428,1,0,0:0:0:0:
224,192,111428,1,0,0:0:0:0:
288,192,111428,1,0,0:0:0:0:
160,192,111541,1,0,0:0:0:0:
416,192,111541,1,0,0:0:0:0:
96,192,111654,1,0,0:0:0:0:
480,192,111654,1,0,0:0:0:0:
416,192,111766,1,0,0:0:0:0:
160,192,111766,1,0,0:0:0:0:
352,192,111879,1,0,0:0:0:0:
224,192,111879,1,0,0:0:0:0:
288,192,111879,1,0,0:0:0:0:
96,192,112105,1,0,0:0:0:0:
416,192,112105,1,0,0:0:0:0:
160,192,112330,1,0,0:0:0:0:
352,192,112330,1,0,0:0:0:0:
480,192,112330,1,0,0:0:0:0:
288,192,112556,1,0,0:0:0:0:
96,192,112556,1,0,0:0:0:0:
352,192,112669,1,0,0:0:0:0:
416,192,112781,1,0,0:0:0:0:
480,192,112781,1,0,0:0:0:0:
224,192,112781,1,0,0:0:0:0:
160,192,112894,1,0,0:0:0:0:
96,192,113007,1,0,0:0:0:0:
352,192,113007,1,0,0:0:0:0:
288,192,113120,1,0,0:0:0:0:
224,192,113233,1,0,0:0:0:0:
480,192,113233,1,0,0:0:0:0:
160,192,113233,1,0,0:0:0:0:
416,192,113458,1,0,0:0:0:0:
96,192,113458,1,0,0:0:0:0:
160,192,113684,1,0,0:0:0:0:
352,192,113684,1,0,0:0:0:0:
480,192,113684,1,0,0:0:0:0:
288,192,113909,1,0,0:0:0:0:
96,192,113909,1,0,0:0:0:0:
160,192,114135,1,0,0:0:0:0:
416,192,114135,1,0,0:0:0:0:
480,192,114135,1,0,0:0:0:0:
352,192,114360,1,0,0:0:0:0:
224,192,114360,1,0,0:0:0:0:
96,192,114586,1,0,0:0:0:0:
288,192,114586,1,0,0:0:0:0:
160,192,114586,1,0,0:0:0:0:
416,192,114812,1,0,0:0:0:0:
224,192,114812,1,0,0:0:0:0:
352,192,114924,1,0,0:0:0:0:
288,192,115037,1,0,0:0:0:0:
160,192,115037,1,0,0:0:0:0:
480,192,115037,1,0,0:0:0:0:
416,192,115263,1,0,0:0:0:0:
96,192,115263,1,0,0:0:0:0:
160,192,115488,1,0,0:0:0:0:
288,192,115488,1,0,0:0:0:0:
352,192,115488,1,0,0:0:0:0:
224,192,115714,1,0,0:0:0:0:
480,192,115714,1,0,0:0:0:0:
416,192,115939,1,0,0:0:0:0:
352,192,115939,1,0,0:0:0:0:
96,192,115939,1,0,0:0:0:0:
160,192,116165,1,0,0:0:0:0:
288,192,116165,1,0,0:0:0:0:
352,192,116278,1,0,0:0:0:0:
416,192,116390,1,0,0:0:0:0:
480,192,116390,1,0,0:0:0:0:
224,192,116390,1,0,0:0:0:0:
352,192,116616,1,0,0:0:0:0:
96,192,116616,1,0,0:0:0:0:
160,192,116842,1,0,0:0:0:0:
480,192,116842,1,0,0:0:0:0:
288,192,116842,1,0,0:0:0:0:
416,192,117067,1,0,0:0:0:0:
96,192,117067,1,0,0:0:0:0:
160,192,117293,1,0,0:0:0:0:
288,192,117293,1,0,0:0:0:0:
480,192,117293,1,0,0:0:0:0:
416,192,117518,1,0,0:0:0:0:
224,192,117518,1,0,0:0:0:0:
352,192,117744,1,0,0:0:0:0:
288,192,117744,1,0,0:0:0:0:
96,192,117744,1,0,0:0:0:0:
160,192,117969,1,0,0:0:0:0:
480,192,117969,1,0,0:0:0:0:
416,192,118195,1,0,0:0:0:0:
224,192,118195,1,0,0:0:0:0:
352,192,118195,1,0,0:0:0:0:
288,192,118421,1,0,0:0:0:0:
480,192,118421,1,0,0:0:0:0:
224,192,118533,1,0,0:0:0:0:
416,192,118533,1,0,0:0:0:0:
160,192,118646,1,0,0:0:0:0:
352,192,118646,1,0,0:0:0:0:
96,192,118646,1,0,0:0:0:0:
224,192,118759,1,0,0:0:0:0:
416,192,118759,1,0,0:0:0:0:
480,192,118872,1,0,0:0:0:0:
288,192,118872,1,0,0:0:0:0:
416,192,118984,1,0,0:0:0:0:
224,192,118984,1,0,0:0:0:0:
160,192,119097,1,0,0:0:0:0:
352,192,119097,1,0,0:0:0:0:
480,192,119097,1,0,0:0:0:0:
96,192,119323,1,0,0:0:0:0:
416,192,119323,1,0,0:0:0:0:
160,192,119548,1,0,0:0:0:0:
288,192,119548,1,0,0:0:0:0:
480,192,119548,1,0,0:0:0:0:
416,192,119774,1,0,0:0:0:0:
224,192,119774,1,0,0:0:0:0:
352,192,119999,1,0,0:0:0:0:
288,192,119999,1,0,0:0:0:0:
96,192,119999,1,0,0:0:0:0:
160,192,120225,1,0,0:0:0:0:
480,192,120225,1,0,0:0:0:0:
416,192,120451,1,0,0:0:0:0:
224,192,120451,1,0,0:0:0:0:
352,192,120451,1,0,0:0:0:0:
96,192,120676,1,0,0:0:0:0:
288,192,120676,1,0,0:0:0:0:
160,192,120902,1,0,0:0:0:0:
352,192,120902,1,0,0:0:0:0:
480,192,120902,1,0,0:0:0:0:
224,192,121127,1,0,0:0:0:0:
416,192,121127,1,0,0:0:0:0:
352,192,121353,1,0,0:0:0:0:
160,192,121353,1,0,0:0:0:0:
288,192,121353,1,0,0:0:0:0:
96,192,121578,1,0,0:0:0:0:
416,192,121578,1,0,0:0:0:0:
224,192,121804,1,0,0:0:0:0:
160,192,121804,1,0,0:0:0:0:
480,192,121804,1,0,0:0:0:0:
416,192,122030,1,0,0:0:0:0:
352,192,122142,1,0,0:0:0:0:
288,192,122255,1,0,0:0:0:0:
96,192,122255,1,0,0:0:0:0:
224,192,122255,1,0,0:0:0:0:
160,192,122481,1,0,0:0:0:0:
416,192,122481,1,0,0:0:0:0:
352,192,122481,1,0,0:0:0:0:
224,192,122706,1,0,0:0:0:0:
480,192,122706,1,0,0:0:0:0:
288,192,122706,1,0,0:0:0:0:
32,192,122706,1,0,0:0:0:0:
96,192,122932,1,0,0:0:0:0:
160,192,123045,1,0,0:0:0:0:
224,192,123157,1,0,0:0:0:0:
352,192,123157,1,0,0:0:0:0:
480,192,123157,1,0,0:0:0:0:
416,192,123383,1,0,0:0:0:0:
96,192,123383,1,0,0:0:0:0:
160,192,123496,1,0,0:0:0:0:
352,192,123496,1,0,0:0:0:0:
288,192,123609,1,0,0:0:0:0:
224,192,123609,1,0,0:0:0:0:
480,192,123609,1,0,0:0:0:0:
416,192,123834,1,0,0:0:0:0:
96,192,123834,1,0,0:0:0:0:
352,192,123947,1,0,0:0:0:0:
160,192,124060,1,0,0:0:0:0:
416,192,124060,1,0,0:0:0:0:
480,192,124060,1,0,0:0:0:0:
224,192,124285,1,0,0:0:0:0:
352,192,124285,1,0,0:0:0:0:
160,192,124511,1,0,0:0:0:0:
96,192,124511,1,0,0:0:0:0:
288,192,124511,1,0,0:0:0:0:
480,192,124736,1,0,0:0:0:0:
352,192,124736,1,0,0:0:0:0:
96,192,124849,1,0,0:0:0:0:
160,192,124962,1,0,0:0:0:0:
288,192,124962,1,0,0:0:0:0:
416,192,124962,1,0,0:0:0:0:
352,192,125187,1,0,0:0:0:0:
224,192,125187,1,0,0:0:0:0:
96,192,125413,1,0,0:0:0:0:
480,192,125413,1,0,0:0:0:0:
288,192,125413,1,0,0:0:0:0:
160,192,125639,1,0,0:0:0:0:
416,192,125639,1,0,0:0:0:0:
288,192,125751,1,0,0:0:0:0:
480,192,125751,1,0,0:0:0:0:
224,192,125864,1,0,0:0:0:0:
352,192,125864,1,0,0:0:0:0:
96,192,125864,1,0,0:0:0:0:
160,192,126090,1,0,0:0:0:0:
416,192,126090,1,0,0:0:0:0:
352,192,126203,1,0,0:0:0:0:
224,192,126203,1,0,0:0:0:0:
288,192,126315,1,0,0:0:0:0:
96,192,126315,1,0,0:0:0:0:
160,192,126315,1,0,0:0:0:0:
224,192,126541,1,0,0:0:0:0:
480,192,126541,1,0,0:0:0:0:
416,192,126766,1,0,0:0:0:0:
352,192,126766,1,0,0:0:0:0:
160,192,126766,1,0,0:0:0:0:
288,192,126992,1,0,0:0:0:0:
96,192,126992,1,0,0:0:0:0:
352,192,127105,1,0,0:0:0:0:
416,192,127218,1,0,0:0:0:0:
480,192,127218,1,0,0:0:0:0:
160,192,127218,1,0,0:0:0:0:
224,192,127443,1,0,0:0:0:0:
352,192,127443,1,0,0:0:0:0:
96,192,127556,1,0,0:0:0:0:
288,192,127556,1,0,0:0:0:0:
224,192,127669,1,0,0:0:0:0:
160,192,127669,1,0,0:0:0:0:
416,192,127669,1,0,0:0:0:0:
352,192,127894,1,0,0:0:0:0:
480,192,127894,1,0,0:0:0:0:
288,192,128120,1,0,0:0:0:0:
96,192,128120,1,0,0:0:0:0:
416,192,128120,1,0,0:0:0:0:
160,192,128345,1,0,0:0:0:0:
352,192,128345,1,0,0:0:0:0:
480,192,128345,1,0,0:0:0:0:
224,192,128571,1,0,0:0:0:0:
288,192,128571,1,0,0:0:0:0:
416,192,128571,1,0,0:0:0:0:
352,192,128796,1,0,0:0:0:0:
96,192,128796,1,0,0:0:0:0:
160,192,129022,1,0,0:0:0:0:
288,192,129022,1,0,0:0:0:0:
480,192,129022,1,0,0:0:0:0:
32,192,129022,1,0,0:0:0:0:
352,192,129248,1,0,0:0:0:0:
288,192,129360,1,0,0:0:0:0:
32,192,129473,1,0,0:0:0:0:
416,192,129473,1,0,0:0:0:0:
224,192,129473,1,0,0:0:0:0:
96,192,129473,1,0,0:0:0:0:
288,192,129699,1,0,0:0:0:0:
480,192,129699,1,0,0:0:0:0:
416,192,129924,1,0,0:0:0:0:
352,192,129924,1,0,0:0:0:0:
160,192,129924,1,0,0:0:0:0:
288,192,130150,1,0,0:0:0:0:
96,192,130150,1,0,0:0:0:0:
224,192,130375,1,0,0:0:0:0:
480,192,130375,1,0,0:0:0:0:
160,192,130375,1,0,0:0:0:0:
416,192,130601,1,0,0:0:0:0:
96,192,130601,1,0,0:0:0:0:
352,192,130714,1,0,0:0:0:0:
160,192,130714,1,0,0:0:0:0:
288,192,130827,1,0,0:0:0:0:
224,192,130827,1,0,0:0:0:0:
480,192,130827,1,0,0:0:0:0:
416,192,131165,1,0,0:0:0:0:
352,192,131165,1,0,0:0:0:0:
96,192,131165,1,0,0:0:0:0:
160,192,131503,1,0,0:0:0:0:
224,192,131503,1,0,0:0:0:0:
480,192,131503,1,0,0:0:0:0:
416,192,131729,1,0,0:0:0:0:
352,192,131729,1,0,0:0:0:0:
96,192,131729,1,0,0:0:0:0:
288,192,131729,1,0,0:0:0:0:
32,192,131729,1,0,0:0:0:0:
480,192,131954,1,0,0:0:0:0:
160,192,131954,1,0,0:0:0:0:
224,192,132180,1,0,0:0:0:0:
416,192,132180,1,0,0:0:0:0:
32,192,132180,1,0,0:0:0:0:
352,192,132406,1,0,0:0:0:0:
96,192,132406,1,0,0:0:0:0:
160,192,132631,1,0,0:0:0:0:
480,192,132631,1,0,0:0:0:0:
32,192,132631,1,0,0:0:0:0:
416,192,132744,1,0,0:0:0:0:
352,192,132744,1,0,0:0:0:0:
96,192,132744,1,0,0:0:0:0:
224,192,132857,1,0,0:0:0:0:
160,192,132857,1,0,0:0:0:0:
288,192,132857,1,0,0:0:0:0:
32,192,132857,1,0,0:0:0:0:
352,192,133082,1,0,0:0:0:0:
416,192,133082,1,0,0:0:0:0:
96,192,133082,1,0,0:0:0:0:
32,192,133082,1,0,0:0:0:0:
160,192,133308,1,0,0:0:0:0:
288,192,133308,1,0,0:0:0:0:
480,192,133308,1,0,0:0:0:0:
32,192,133308,1,0,0:0:0:0:
352,192,133421,1,0,0:0:0:0:
96,192,133421,1,0,0:0:0:0:
416,192,133533,1,0,0:0:0:0:
224,192,133533,1,0,0:0:0:0:
480,192,133533,1,0,0:0:0:0:
352,192,133646,1,0,0:0:0:0:
288,192,133646,1,0,0:0:0:0:
96,192,133646,1,0,0:0:0:0:
160,192,133759,1,0,0:0:0:0:
416,192,133759,1,0,0:0:0:0:
224,192,133759,1,0,0:0:0:0:
480,192,133872,1,0,0:0:0:0:
352,192,133872,1,0,0:0:0:0:
96,192,133872,1,0,0:0:0:0:
224,192,133984,1,0,0:0:0:0:
160,192,133984,1,0,0:0:0:0:
288,192,133984,1,0,0:0:0:0:
352,192,134097,1,0,0:0:0:0:
416,192,134097,1,0,0:0:0:0:
96,192,134097,1,0,0:0:0:0:
160,192,134210,1,0,0:0:0:0:
288,192,134210,1,0,0:0:0:0:
480,192,134210,1,0,0:0:0:0:
416,192,134266,1,0,0:0:0:0:
224,192,134266,1,0,0:0:0:0:
352,192,134323,1,0,0:0:0:0:
160,192,134323,1,0,0:0:0:0:
288,192,134379,1,0,0:0:0:0:
96,192,134379,1,0,0:0:0:0:
224,192,134436,1,0,0:0:0:0:
480,192,134436,1,0,0:0:0:0:
416,192,134436,1,0,0:0:0:0:
32,192,134436,1,0,0:0:0:0:
160,192,134548,1,0,0:0:0:0:
288,192,134548,1,0,0:0:0:0:
352,192,134548,1,0,0:0:0:0:
96,192,134661,1,0,0:0:0:0:
224,192,134661,1,0,0:0:0:0:
480,192,134661,1,0,0:0:0:0:
416,192,134774,1,0,0:0:0:0:
352,192,134774,1,0,0:0:0:0:
288,192,134774,1,0,0:0:0:0:
224,192,134887,1,0,0:0:0:0:
160,192,134887,1,0,0:0:0:0:
96,192,134887,1,0,0:0:0:0:
288,192,134999,1,0,0:0:0:0:
416,192,134999,1,0,0:0:0:0:
480,192,134999,1,0,0:0:0:0:
352,192,135112,1,0,0:0:0:0:
96,192,135112,1,0,0:0:0:0:
160,192,135169,1,0,0:0:0:0:
480,192,135169,1,0,0:0:0:0:
416,192,135225,1,0,0:0:0:0:
288,192,135225,1,0,0:0:0:0:
352,192,135281,1,0,0:0:0:0:
224,192,135281,1,0,0:0:0:0:
96,192,135338,1,0,0:0:0:0:
160,192,135338,1,0,0:0:0:0:
480,192,135338,1,0,0:0:0:0:
32,192,135338,1,0,0:0:0:0:
224,192,135563,1,0,0:0:0:0:
480,192,135563,1,0,0:0:0:0:
288,192,135620,1,0,0:0:0:0:
96,192,135620,1,0,0:0:0:0:
352,192,135676,1,0,0:0:0:0:
160,192,135676,1,0,0:0:0:0:
416,192,135733,1,0,0:0:0:0:
480,192,135789,1,0,0:0:0:0:
224,192,135789,1,0,0:0:0:0:
288,192,135789,1,0,0:0:0:0:
32,192,135789,1,0,0:0:0:0:
480,192,136015,1,0,0:0:0:0:
224,192,136015,1,0,0:0:0:0:
416,192,136071,1,0,0:0:0:0:
160,192,136071,1,0,0:0:0:0:
352,192,136127,1,0,0:0:0:0:
96,192,136127,1,0,0:0:0:0:
288,192,136184,1,0,0:0:0:0:
480,192,136184,1,0,0:0:0:0:
224,192,136240,1,0,0:0:0:0:
416,192,136240,1,0,0:0:0:0:
160,192,136240,1,0,0:0:0:0:
32,192,136240,1,0,0:0:0:0:
96,192,136466,1,0,0:0:0:0:
352,192,136466,1,0,0:0:0:0:
480,192,136466,1,0,0:0:0:0:
288,192,136691,1,0,0:0:0:0:
160,192,136691,1,0,0:0:0:0:
416,192,136691,1,0,0:0:0:0:
