osu file format v14

[General]
AudioFilename: Qualia.mp3
AudioLeadIn: 0
PreviewTime: 55939
Countdown: 0
SampleSet: Normal
StackLeniency: 0.7
Mode: 1
LetterboxInBreaks: 0
WidescreenStoryboard: 1

[Editor]
DistanceSpacing: 1.8
BeatDivisor: 4
GridSize: 32
TimelineZoom: 1

[Metadata]
Title:Qualia
TitleUnicode:Qualia
Artist:Junk
ArtistUnicode:Junk
Creator:-xNaCLx-
Version:Saltaiko@NaCL
Source:BMS
Tags:
BeatmapID:1351816
BeatmapSetID:637176

[Difficulty]
HPDrainRate:5
CircleSize:5
OverallDifficulty:5
ApproachRate:5
SliderMultiplier:1.4
SliderTickRate:1

[Events]
//Background and Video events
0,0,"BG.jpg",0,0
//Break Periods
//Storyboard Layer 0 (Background)
//Storyboard Layer 1 (Fail)
//Storyboard Layer 2 (Pass)
//Storyboard Layer 3 (Foreground)
//Storyboard Sound Samples

[TimingPoints]
0,451.127819548872,4,1,0,50,1,0
19849,-100,4,1,0,50,0,1
48721,-100,4,1,0,50,0,0
108270,-100,4,1,0,50,0,1
122706,-100,4,1,0,50,0,1
136240,-100,4,1,0,50,0,0
137142,-100,4,1,0,50,0,0

[HitObjects]
256,192,3609,5,8,0:0:0:0:
256,192,3834,1,8,0:0:0:0:
256,192,4060,1,0,0:0:0:0:
256,192,4285,1,0,0:0:0:0:
256,192,4511,1,8,0:0:0:0:
256,192,4962,1,0,0:0:0:0:
256,192,5187,1,8,0:0:0:0:
256,192,5413,1,0,0:0:0:0:
256,192,5639,1,8,0:0:0:0:
256,192,5864,1,8,0:0:0:0:
256,192,6090,1,0,0:0:0:0:
256,192,6315,1,0,0:0:0:0:
256,192,6541,1,0,0:0:0:0:
256,192,6654,1,0,0:0:0:0:
256,192,6766,1,8,0:0:0:0:
256,192,6879,1,0,0:0:0:0:
256,192,6992,1,0,0:0:0:0:
256,192,7105,1,8,0:0:0:0:
256,192,7218,1,8,0:0:0:0:
256,192,7669,1,0,0:0:0:0:
256,192,7894,1,0,0:0:0:0:
256,192,8007,1,8,0:0:0:0:
256,192,8120,1,0,0:0:0:0:
256,192,8571,1,8,0:0:0:0:
256,192,9022,1,0,0:0:0:0:
256,192,9248,1,0,0:0:0:0:
256,192,9360,1,0,0:0:0:0:
256,192,9473,1,8,0:0:0:0:
256,192,9699,1,8,0:0:0:0:
256,192,9924,1,0,0:0:0:0:
256,192,10150,1,8,0:0:0:0:
256,192,10263,1,0,0:0:0:0:
256,192,10375,1,0,0:0:0:0:
256,192,10601,1,8,0:0:0:0:
256,192,10827,1,8,0:0:0:0:
256,192,11052,1,8,0:0:0:0:
256,192,11278,1,0,0:0:0:0:
256,192,11503,1,0,0:0:0:0:
256,192,11729,1,8,0:0:0:0:
256,192,11954,1,0,0:0:0:0:
256,192,12067,1,8,0:0:0:0:
256,192,12180,1,0,0:0:0:0:
256,192,12406,1,8,0:0:0:0:
256,192,12631,1,0,0:0:0:0:
256,192,12857,1,8,0:0:0:0:
256,192,13082,1,8,0:0:0:0:
256,192,13308,1,0,0:0:0:0:
256,192,13533,1,0,0:0:0:0:
256,192,13759,1,0,0:0:0:0:
256,192,13872,1,0,0:0:0:0:
256,192,13984,1,8,0:0:0:0:
256,192,14097,1,0,0:0:0:0:
256,192,14210,1,0,0:0:0:0:
256,192,14323,1,8,0:0:0:0:
256,192,14436,1,8,0:0:0:0:
256,192,14887,1,0,0:0:0:0:
256,192,15112,1,0,0:0:0:0:
256,192,15225,1,0,0:0:0:0:
256,192,15338,1,8,0:0:0:0:
256,192,15789,1,0,0:0:0:0:
256,192,16240,1,8,0:0:0:0:
256,192,16466,1,0,0:0:0:0:
256,192,16578,1,0,0:0:0:0:
256,192,16691,1,8,0:0:0:0:
256,192,16917,1,0,0:0:0:0:
256,192,17142,1,8,0:0:0:0:
256,192,17255,1,0,0:0:0:0:
256,192,17368,1,0,0:0:0:0:
256,192,17481,1,8,0:0:0:0:
256,192,17593,1,8,0:0:0:0:
256,192,17706,1,0,0:0:0:0:
256,192,17819,1,8,0:0:0:0:
256,192,17932,1,0,0:0:0:0:
256,192,18045,1,8,0:0:0:0:
256,192,18157,1,0,0:0:0:0:
256,192,18270,1,0,0:0:0:0:
256,192,18496,1,8,0:0:0:0:
256,192,18721,1,0,0:0:0:0:
256,192,18834,1,8,0:0:0:0:
256,192,19060,1,0,0:0:0:0:
256,192,19172,1,8,0:0:0:0:
256,192,19285,1,0,0:0:0:0:
256,192,19398,1,8,0:0:0:0:
256,192,19849,1,8,0:0:0:0:
256,192,20075,1,8,0:0:0:0:
256,192,20300,1,0,0:0:0:0:
256,192,20526,1,0,0:0:0:0:
256,192,20751,1,8,0:0:0:0:
256,192,20977,1,0,0:0:0:0:
256,192,21090,1,8,0:0:0:0:
256,192,21203,1,0,0:0:0:0:
256,192,21428,1,8,0:0:0:0:
256,192,21654,1,0,0:0:0:0:
256,192,21879,1,8,0:0:0:0:
256,192,22105,1,8,0:0:0:0:
256,192,22330,1,0,0:0:0:0:
256,192,22556,1,0,0:0:0:0:
256,192,22781,1,0,0:0:0:0:
256,192,22894,1,0,0:0:0:0:
256,192,23007,1,8,0:0:0:0:
256,192,23120,1,0,0:0:0:0:
256,192,23233,1,0,0:0:0:0:
256,192,23345,1,8,0:0:0:0:
256,192,23458,1,8,0:0:0:0:
256,192,23684,1,8,0:0:0:0:
256,192,23909,1,0,0:0:0:0:
256,192,24135,1,0,0:0:0:0:
256,192,24248,1,0,0:0:0:0:
256,192,24360,1,8,0:0:0:0:
256,192,24586,1,8,0:0:0:0:
256,192,24812,1,0,0:0:0:0:
256,192,25037,1,8,0:0:0:0:
256,192,25150,1,8,0:0:0:0:
256,192,25263,1,0,0:0:0:0:
256,192,25488,1,0,0:0:0:0:
256,192,25714,1,8,0:0:0:0:
256,192,25939,1,8,0:0:0:0:
256,192,26165,1,0,0:0:0:0:
256,192,26503,1,8,0:0:0:0:
256,192,26616,1,8,0:0:0:0:
256,192,26842,1,0,0:0:0:0:
256,192,27067,1,8,0:0:0:0:
256,192,27293,1,8,0:0:0:0:
256,192,27518,1,0,0:0:0:0:
256,192,27744,1,0,0:0:0:0:
256,192,27969,1,8,0:0:0:0:
256,192,28195,1,0,0:0:0:0:
256,192,28308,1,8,0:0:0:0:
256,192,28421,1,0,0:0:0:0:
256,192,28646,1,8,0:0:0:0:
256,192,28872,1,0,0:0:0:0:
256,192,29097,1,8,0:0:0:0:
256,192,29323,1,8,0:0:0:0:
256,192,29548,1,0,0:0:0:0:
256,192,29774,1,0,0:0:0:0:
256,192,29999,1,8,0:0:0:0:
256,192,30112,1,0,0:0:0:0:
256,192,30225,1,8,0:0:0:0:
256,192,30338,1,0,0:0:0:0:
256,192,30451,1,0,0:0:0:0:
256,192,30563,1,8,0:0:0:0:
256,192,30676,1,8,0:0:0:0:
256,192,30902,1,8,0:0:0:0:
256,192,31127,1,0,0:0:0:0:
256,192,31353,1,0,0:0:0:0:
256,192,31466,1,0,0:0:0:0:
256,192,31578,1,8,0:0:0:0:
256,192,31804,1,8,0:0:0:0:
256,192,32030,1,0,0:0:0:0:
256,192,32255,1,8,0:0:0:0:
256,192,32481,1,8,0:0:0:0:
256,192,32706,1,8,0:0:0:0:
256,192,32819,1,8,0:0:0:0:
256,192,32932,1,0,0:0:0:0:
256,192,33157,1,8,0:0:0:0:
256,192,33383,1,12,0:0:0:0:
256,192,33609,1,0,0:0:0:0:
256,192,33721,1,8,0:0:0:0:
256,192,33834,1,0,0:0:0:0:
256,192,33947,1,0,0:0:0:0:
256,192,34060,1,0,0:0:0:0:
256,192,34172,1,8,0:0:0:0:
256,192,34285,1,8,0:0:0:0:
256,192,34736,1,0,0:0:0:0:
256,192,34962,1,0,0:0:0:0:
256,192,35075,1,8,0:0:0:0:
256,192,35187,1,8,0:0:0:0:
256,192,35413,1,0,0:0:0:0:
256,192,35639,1,8,0:0:0:0:
256,192,35864,1,8,0:0:0:0:
256,192,35977,1,0,0:0:0:0:
256,192,36090,1,0,0:0:0:0:
256,192,36315,1,0,0:0:0:0:
256,192,36541,1,8,0:0:0:0:
256,192,36766,1,8,0:0:0:0:
256,192,36879,1,8,0:0:0:0:
256,192,36992,1,0,0:0:0:0:
256,192,37218,1,8,0:0:0:0:
256,192,37330,1,0,0:0:0:0:
256,192,37443,1,8,0:0:0:0:
256,192,37556,1,0,0:0:0:0:
256,192,37669,1,0,0:0:0:0:
256,192,37781,1,8,0:0:0:0:
256,192,37894,1,8,0:0:0:0:
256,192,38120,1,8,0:0:0:0:
256,192,38345,1,0,0:0:0:0:
256,192,38571,1,0,0:0:0:0:
256,192,38684,1,0,0:0:0:0:
256,192,38796,1,8,0:0:0:0:
256,192,39022,1,0,0:0:0:0:
256,192,39248,1,8,0:0:0:0:
256,192,39473,1,8,0:0:0:0:
256,192,39586,1,8,0:0:0:0:
256,192,39699,1,0,0:0:0:0:
256,192,39924,1,0,0:0:0:0:
256,192,40150,1,8,0:0:0:0:
256,192,40375,1,8,0:0:0:0:
256,192,40601,1,0,0:0:0:0:
256,192,40827,1,8,0:0:0:0:
256,192,40939,1,0,0:0:0:0:
256,192,41052,1,8,0:0:0:0:
256,192,41165,1,0,0:0:0:0:
256,192,41278,1,0,0:0:0:0:
256,192,41390,1,8,0:0:0:0:
256,192,41503,1,8,0:0:0:0:
256,192,41954,1,8,0:0:0:0:
256,192,42180,1,0,0:0:0:0:
256,192,42293,1,0,0:0:0:0:
256,192,42406,1,8,0:0:0:0:
256,192,42631,1,0,0:0:0:0:
256,192,42857,1,8,0:0:0:0:
256,192,43082,1,8,0:0:0:0:
256,192,43195,1,8,0:0:0:0:
256,192,43308,1,0,0:0:0:0:
256,192,43533,1,0,0:0:0:0:
256,192,43759,1,8,0:0:0:0:
256,192,43984,1,8,0:0:0:0:
256,192,44097,1,0,0:0:0:0:
256,192,44210,1,8,0:0:0:0:
256,192,44436,1,0,0:0:0:0:
256,192,44548,1,8,0:0:0:0:
256,192,44661,1,0,0:0:0:0:
256,192,44774,1,0,0:0:0:0:
256,192,44887,1,0,0:0:0:0:
256,192,44999,1,8,0:0:0:0:
256,192,45112,1,8,0:0:0:0:
256,192,45338,1,8,0:0:0:0:
256,192,45563,1,0,0:0:0:0:
256,192,45789,1,0,0:0:0:0:
256,192,45902,1,0,0:0:0:0:
256,192,46015,1,8,0:0:0:0:
256,192,46240,1,8,0:0:0:0:
256,192,46466,1,0,0:0:0:0:
256,192,46691,1,8,0:0:0:0:
256,192,46804,1,0,0:0:0:0:
256,192,46917,1,8,0:0:0:0:
256,192,47142,1,8,0:0:0:0:
256,192,47368,1,0,0:0:0:0:
256,192,47593,1,8,0:0:0:0:
256,192,47819,1,8,0:0:0:0:
256,192,48045,1,0,0:0:0:0:
256,192,48157,1,8,0:0:0:0:
256,192,48270,1,8,0:0:0:0:
256,192,48383,1,0,0:0:0:0:
256,192,48496,1,0,0:0:0:0:
256,192,48609,1,8,0:0:0:0:
256,192,48721,1,0,0:0:0:0:
256,192,48947,1,0,0:0:0:0:
256,192,49172,1,8,0:0:0:0:
256,192,49398,1,0,0:0:0:0:
256,192,49511,1,8,0:0:0:0:
256,192,49736,1,8,0:0:0:0:
256,192,49962,1,0,0:0:0:0:
256,192,50075,1,8,0:0:0:0:
256,192,50300,1,8,0:0:0:0:
256,192,50526,1,0,0:0:0:0:
256,192,50751,1,8,0:0:0:0:
256,192,50977,1,8,0:0:0:0:
256,192,51203,1,0,0:0:0:0:
256,192,51315,1,0,0:0:0:0:
256,192,51541,1,8,0:0:0:0:
256,192,51766,1,8,0:0:0:0:
256,192,51879,1,0,0:0:0:0:
256,192,52105,1,8,0:0:0:0:
256,192,52330,1,8,0:0:0:0:
256,192,52556,1,0,0:0:0:0:
256,192,52781,1,8,0:0:0:0:
256,192,53007,1,0,0:0:0:0:
256,192,53120,1,8,0:0:0:0:
256,192,53345,1,8,0:0:0:0:
256,192,53571,1,0,0:0:0:0:
256,192,53684,1,8,0:0:0:0:
256,192,53909,1,8,0:0:0:0:
256,192,54135,1,0,0:0:0:0:
256,192,54360,1,0,0:0:0:0:
256,192,54586,1,0,0:0:0:0:
256,192,54699,1,0,0:0:0:0:
256,192,54812,1,8,0:0:0:0:
256,192,54924,1,0,0:0:0:0:
256,192,55150,1,8,0:0:0:0:
256,192,55263,1,0,0:0:0:0:
256,192,55488,1,8,0:0:0:0:
256,192,55714,1,0,0:0:0:0:
256,192,55827,1,0,0:0:0:0:
256,192,55939,1,8,0:0:0:0:
256,192,56165,1,0,0:0:0:0:
256,192,56390,1,8,0:0:0:0:
256,192,56616,1,0,0:0:0:0:
256,192,56729,1,8,0:0:0:0:
256,192,56842,1,0,0:0:0:0:
256,192,56954,1,8,0:0:0:0:
256,192,57180,1,0,0:0:0:0:
256,192,57293,1,8,0:0:0:0:
256,192,57518,1,8,0:0:0:0:
256,192,57631,1,8,0:0:0:0:
256,192,57744,1,0,0:0:0:0:
256,192,57969,1,0,0:0:0:0:
256,192,58195,1,8,0:0:0:0:
256,192,58421,1,0,0:0:0:0:
256,192,58533,1,8,0:0:0:0:
256,192,58646,1,0,0:0:0:0:
256,192,58759,1,0,0:0:0:0:
256,192,58984,1,8,0:0:0:0:
256,192,59097,1,8,0:0:0:0:
256,192,59323,1,0,0:0:0:0:
256,192,59436,1,0,0:0:0:0:
256,192,59548,1,8,0:0:0:0:
256,192,59774,1,0,0:0:0:0:
256,192,59999,1,8,0:0:0:0:
256,192,60225,1,0,0:0:0:0:
256,192,60338,1,8,0:0:0:0:
256,192,60451,1,0,0:0:0:0:
256,192,60563,1,8,0:0:0:0:
256,192,60789,1,0,0:0:0:0:
256,192,60902,1,8,0:0:0:0:
256,192,61127,1,8,0:0:0:0:
256,192,61240,1,0,0:0:0:0:
256,192,61353,1,8,0:0:0:0:
256,192,61578,1,8,0:0:0:0:
256,192,61804,1,0,0:0:0:0:
256,192,61917,1,0,0:0:0:0:
256,192,62030,1,8,0:0:0:0:
256,192,62142,1,0,0:0:0:0:
256,192,62255,1,8,0:0:0:0:
256,192,62368,1,8,0:0:0:0:
256,192,62481,1,0,0:0:0:0:
256,192,62593,1,0,0:0:0:0:
256,192,62706,1,8,0:0:0:0:
256,192,62819,1,0,0:0:0:0:
256,192,62932,1,0,0:0:0:0:
256,192,63157,1,12,0:0:0:0:
256,192,63383,1,0,0:0:0:0:
256,192,63496,1,0,0:0:0:0:
256,192,63834,1,8,0:0:0:0:
256,192,64060,1,12,0:0:0:0:
256,192,64398,1,0,0:0:0:0:
256,192,64962,1,12,0:0:0:0:
256,192,65187,1,0,0:0:0:0:
256,192,65300,1,0,0:0:0:0:
256,192,65526,1,8,0:0:0:0:
256,192,65639,1,8,0:0:0:0:
256,192,65864,1,12,0:0:0:0:
256,192,66203,1,0,0:0:0:0:
256,192,66541,1,0,0:0:0:0:
256,192,66766,1,12,0:0:0:0:
256,192,66992,1,0,0:0:0:0:
256,192,67105,1,0,0:0:0:0:
256,192,67443,1,8,0:0:0:0:
256,192,67669,1,12,0:0:0:0:
256,192,68007,1,0,0:0:0:0:
256,192,68571,1,12,0:0:0:0:
256,192,68796,1,0,0:0:0:0:
256,192,68909,1,0,0:0:0:0:
256,192,69135,1,8,0:0:0:0:
256,192,69248,1,8,0:0:0:0:
256,192,69473,1,12,0:0:0:0:
256,192,69812,1,0,0:0:0:0:
256,192,70037,1,8,0:0:0:0:
256,192,70150,1,8,0:0:0:0:
256,192,70263,1,8,0:0:0:0:
256,192,70375,1,8,0:0:0:0:
256,192,70601,1,0,0:0:0:0:
256,192,70714,1,0,0:0:0:0:
256,192,71052,1,8,0:0:0:0:
256,192,71278,1,12,0:0:0:0:
256,192,71616,1,0,0:0:0:0:
256,192,71954,1,0,0:0:0:0:
256,192,72180,1,12,0:0:0:0:
256,192,72406,1,0,0:0:0:0:
256,192,72518,1,0,0:0:0:0:
256,192,72744,1,8,0:0:0:0:
256,192,72857,1,8,0:0:0:0:
256,192,73082,1,12,0:0:0:0:
256,192,73421,1,0,0:0:0:0:
256,192,73759,1,0,0:0:0:0:
256,192,73834,1,0,0:0:0:0:
256,192,73909,1,0,0:0:0:0:
256,192,73984,1,8,0:0:0:0:
256,192,74210,1,0,0:0:0:0:
256,192,74323,1,0,0:0:0:0:
256,192,74661,1,8,0:0:0:0:
256,192,74887,1,12,0:0:0:0:
256,192,75225,1,0,0:0:0:0:
256,192,75563,1,0,0:0:0:0:
256,192,75789,1,12,0:0:0:0:
256,192,76015,1,0,0:0:0:0:
256,192,76127,1,0,0:0:0:0:
256,192,76466,1,8,0:0:0:0:
256,192,76691,1,0,0:0:0:0:
256,192,76804,1,0,0:0:0:0:
256,192,77030,1,0,0:0:0:0:
256,192,77255,1,0,0:0:0:0:
256,192,77368,1,0,0:0:0:0:
256,192,77593,1,12,0:0:0:0:
256,192,77819,1,0,0:0:0:0:
256,192,77932,1,0,0:0:0:0:
256,192,78157,1,8,0:0:0:0:
256,192,78270,1,0,0:0:0:0:
256,192,78383,1,8,0:0:0:0:
256,192,78496,1,8,0:0:0:0:
256,192,78721,1,0,0:0:0:0:
256,192,78834,1,8,0:0:0:0:
256,192,79060,1,0,0:0:0:0:
256,192,79172,1,0,0:0:0:0:
256,192,79398,1,8,0:0:0:0:
256,192,79624,1,0,0:0:0:0:
256,192,79736,1,0,0:0:0:0:
256,192,79962,1,8,0:0:0:0:
256,192,80075,1,8,0:0:0:0:
256,192,80187,1,8,0:0:0:0:
256,192,80300,1,8,0:0:0:0:
256,192,80526,1,0,0:0:0:0:
256,192,80639,1,8,0:0:0:0:
256,192,80751,1,0,0:0:0:0:
256,192,80977,1,0,0:0:0:0:
256,192,81052,1,0,0:0:0:0:
256,192,81127,1,0,0:0:0:0:
256,192,81203,1,8,0:0:0:0:
256,192,81428,1,0,0:0:0:0:
256,192,81541,1,0,0:0:0:0:
256,192,81766,1,8,0:0:0:0:
256,192,81879,1,0,0:0:0:0:
256,192,81992,1,8,0:0:0:0:
256,192,82105,1,8,0:0:0:0:
256,192,82330,1,8,0:0:0:0:
256,192,82443,1,0,0:0:0:0:
256,192,82669,1,8,0:0:0:0:
256,192,82781,1,0,0:0:0:0:
256,192,82894,1,0,0:0:0:0:
256,192,83007,1,8,0:0:0:0:
256,192,83233,1,0,0:0:0:0:
256,192,83345,1,0,0:0:0:0:
256,192,83571,1,8,0:0:0:0:
256,192,83684,1,8,0:0:0:0:
256,192,83796,1,0,0:0:0:0:
256,192,83909,1,8,0:0:0:0:
256,192,84135,1,0,0:0:0:0:
256,192,84248,1,0,0:0:0:0:
256,192,84473,1,8,0:0:0:0:
256,192,84586,1,8,0:0:0:0:
256,192,84699,1,8,0:0:0:0:
256,192,84812,1,8,0:0:0:0:
256,192,85037,1,0,0:0:0:0:
256,192,85150,1,0,0:0:0:0:
256,192,85375,1,0,0:0:0:0:
256,192,85488,1,8,0:0:0:0:
256,192,85601,1,8,0:0:0:0:
256,192,85714,1,8,0:0:0:0:
256,192,85939,1,0,0:0:0:0:
256,192,86052,1,0,0:0:0:0:
256,192,86278,1,8,0:0:0:0:
256,192,86390,1,0,0:0:0:0:
256,192,86616,1,8,0:0:0:0:
256,192,86842,1,0,0:0:0:0:
256,192,86954,1,0,0:0:0:0:
256,192,87180,1,8,0:0:0:0:
256,192,87293,1,8,0:0:0:0:
256,192,87406,1,8,0:0:0:0:
256,192,87518,1,8,0:0:0:0:
256,192,87744,1,0,0:0:0:0:
256,192,87857,1,0,0:0:0:0:
256,192,88082,1,8,0:0:0:0:
256,192,88195,1,0,0:0:0:0:
256,192,88270,1,0,0:0:0:0:
256,192,88345,1,0,0:0:0:0:
256,192,88421,1,8,0:0:0:0:
256,192,88646,1,0,0:0:0:0:
256,192,88759,1,0,0:0:0:0:
256,192,88984,1,0,0:0:0:0:
256,192,89097,1,8,0:0:0:0:
256,192,89210,1,0,0:0:0:0:
256,192,89323,1,8,0:0:0:0:
256,192,89548,1,0,0:0:0:0:
256,192,89661,1,0,0:0:0:0:
256,192,89887,1,0,0:0:0:0:
256,192,89999,1,0,0:0:0:0:
256,192,90225,1,8,0:0:0:0:
256,192,90451,1,0,0:0:0:0:
256,192,90563,1,0,0:0:0:0:
256,192,90676,1,8,0:0:0:0:
256,192,90902,1,0,0:0:0:0:
256,192,91015,1,0,0:0:0:0:
256,192,91127,1,8,0:0:0:0:
256,192,91278,1,8,0:0:0:0:
256,192,91428,1,8,0:0:0:0:
256,192,91578,1,12,0:0:0:0:
256,192,92030,1,0,0:0:0:0:
256,192,92255,1,0,0:0:0:0:
256,192,92481,1,8,0:0:0:0:
256,192,92706,1,0,0:0:0:0:
256,192,92819,1,8,0:0:0:0:
256,192,93045,1,8,0:0:0:0:
256,192,93270,1,0,0:0:0:0:
256,192,93383,1,8,0:0:0:0:
256,192,93609,1,8,0:0:0:0:
256,192,93834,1,0,0:0:0:0:
256,192,94059,1,8,0:0:0:0:
256,192,94285,1,8,0:0:0:0:
256,192,94511,1,0,0:0:0:0:
256,192,94623,1,0,0:0:0:0:
256,192,94849,1,8,0:0:0:0:
256,192,95074,1,8,0:0:0:0:
256,192,95187,1,0,0:0:0:0:
256,192,95413,1,8,0:0:0:0:
256,192,95638,1,8,0:0:0:0:
256,192,95864,1,0,0:0:0:0:
256,192,96089,1,8,0:0:0:0:
256,192,96315,1,0,0:0:0:0:
256,192,96428,1,8,0:0:0:0:
256,192,96653,1,8,0:0:0:0:
256,192,96879,1,0,0:0:0:0:
256,192,96992,1,8,0:0:0:0:
256,192,97217,1,8,0:0:0:0:
256,192,97443,1,0,0:0:0:0:
256,192,97668,1,0,0:0:0:0:
256,192,97894,1,0,0:0:0:0:
256,192,98007,1,0,0:0:0:0:
256,192,98120,1,8,0:0:0:0:
256,192,98232,1,0,0:0:0:0:
256,192,98458,1,8,0:0:0:0:
256,192,98571,1,0,0:0:0:0:
256,192,98796,1,8,0:0:0:0:
256,192,99022,1,0,0:0:0:0:
256,192,99135,1,0,0:0:0:0:
256,192,99247,1,8,0:0:0:0:
256,192,99473,1,0,0:0:0:0:
256,192,99698,1,8,0:0:0:0:
256,192,99924,1,0,0:0:0:0:
256,192,100037,1,8,0:0:0:0:
256,192,100150,1,0,0:0:0:0:
256,192,100262,1,8,0:0:0:0:
256,192,100488,1,0,0:0:0:0:
256,192,100601,1,8,0:0:0:0:
256,192,100826,1,8,0:0:0:0:
256,192,100939,1,8,0:0:0:0:
256,192,101052,1,0,0:0:0:0:
256,192,101277,1,0,0:0:0:0:
256,192,101503,1,8,0:0:0:0:
256,192,101729,1,0,0:0:0:0:
256,192,101841,1,8,0:0:0:0:
256,192,101954,1,0,0:0:0:0:
256,192,102067,1,0,0:0:0:0:
256,192,102292,1,8,0:0:0:0:
256,192,102405,1,8,0:0:0:0:
256,192,102631,1,0,0:0:0:0:
256,192,102744,1,0,0:0:0:0:
256,192,102856,1,8,0:0:0:0:
256,192,103082,1,0,0:0:0:0:
256,192,103307,1,8,0:0:0:0:
256,192,103533,1,0,0:0:0:0:
256,192,103646,1,8,0:0:0:0:
256,192,103759,1,0,0:0:0:0:
256,192,103871,1,8,0:0:0:0:
256,192,104097,1,0,0:0:0:0:
256,192,104210,1,8,0:0:0:0:
256,192,104435,1,8,0:0:0:0:
256,192,104548,1,0,0:0:0:0:
256,192,104661,1,8,0:0:0:0:
256,192,104886,1,8,0:0:0:0:
256,192,105112,1,0,0:0:0:0:
256,192,105225,1,0,0:0:0:0:
256,192,105338,1,8,0:0:0:0:
256,192,105450,1,0,0:0:0:0:
256,192,105563,1,8,0:0:0:0:
256,192,105676,1,8,0:0:0:0:
256,192,105789,1,0,0:0:0:0:
256,192,105901,1,0,0:0:0:0:
256,192,106014,1,8,0:0:0:0:
256,192,106240,1,8,0:0:0:0:
256,192,106353,1,0,0:0:0:0:
256,192,106466,1,8,0:0:0:0:
256,192,106578,1,8,0:0:0:0:
256,192,106691,1,8,0:0:0:0:
256,192,106917,1,8,0:0:0:0:
256,192,107142,1,8,0:0:0:0:
256,192,107255,1,8,0:0:0:0:
256,192,107481,1,8,0:0:0:0:
256,192,107593,1,8,0:0:0:0:
256,192,107706,1,0,0:0:0:0:
256,192,107819,1,8,0:0:0:0:
256,192,108270,1,12,0:0:0:0:
256,192,108496,1,8,0:0:0:0:
256,192,108721,1,0,0:0:0:0:
256,192,108947,1,0,0:0:0:0:
256,192,109060,1,0,0:0:0:0:
256,192,109172,1,8,0:0:0:0:
256,192,109398,1,0,0:0:0:0:
256,192,109511,1,8,0:0:0:0:
256,192,109624,1,0,0:0:0:0:
256,192,109849,1,8,0:0:0:0:
256,192,110075,1,0,0:0:0:0:
256,192,110300,1,8,0:0:0:0:
256,192,110413,1,8,0:0:0:0:
256,192,110526,1,8,0:0:0:0:
256,192,110751,1,0,0:0:0:0:
256,192,110977,1,0,0:0:0:0:
256,192,111202,1,0,0:0:0:0:
256,192,111315,1,0,0:0:0:0:
256,192,111428,1,8,0:0:0:0:
256,192,111541,1,0,0:0:0:0:
256,192,111654,1,0,0:0:0:0:
256,192,111766,1,8,0:0:0:0:
256,192,111879,1,8,0:0:0:0:
256,192,112105,1,8,0:0:0:0:
256,192,112330,1,0,0:0:0:0:
256,192,112556,1,0,0:0:0:0:
256,192,112669,1,0,0:0:0:0:
256,192,112781,1,8,0:0:0:0:
256,192,113007,1,8,0:0:0:0:
256,192,113233,1,0,0:0:0:0:
256,192,113458,1,8,0:0:0:0:
256,192,113571,1,8,0:0:0:0:
256,192,113684,1,0,0:0:0:0:
256,192,113909,1,0,0:0:0:0:
256,192,114135,1,8,0:0:0:0:
256,192,114360,1,8,0:0:0:0:
256,192,114586,1,0,0:0:0:0:
256,192,114924,1,8,0:0:0:0:
256,192,115037,1,8,0:0:0:0:
256,192,115263,1,0,0:0:0:0:
256,192,115488,1,8,0:0:0:0:
256,192,115714,1,8,0:0:0:0:
256,192,115939,1,0,0:0:0:0:
256,192,116165,1,0,0:0:0:0:
256,192,116278,1,0,0:0:0:0:
256,192,116390,1,8,0:0:0:0:
256,192,116616,1,0,0:0:0:0:
256,192,116729,1,8,0:0:0:0:
256,192,116842,1,0,0:0:0:0:
256,192,117067,1,8,0:0:0:0:
256,192,117293,1,0,0:0:0:0:
256,192,117518,1,8,0:0:0:0:
256,192,117631,1,8,0:0:0:0:
256,192,117744,1,8,0:0:0:0:
256,192,117969,1,0,0:0:0:0:
256,192,118195,1,0,0:0:0:0:
256,192,118420,1,8,0:0:0:0:
256,192,118533,1,0,0:0:0:0:
256,192,118646,1,8,0:0:0:0:
256,192,118759,1,0,0:0:0:0:
256,192,118872,1,0,0:0:0:0:
256,192,118984,1,8,0:0:0:0:
256,192,119097,1,8,0:0:0:0:
256,192,119323,1,8,0:0:0:0:
256,192,119548,1,0,0:0:0:0:
256,192,119774,1,0,0:0:0:0:
256,192,119887,1,0,0:0:0:0:
256,192,119999,1,8,0:0:0:0:
256,192,120225,1,8,0:0:0:0:
256,192,120451,1,0,0:0:0:0:
256,192,120676,1,8,0:0:0:0:
256,192,120902,1,8,0:0:0:0:
256,192,121127,1,8,0:0:0:0:
256,192,121240,1,8,0:0:0:0:
256,192,121353,1,0,0:0:0:0:
256,192,121578,1,8,0:0:0:0:
256,192,121804,1,12,0:0:0:0:
256,192,122030,1,0,0:0:0:0:
256,192,122142,1,8,0:0:0:0:
256,192,122255,1,0,0:0:0:0:
256,192,122368,1,0,0:0:0:0:
256,192,122481,1,0,0:0:0:0:
256,192,122593,1,8,0:0:0:0:
256,192,122706,1,8,0:0:0:0:
256,192,123157,1,0,0:0:0:0:
256,192,123383,1,0,0:0:0:0:
256,192,123496,1,8,0:0:0:0:
256,192,123608,1,8,0:0:0:0:
256,192,123834,1,0,0:0:0:0:
256,192,124060,1,8,0:0:0:0:
256,192,124285,1,8,0:0:0:0:
256,192,124398,1,0,0:0:0:0:
256,192,124511,1,0,0:0:0:0:
256,192,124736,1,0,0:0:0:0:
256,192,124962,1,8,0:0:0:0:
256,192,125187,1,8,0:0:0:0:
256,192,125300,1,8,0:0:0:0:
256,192,125413,1,0,0:0:0:0:
256,192,125639,1,8,0:0:0:0:
256,192,125751,1,0,0:0:0:0:
256,192,125864,1,8,0:0:0:0:
256,192,125977,1,0,0:0:0:0:
256,192,126090,1,0,0:0:0:0:
256,192,126202,1,8,0:0:0:0:
256,192,126315,1,8,0:0:0:0:
256,192,126541,1,8,0:0:0:0:
256,192,126766,1,0,0:0:0:0:
256,192,126992,1,0,0:0:0:0:
256,192,127105,1,0,0:0:0:0:
256,192,127217,1,8,0:0:0:0:
256,192,127443,1,0,0:0:0:0:
256,192,127669,1,8,0:0:0:0:
256,192,127894,1,8,0:0:0:0:
256,192,128007,1,8,0:0:0:0:
256,192,128120,1,0,0:0:0:0:
256,192,128345,1,0,0:0:0:0:
256,192,128571,1,8,0:0:0:0:
256,192,128796,1,8,0:0:0:0:
256,192,129022,1,0,0:0:0:0:
256,192,129248,1,8,0:0:0:0:
256,192,129360,1,0,0:0:0:0:
256,192,129473,1,8,0:0:0:0:
256,192,129586,1,0,0:0:0:0:
256,192,129699,1,0,0:0:0:0:
256,192,129811,1,8,0:0:0:0:
256,192,129924,1,8,0:0:0:0:
256,192,130375,1,8,0:0:0:0:
256,192,130601,1,0,0:0:0:0:
256,192,130714,1,0,0:0:0:0:
256,192,130827,1,8,0:0:0:0:
256,192,131052,1,0,0:0:0:0:
256,192,131165,1,8,0:0:0:0:
256,192,131390,1,0,0:0:0:0:
256,192,131503,1,8,0:0:0:0:
256,192,131616,1,0,0:0:0:0:
256,192,131729,1,8,0:0:0:0:
256,192,131954,1,0,0:0:0:0:
256,192,132180,1,8,0:0:0:0:
256,192,132406,1,8,0:0:0:0:
256,192,132518,1,8,0:0:0:0:
256,192,132631,1,0,0:0:0:0:
256,192,132744,1,0,0:0:0:0:
256,192,132857,1,8,0:0:0:0:
256,192,133082,1,8,0:0:0:0:
256,192,133308,1,8,0:0:0:0:
256,192,133421,1,0,0:0:0:0:
256,192,133533,1,8,0:0:0:0:
256,192,133984,1,0,0:0:0:0:
256,192,134210,1,0,0:0:0:0:
256,192,134285,1,0,0:0:0:0:
256,192,134360,1,0,0:0:0:0:
256,192,134436,1,8,0:0:0:0:
256,192,134887,1,8,0:0:0:0:
256,192,135112,1,0,0:0:0:0:
256,192,135187,1,0,0:0:0:0:
256,192,135263,1,0,0:0:0:0:
256,192,135338,1,8,0:0:0:0:
256,192,135563,1,8,0:0:0:0:
256,192,135639,1,8,0:0:0:0:
256,192,135714,1,8,0:0:0:0:
256,192,135789,1,0,0:0:0:0:
256,192,136015,1,8,0:0:0:0:
256,192,136127,1,8,0:0:0:0:
256,192,136240,1,8,0:0:0:0:
256,192,136466,1,0,0:0:0:0:
256,192,136691,1,12,0:0:0:0:
