osu file format v14

[General]
AudioFilename: audio.mp3
AudioLeadIn: 0
PreviewTime: 102398
Countdown: 0
SampleSet: Soft
StackLeniency: 0.6
Mode: 0
LetterboxInBreaks: 0
WidescreenStoryboard: 1

[Editor]
Bookmarks: 66826,73684
DistanceSpacing: 1
BeatDivisor: 4
GridSize: 4
TimelineZoom: 1

[Metadata]
Title:Aihana
TitleUnicode:Aihana
Artist:Junk
ArtistUnicode:Junk
Creator:yf_bmp
Version:Normal
Source:THE BMS OF FIGHTERS 2009 - revolutionary battles -
Tags:featured artists fa mappers' guild mpg instrumental electronic love edit uplifting trance BOF2009 LOVEPLUS Takane Manaka 高嶺 愛花
BeatmapID:4238112
BeatmapSetID:2023412

[Difficulty]
HPDrainRate:4
CircleSize:3.5
OverallDifficulty:4.5
ApproachRate:6
SliderMultiplier:1.2
SliderTickRate:1

[Events]
//Background and Video events
0,0,"bg.jpg",0,0
//Break Periods
2,56741,58491
2,63384,65134
2,70455,72205
2,73883,75848
//Storyboard Layer 0 (Background)
//Storyboard Layer 1 (Fail)
//Storyboard Layer 2 (Pass)
//Storyboard Layer 3 (Foreground)
//Storyboard Layer 4 (Overlay)
//Storyboard Sound Samples
Sample,45791,0,"soft-hitfinish.ogg",80
Sample,59505,0,"soft-hitfinish.ogg",80
Sample,75391,0,"voice01.ogg",100
Sample,80112,0,"voice05.ogg",100
Sample,82255,0,"voice02.ogg",100
Sample,89858,0,"voice03.ogg",100
Sample,101112,0,"voice04.ogg",100

[TimingPoints]
1684,428.571428571429,4,2,1,80,1,0
42826,-100,4,2,1,80,0,1
56541,-100,4,2,1,80,0,0
104541,-100,4,2,1,86,0,1
117398,-100,4,2,1,86,0,0
118255,-100,4,2,1,86,0,1
131969,-100,4,2,1,86,0,0

[Colours]
Combo1 : 217,186,79
Combo2 : 130,117,189
Combo3 : 102,170,150
Combo4 : 185,81,146

[HitObjects]
0,236,1684,5,4,1:0:0:0:
40,348,2112,1,0,1:0:0:0:
96,244,2541,1,0,1:0:0:0:
136,356,2969,1,0,1:0:0:0:
192,252,3398,1,0,1:0:0:0:
232,364,3826,1,0,1:0:0:0:
288,260,4255,1,0,1:0:0:0:
328,368,4684,2,0,P|360:352|376:324,1,60,0|0,1:0|2:0,2:0:0:0:
384,292,5112,5,0,1:0:0:0:
496,252,5541,1,0,1:0:0:0:
392,196,5969,1,0,1:0:0:0:
504,156,6398,1,0,1:0:0:0:
400,100,6826,1,0,1:0:0:0:
512,60,7255,1,0,1:0:0:0:
408,4,7684,1,0,1:0:0:0:
296,40,8112,2,0,P|284:68|260:88,1,60,0|0,1:0|1:0,2:0:0:0:
216,96,8541,5,0,1:0:0:0:
100,80,8969,2,0,P|63:120|81:197,1,120,8|0,1:0|1:0,2:0:0:0:
128,196,9612,1,0,3:0:0:0:
128,196,9826,1,8,1:0:0:0:
240,236,10255,5,0,1:0:0:0:
356,224,10684,2,0,P|393:264|375:341,1,120,8|0,1:0|1:0,2:0:0:0:
328,340,11326,1,0,3:0:0:0:
328,340,11541,1,8,1:0:0:0:
224,280,11969,6,1,L|216:192,1,60,0|0,1:0|3:0,2:0:0:0:
218,163,12398,2,1,L|224:104,2,60,8|0|0,1:0|3:0|1:0,2:0:0:0:
164,192,13041,1,0,3:0:0:0:
104,192,13255,2,0,L|36:192,2,60,8|0|0,1:0|3:0|2:0,2:0:0:0:
76,192,15398,5,4,1:0:0:0:
32,152,15612,2,1,P|33:106|83:64,1,90,0|0,3:0|3:0,2:0:0:0:
120,72,16148,1,0,3:0:0:0:
208,152,16576,2,0,B|174:159|174:159|156:148|156:148|123:155,1,90,0|0,3:0|3:0,2:0:0:0:
76,192,17112,5,0,1:0:0:0:
32,232,17326,2,1,P|33:278|83:320,1,90,0|0,3:0|3:0,2:0:0:0:
120,312,17862,1,0,3:0:0:0:
220,244,18291,2,0,B|254:237|254:237|272:248|272:248|305:241,1,90,0|0,3:0|3:0,2:0:0:0:
316,180,18826,5,0,1:0:0:0:
272,140,19041,2,1,P|273:94|323:52,1,90,0|0,3:0|3:0,2:0:0:0:
360,60,19576,1,0,3:0:0:0:
472,104,20005,2,0,B|479:138|479:138|468:156|468:156|475:189,1,90,0|0,3:0|3:0,2:0:0:0:
428,228,20541,5,0,1:0:0:0:
472,268,20755,2,1,P|471:314|421:356,1,90,0|0,3:0|3:0,2:0:0:0:
384,348,21291,1,0,3:0:0:0:
272,304,21719,2,0,B|265:270|265:270|276:252|276:252|269:219,1,90,0|0,2:0|1:0,2:0:0:0:
212,204,22255,5,0,1:0:0:0:
159,231,22469,2,0,P|129:198|132:165,1,60,0|8,3:0|1:0,2:0:0:0:
64,80,23112,1,0,1:0:0:0:
100,32,23326,2,0,L|16:24,2,60,0|8|0,3:0|1:0|3:0,2:0:0:0:
152,64,23969,5,0,1:0:0:0:
205,37,24184,2,0,P|234:69|231:102,1,60,0|8,3:0|1:0,2:0:0:0:
212,204,24826,1,0,1:0:0:0:
264,236,25041,2,0,L|348:228,2,60,0|8|0,3:0|1:0|3:0,2:0:0:0:
228,284,25684,5,0,1:0:0:0:
272,324,25898,2,0,P|303:328|332:317,1,60,0|8,3:0|1:0,2:0:0:0:
436,264,26541,1,0,1:0:0:0:
404,212,26755,2,0,L|412:128,2,60,0|8|0,3:0|1:0|3:0,2:0:0:0:
344,224,27398,5,0,1:0:0:0:
300,184,27612,2,0,L|168:196,1,120,0|0,3:0|2:0,2:0:0:0:
148,244,28255,1,0,1:0:0:0:
32,36,29112,5,4,1:0:0:0:
92,44,29326,2,0,L|110:-4,2,30,0|0|8,3:0|3:0|1:0,2:0:0:0:
136,156,29969,2,0,L|172:60,2,90,0|0|0,1:0|3:0|3:0,2:0:0:0:
84,184,30826,5,0,1:0:0:0:
92,244,31041,2,0,L|44:262,2,30,0|0|8,3:0|3:0|1:0,2:0:0:0:
204,288,31684,2,0,L|108:324,2,90,0|0|0,1:0|3:0|3:0,2:0:0:0:
244,332,32541,5,0,1:0:0:0:
304,324,32755,2,0,L|322:372,2,30,0|0|8,3:0|3:0|1:0,2:0:0:0:
348,212,33398,2,0,L|384:308,2,90,0|0|0,1:0|3:0|3:0,2:0:0:0:
296,184,34255,5,0,1:0:0:0:
304,124,34469,2,0,L|256:106,2,30,0|0|8,3:0|3:0|1:0,2:0:0:0:
416,80,35112,2,0,L|320:44,2,90,0|0|0,1:0|3:0|1:0,2:0:0:0:
492,160,36184,5,0,3:0:0:0:
436,184,36398,2,0,L|428:252,1,60,8|0,1:0|2:0,2:0:0:0:
456,296,36826,2,0,P|409:296|344:312,1,90,0|0,1:0|3:0,2:0:0:0:
316,376,37469,1,0,3:0:0:0:
256,272,37898,5,0,3:0:0:0:
200,248,38112,2,0,L|192:180,1,60,8|0,1:0|2:0,2:0:0:0:
220,136,38541,2,0,P|173:136|108:120,1,90,0|0,1:0|3:0,2:0:0:0:
60,72,39184,1,0,3:0:0:0:
20,184,39612,5,0,3:0:0:0:
76,208,39826,2,0,L|84:276,1,60,8|0,1:0|2:0,2:0:0:0:
56,320,40255,2,0,P|103:320|168:336,1,90,0|0,1:0|3:0,2:0:0:0:
236,320,40898,1,0,3:0:0:0:
216,264,41112,5,0,1:0:0:0:
196,208,41326,1,8,3:0:0:0:
252,184,41541,2,0,L|260:116,1,60,8|8,2:1|2:3,2:0:0:0:
284,72,41969,2,0,P|237:72|180:44,2,90,8|8|10,2:3|2:3|2:3,2:0:0:0:
332,36,42826,5,6,1:0:0:0:
384,64,43041,2,0,P|388:46|424:-8,1,60,0|8,3:0|1:0,2:0:0:0:
468,20,43469,2,0,L|516:16,2,30,0|0|0,2:0|3:0|1:0,2:0:0:0:
488,108,44005,2,0,P|488:147|464:200,1,90,0|0,3:0|3:0,2:0:0:0:
416,224,44541,5,0,1:0:0:0:
356,212,44755,2,0,P|352:194|316:140,1,60,0|8,3:0|1:0,2:0:0:0:
272,168,45184,2,0,L|224:164,2,30,0|0|0,2:0|3:0|1:0,2:0:0:0:
212,272,45826,6,0,B|191:272|183:279|183:279|183:268|172:253,1,60,10|2,1:0|3:1,2:0:0:0:
136,136,46469,6,0,P|132:118|96:64,1,60,0|8,3:0|1:0,2:0:0:0:
52,92,46898,2,0,L|4:88,2,30,0|0|0,2:0|3:0|1:0,2:0:0:0:
32,180,47434,2,0,P|32:219|56:272,1,90,0|2,3:0|3:1,2:0:0:0:
132,352,48184,6,0,P|108:360|76:380,2,60,0|8|2,3:0|1:0|2:1,2:0:0:0:
232,280,49041,1,2,2:1:0:0:
256,336,49255,1,10,1:0:0:0:
312,316,49469,1,2,1:0:0:0:
336,372,49684,1,0,1:0:0:0:
456,364,50112,5,8,1:0:0:0:
408,324,50326,2,0,P|396:312|384:280,2,30,0|0|0,2:0|3:0|1:0,2:0:0:0:
488,276,50862,2,0,P|488:237|464:184,1,90,0|0,3:0|3:0,2:0:0:0:
416,160,51398,5,0,1:0:0:0:
356,172,51612,2,0,P|352:190|316:244,1,60,0|8,3:0|1:0,2:0:0:0:
272,220,52041,1,0,2:0:0:0:
184,140,52469,6,0,B|163:140|155:147|155:147|155:136|144:121,2,60,2|10|2,3:1|1:0|3:1,2:0:0:0:
136,248,53326,6,0,P|132:266|96:320,1,60,0|8,3:0|1:0,2:0:0:0:
52,292,53755,2,0,L|4:296,2,30,0|0|0,2:0|3:0|1:0,2:0:0:0:
32,204,54291,2,0,P|32:165|56:112,1,90,0|2,3:0|3:1,2:0:0:0:
96,80,54826,5,0,1:0:0:0:
308,192,55684,6,0,L|356:188,1,30,0|0,1:0|1:0,2:0:0:0:
396,184,56005,1,0,1:0:0:0:
364,332,56541,1,4,1:0:0:0:
40,60,59541,5,2,2:0:0:0:
48,120,59755,1,2,3:0:0:0:
48,120,61469,5,2,3:1:0:0:
20,360,62326,1,2,2:3:0:0:
140,376,62755,5,2,3:0:0:0:
188,340,62969,1,6,2:3:0:0:
148,296,63184,1,2,3:0:0:0:
372,8,66184,5,2,3:0:0:0:
316,44,66398,1,6,2:3:0:0:
364,88,66612,1,2,3:0:0:0:
64,188,68326,5,2,3:0:0:0:
256,320,69612,5,10,2:3:0:0:
284,268,69826,1,14,2:3:0:0:
228,244,70041,1,2,3:1:0:0:
256,192,70255,5,6,1:0:0:0:
288,80,73255,5,2,2:1:0:0:
224,80,73469,2,0,L|176:80,2,30,2|2|6,2:1|2:1|1:0,2:0:0:0:
384,260,76898,6,0,L|396:212,2,30,2|2|2,2:1|2:1|2:1,2:0:0:0:
472,192,78612,6,0,L|508:192,2,30,2|2|2,2:1|2:1|2:1,2:0:0:0:
336,76,79469,2,0,B|292:-2|292:-2|248:76,1,180,2|2,2:1|2:1,2:0:0:0:
216,192,80541,5,2,2:1:0:0:
40,192,81184,2,0,L|4:192,2,30,2|2|2,2:1|2:1|2:1,2:0:0:0:
128,172,83755,6,0,L|140:124,2,30,2|2|2,2:1|2:1|2:1,2:0:0:0:
256,44,84612,1,2,2:1:0:0:
256,344,85684,1,2,2:1:0:0:
376,245,86326,1,2,2:1:0:0:
212,172,86969,1,2,2:1:0:0:
192,292,87398,5,6,1:0:0:0:
104,272,87719,2,0,P|108:232|104:208,2,60,0|0|0,3:0|3:0|3:0,2:0:0:0:
16,252,88469,2,0,P|13:235|40:128,1,120,0|0,3:0|3:0,2:0:0:0:
4,84,89112,5,0,2:0:0:0:
92,68,89434,2,0,P|88:28|92:4,2,60,0|0|0,3:0|3:0|3:0,2:0:0:0:
132,148,90184,2,0,P|149:151|256:124,1,120,0|2,3:0|3:1,2:0:0:0:
268,72,90826,5,2,2:1:0:0:
356,92,91148,2,0,P|352:132|356:156,2,60,0|0|0,3:0|3:0|3:0,2:0:0:0:
396,12,91898,2,0,P|413:9|520:36,1,120,0|2,3:0|3:1,2:0:0:0:
508,92,92541,5,2,2:1:0:0:
480,176,92862,2,0,P|484:216|480:240,2,60,0|0|0,3:0|3:0|3:0,2:0:0:0:
392,184,93612,2,0,P|395:200|372:308,1,120,0|0,2:0|2:0,2:0:0:0:
320,284,94255,6,0,B|280:304|256:348|256:348|232:304|192:284,1,180,10|10,3:0|2:3,2:0:0:0:
152,244,95112,2,0,B|108:208|132:137|199:126|229:175,1,180,10|8,2:3|3:0,2:0:0:0:
286,170,95969,2,0,B|312:126|379:137|403:208|360:244,1,180,8|8,2:3|2:3,2:0:0:0:
320,284,96826,2,0,B|280:304|256:348|256:348|232:304|192:284,1,180,8|8,2:3|3:0,2:0:0:0:
152,244,97684,1,8,2:3:0:0:
256,192,97898,12,0,101112,1:0:0:0:
168,44,104541,6,0,P|212:60|228:76,1,60,6|0,1:0|2:0,2:0:0:0:
244,124,104969,2,0,P|239:146|241:167,2,30,8|0|0,1:0|3:0|2:0,2:0:0:0:
300,100,105398,2,0,P|346:41|344:12,2,90,0|0|0,1:0|3:0|3:0,2:0:0:0:
376,192,106469,5,0,3:0:0:0:
320,214,106684,2,0,P|298:209|277:211,2,30,8|0|0,1:0|3:0|3:0,2:0:0:0:
344,270,107112,2,0,P|403:316|432:314,2,90,0|0|2,1:0|3:0|3:1,2:0:0:0:
284,260,107969,6,0,P|240:276|224:292,1,60,2|0,1:0|3:0,2:0:0:0:
208,340,108398,2,0,P|213:362|211:383,2,30,8|0|0,1:0|3:0|2:0,2:0:0:0:
152,316,108826,2,0,P|106:257|108:228,2,90,0|0|2,1:0|3:0|3:1,2:0:0:0:
224,208,109898,5,0,3:0:0:0:
168,186,110112,2,0,P|146:191|125:189,2,30,8|0|2,1:0|3:0|2:1,2:0:0:0:
192,130,110541,2,0,P|251:84|280:86,2,90,0|0|0,1:0|3:0|1:0,2:0:0:0:
132,140,111398,5,2,1:0:0:0:
28,92,111826,2,1,L|40:16,1,60,8|2,1:0|3:1,2:0:0:0:
92,4,112255,2,0,P|148:16|192:4,1,90,2|0,1:0|3:0,2:0:0:0:
256,60,112898,1,0,3:0:0:0:
336,148,113326,5,0,2:0:0:0:
394,160,113541,2,1,L|382:236,1,60,8|0,1:0|3:0,2:0:0:0:
330,248,113969,2,0,P|274:236|230:248,1,90,0|0,1:0|3:0,2:0:0:0:
166,192,114612,1,2,3:1:0:0:
116,228,114826,5,2,1:0:0:0:
12,276,115255,2,1,L|24:352,1,60,8|2,1:0|3:1,2:0:0:0:
76,364,115684,2,0,P|132:352|176:364,1,90,0|0,1:0|3:0,2:0:0:0:
240,308,116326,1,0,3:0:0:0:
284,348,116541,5,2,1:0:0:0:
340,324,116755,1,0,3:1:0:0:
340,264,116969,2,0,L|316:240,2,30,8|0|2,1:0|3:0|2:1,2:0:0:0:
392,296,117398,6,0,B|428:301|428:301|435:296|435:296|478:303,1,90,0|0,1:0|2:0,2:0:0:0:
512,152,118255,5,4,1:0:0:0:
460,120,118469,2,0,L|456:72,2,30,0|0|8,3:0|3:0|1:0,2:0:0:0:
408,152,118898,2,0,P|372:160|336:180,1,60,0|0,2:0|1:0,2:0:0:0:
292,172,119326,2,0,P|284:100|268:48,1,120,0|0,3:0|3:0,2:0:0:0:
196,148,120184,6,0,L|192:196,2,30,0|0|8,3:0|3:0|1:0,2:0:0:0:
144,116,120612,2,0,P|108:108|72:88,1,60,0|0,2:0|1:0,2:0:0:0:
28,96,121041,2,0,P|20:168|4:220,1,120,0|2,3:0|3:1,2:0:0:0:
40,264,121684,5,2,1:0:0:0:
92,232,121898,2,0,L|96:184,2,30,0|0|8,3:0|3:0|1:0,2:0:0:0:
144,264,122326,2,0,P|180:272|216:292,1,60,0|0,2:0|1:0,2:0:0:0:
260,284,122755,2,0,P|268:212|284:160,1,120,0|2,3:0|3:1,2:0:0:0:
312,52,123612,6,0,L|316:100,2,30,0|0|8,3:0|3:0|1:0,2:0:0:0:
364,20,124041,2,0,P|400:12|436:-8,1,60,0|0,2:0|1:0,2:0:0:0:
480,0,124469,2,0,P|488:72|504:124,1,120,0|0,2:0|1:0,2:0:0:0:
468,168,125112,1,2,1:0:0:0:
256,192,125326,12,0,130255,1:3:0:0:
256,312,131112,6,0,L|256:264,1,30,8|8,1:3|1:3,2:0:0:0:
256,222,131434,2,0,L|256:118,1,90,8|8,2:3|1:0,2:0:0:0:
256,72,131969,1,4,1:0:0:0:
