osu file format v14

[General]
AudioFilename: audio.mp3
AudioLeadIn: 0
PreviewTime: 102398
Countdown: 0
SampleSet: Soft
StackLeniency: 0.6
Mode: 0
LetterboxInBreaks: 0
WidescreenStoryboard: 1

[Editor]
Bookmarks: 66826,73684
DistanceSpacing: 1
BeatDivisor: 4
GridSize: 4
TimelineZoom: 1

[Metadata]
Title:Aihana
TitleUnicode:Aihana
Artist:Junk
ArtistUnicode:Junk
Creator:yf_bmp
Version:Beginner
Source:THE BMS OF FIGHTERS 2009 - revolutionary battles -
Tags:featured artists fa mappers' guild mpg instrumental electronic love edit uplifting trance BOF2009 LOVEPLUS Takane Manaka 高嶺 愛花
BeatmapID:4240950
BeatmapSetID:2023412

[Difficulty]
HPDrainRate:3
CircleSize:3
OverallDifficulty:3.2
ApproachRate:4.5
SliderMultiplier:0.9
SliderTickRate:1

[Events]
//Background and Video events
0,0,"bg.jpg",0,0
//Break Periods
2,56741,58281
2,63383,64924
2,70455,72424
2,73884,75638
//Storyboard Layer 0 (Background)
//Storyboard Layer 1 (Fail)
//Storyboard Layer 2 (Pass)
//Storyboard Layer 3 (Foreground)
//Storyboard Layer 4 (Overlay)
//Storyboard Sound Samples
Sample,45791,0,"soft-hitfinish.ogg",80
Sample,59505,0,"soft-hitfinish.ogg",80
Sample,75391,0,"voice01.ogg",100
Sample,80112,0,"voice05.ogg",100
Sample,82255,0,"voice02.ogg",100
Sample,89858,0,"voice03.ogg",100
Sample,101112,0,"voice04.ogg",100

[TimingPoints]
1684,428.571428571429,4,2,1,80,1,0
42826,-100,4,2,1,80,0,1
56541,-100,4,2,1,80,0,0
97683,-100,4,2,1,40,0,0
101112,-100,4,2,1,80,0,0
104541,-100,4,2,1,86,0,1
117398,-100,4,2,1,86,0,0
118255,-100,4,2,1,86,0,1
131969,-100,4,2,1,86,0,0

[Colours]
Combo1 : 217,186,79
Combo2 : 130,117,189
Combo3 : 102,170,150
Combo4 : 185,81,146

[HitObjects]
0,256,1684,6,0,B|-9:212|-9:212|11:172,1,90,4|0,1:0|1:0,2:0:0:0:
100,188,2541,2,0,B|109:231|109:231|88:271,1,90,0|0,1:0|1:0,2:0:0:0:
116,356,3398,1,0,1:0:0:0:
204,372,3826,1,0,1:0:0:0:
260,304,4255,2,0,B|303:294|303:294|343:315,1,90,0|0,1:0|1:0,2:0:0:0:
408,256,5112,6,0,B|448:235|448:235|491:244,1,90,0|0,1:0|1:0,2:0:0:0:
507,333,5969,2,0,B|467:353|467:353|423:344,1,90,0|0,1:0|1:0,2:0:0:0:
336,316,6826,1,0,1:0:0:0:
320,228,7255,1,0,1:0:0:0:
388,172,7684,2,0,B|398:129|398:129|377:89,1,90,0|0,1:0|1:0,2:0:0:0:
308,32,8541,6,1,P|280:40|252:32,1,45,0|0,1:0|3:0,2:0:0:0:
228,28,8969,2,0,P|191:68|220:156,1,135,8|0,1:0|3:0,2:0:0:0:
236,160,9826,1,8,1:0:0:0:
204,244,10255,6,1,P|232:252|260:244,1,45,0|0,1:0|3:0,2:0:0:0:
284,240,10684,2,0,P|321:280|292:368,1,135,8|0,1:0|3:0,2:0:0:0:
276,372,11541,1,8,1:0:0:0:
196,336,11969,6,1,P|152:340|100:324,1,90,0|8,1:0|1:0,2:0:0:0:
112,240,12826,2,1,P|68:228|24:232,1,90,0|8,1:0|1:0,2:0:0:0:
28,144,13684,1,0,2:0:0:0:
28,144,15398,5,4,1:0:0:0:
40,56,15826,2,1,P|73:27|118:23,1,90,8|0,1:0|1:0,2:0:0:0:
152,36,16469,2,0,P|184:40|232:28,2,67.5,0|0|0,3:0|3:0|1:0,2:0:0:0:
112,116,17541,2,1,P|116:160|144:194,1,90,8|0,1:0|1:0,2:0:0:0:
180,208,18184,2,0,P|212:204|260:216,2,67.5,0|0|0,3:0|3:0|1:0,2:0:0:0:
212,292,19255,6,1,P|245:321|290:325,1,90,8|0,1:0|1:0,2:0:0:0:
324,312,19898,2,0,P|356:308|404:320,2,67.5,0|0|0,3:0|3:0|1:0,2:0:0:0:
284,232,20969,2,1,P|288:188|316:154,1,90,8|0,1:0|1:0,2:0:0:0:
352,140,21612,2,0,P|384:144|416:136,1,45,0|8,3:0|1:0,2:0:0:0:
468,196,22255,1,0,1:0:0:0:
396,248,22684,6,0,P|416:264|424:292,1,45,8|0,1:0|2:0,2:0:0:0:
428,316,23112,2,0,P|400:353|347:363,2,90,0|8|0,1:0|1:0|1:0,2:0:0:0:
348,276,24398,2,0,P|322:281|296:270,1,45,8|0,1:0|2:0,2:0:0:0:
276,300,24826,2,0,P|228:300|192:280,1,90,0|8,1:0|3:0,2:0:0:0:
148,200,25684,1,0,1:0:0:0:
216,140,26112,6,0,P|236:124|244:96,1,45,8|0,1:0|2:0,2:0:0:0:
248,72,26541,2,0,P|220:35|167:25,2,90,0|8|0,1:0|1:0|1:0,2:0:0:0:
168,112,27826,2,0,P|142:107|116:118,2,45,8|0|0,1:0|2:0|1:0,2:0:0:0:
148,292,29112,6,1,L|108:328,2,45,4|0|8,1:0|3:0|1:0,2:0:0:0:
96,220,29969,2,0,L|170:152,1,90,0|8,1:0|1:0,2:0:0:0:
100,96,30826,2,1,L|48:79,2,45,0|0|8,1:0|3:0|1:0,2:0:0:0:
136,14,31684,2,0,L|231:45,1,90,0|8,1:0|1:0,2:0:0:0:
308,68,32541,6,1,L|348:32,2,45,0|0|8,1:0|3:0|1:0,2:0:0:0:
360,140,33398,2,0,L|285:207,1,90,0|8,1:0|1:0,2:0:0:0:
356,264,34255,2,1,L|407:280,2,45,0|0|8,1:0|3:0|1:0,2:0:0:0:
304,340,35112,1,0,1:0:0:0:
389,367,35541,1,8,1:0:0:0:
476,340,35969,5,0,1:0:0:0:
424,264,36398,2,0,P|424:236|440:208,1,45,8|0,1:0|2:0,2:0:0:0:
448,188,36826,2,0,B|429:147|461:140|443:99,1,90,0|8,1:0|1:0,2:0:0:0:
404,20,37684,1,0,1:0:0:0:
328,72,38112,2,0,P|300:72|272:56,1,45,8|0,1:0|2:0,2:0:0:0:
252,48,38541,2,0,B|211:67|204:35|163:53,1,90,0|8,1:0|1:0,2:0:0:0:
83,91,39398,5,0,1:0:0:0:
140,160,39826,2,0,P|140:187|125:216,1,45,8|0,1:0|2:0,2:0:0:0:
118,236,40255,2,0,B|138:276|106:284|126:324,1,90,0|8,1:0|1:0,2:0:0:0:
52,376,41112,1,0,1:0:0:0:
52,376,42826,5,6,1:0:0:0:
104,300,43255,2,0,P|148:292|192:298,1,90,8|0,1:0|1:0,2:0:0:0:
216,272,43898,2,0,P|211:247|220:216,1,45,0|8,3:0|1:0,2:0:0:0:
268,156,44541,1,0,1:0:0:0:
188,116,44969,2,0,P|196:72|190:28,1,90,8|0,1:0|1:0,2:0:0:0:
216,4,45612,2,0,P|241:9|272:0,1,45,0|10,3:0|1:0,2:0:0:0:
328,64,46255,5,0,1:0:0:0:
416,88,46684,2,0,L|512:104,2,90,8|0|8,1:0|1:0|1:0,2:0:0:0:
396,128,47755,2,0,L|384:184,1,45,2|0,2:0|1:0,2:0:0:0:
340,248,48398,2,0,L|352:304,1,45,8|2,1:0|2:1,2:0:0:0:
440,284,49041,2,0,L|496:296,2,45,2|10|2,2:1|1:0|1:0,2:0:0:0:
348,384,50112,6,0,P|304:376|260:382,1,90,8|0,1:0|1:0,2:0:0:0:
236,356,50755,2,0,P|241:331|232:300,1,45,0|8,3:0|1:0,2:0:0:0:
312,260,51398,1,0,1:0:0:0:
280,176,51826,2,0,P|236:184|192:178,1,90,8|0,1:0|1:0,2:0:0:0:
168,204,52469,2,0,P|173:229|164:260,1,45,2|10,3:1|1:0,2:0:0:0:
108,312,53112,1,0,1:0:0:0:
56,240,53541,6,0,L|40:144,2,90,8|0|8,1:0|1:0|1:0,2:0:0:0:
24,256,54612,1,2,3:1:0:0:
244,304,55684,6,0,L|308:256,1,67.5,0|0,1:0|1:0,2:0:0:0:
304,152,56541,1,4,1:0:0:0:
28,72,59541,6,0,P|37:45|40:16,1,45,2|0,2:0|3:0,2:0:0:0:
400,52,61469,5,2,3:1:0:0:
288,192,62326,1,2,2:3:0:0:
348,256,62755,2,0,L|400:248,2,45,2|6|2,3:0|2:3|3:0,2:0:0:0:
164,128,66184,6,0,L|112:136,2,45,2|6|2,3:0|2:3|3:0,2:0:0:0:
480,220,68326,5,2,3:0:0:0:
256,320,69612,2,0,L|256:368,2,45,10|14|2,2:3|2:3|3:1,2:0:0:0:
256,284,70255,5,6,1:0:0:0:
256,284,73684,5,6,1:0:0:0:
76,12,76898,6,0,P|85:39|88:68,1,45,2|2,2:1|2:1,2:0:0:0:
404,56,78612,6,0,P|413:83|416:112,1,45,2|2,2:1|2:1,2:0:0:0:
506,200,79469,2,0,B|448:220|440:168|376:192,1,135,2|2,2:1|2:1,2:0:0:0:
284,192,80541,5,2,2:1:0:0:
148,192,81184,2,0,P|119:190|90:194,1,45,2|2,2:1|2:1,2:0:0:0:
324,8,83755,6,0,P|332:24|336:64,1,45,2|2,2:1|2:1,2:0:0:0:
208,96,84612,1,2,2:1:0:0:
340,280,85684,2,0,P|408:296|452:356,2,135,2|2|2,2:1|2:1|2:1,2:0:0:0:
252,304,87398,6,0,P|256:264|156:204,1,157.5,6|0,1:0|3:0,2:0:0:0:
84,228,88576,2,0,P|81:211|92:152,1,67.5,0|0,3:0|3:0,2:0:0:0:
4,132,89326,2,0,P|34:86|87:73,1,112.5,0|0,3:0|3:0,2:0:0:0:
175,100,90291,2,0,P|178:67|171:34,1,67.5,0|2,3:0|3:1,2:0:0:0:
204,20,90826,6,0,P|244:16|304:116,1,157.5,2|0,2:1|3:0,2:0:0:0:
396,108,92005,2,0,P|393:141|400:174,1,67.5,0|2,3:0|3:1,2:0:0:0:
432,192,92541,2,0,P|441:266|382:313,1,157.5,2|0,2:1|3:0,2:0:0:0:
308,360,93719,2,0,P|275:363|242:356,1,67.5,0|0,3:0|3:0,2:0:0:0:
244,320,94255,6,1,B|208:190|134:243|69:178|102:43|224:51|257:117|257:117|289:51|411:43|444:178|379:243|314:194|289:251,1,720,2|0,3:0|2:3,2:0:0:0:
256,192,97898,12,0,101112,1:0:0:0:
16,188,104541,6,0,P|60:204|80:284,1,135,6|0,1:0|2:0,2:0:0:0:
64,316,105398,2,0,P|26:320|-4:340,2,67.5,0|0|0,1:0|3:0|3:0,2:0:0:0:
140,364,106469,2,0,P|151:353|191:340,1,45,0|8,3:0|1:0,2:0:0:0:
184,252,107112,2,0,P|206:221|238:205,1,67.5,0|0,1:0|3:0,2:0:0:0:
260,88,107969,6,0,P|276:132|356:152,1,135,2|0,1:0|2:0,2:0:0:0:
388,136,108826,2,0,P|392:98|412:68,2,67.5,0|0|2,1:0|3:0|3:1,2:0:0:0:
436,212,109898,2,0,P|425:223|412:263,1,45,0|8,3:0|1:0,2:0:0:0:
324,256,110541,2,0,P|293:278|277:310,1,67.5,0|0,1:0|3:0,2:0:0:0:
380,356,111398,6,0,P|424:352|464:324,1,90,2|8,1:0|1:0,2:0:0:0:
496,244,112255,2,0,P|492:200|464:160,1,90,2|8,1:0|1:0,2:0:0:0:
432,152,112898,1,0,3:0:0:0:
388,72,113326,2,0,P|392:37|408:-2,2,67.5,0|0|0,2:0|3:0|1:0,2:0:0:0:
312,124,114398,2,0,P|304:149|308:184,2,45,8|2|2,1:0|3:1|1:0,2:0:0:0:
240,72,115255,6,0,L|144:80,1,90,8|0,1:0|1:0,2:0:0:0:
76,136,116112,1,8,1:0:0:0:
100,224,116541,2,0,P|160:216|228:255,1,135,2|2,1:0|2:1,2:0:0:0:
240,284,117398,1,0,1:0:0:0:
88,380,118255,5,4,1:0:0:0:
16,328,118684,1,8,1:0:0:0:
60,252,119112,2,0,P|66:194|52:152,1,90,0|8,1:0|1:0,2:0:0:0:
0,100,119969,1,0,1:0:0:0:
52,28,120398,1,8,1:0:0:0:
128,72,120826,2,0,P|185:78|228:64,1,90,0|8,1:0|1:0,2:0:0:0:
240,44,121469,6,0,P|251:24|268:10,1,45,2|2,2:0|1:2,2:0:0:0:
348,56,122112,1,8,1:0:0:0:
304,132,122541,2,0,P|297:189|312:232,1,90,0|8,1:0|1:0,2:0:0:0:
276,240,123184,2,0,P|265:259|248:274,1,45,2|2,2:0|1:2,2:0:0:0:
302,347,123826,2,0,P|321:336|343:331,1,45,8|2,1:0|2:0,2:0:0:0:
372,308,124255,2,0,P|425:329|470:326,1,90,0|10,1:0|1:0,2:0:0:0:
512,256,125112,5,2,1:0:0:0:
256,192,125326,12,8,129826,1:0:0:0:
256,208,131112,6,0,B|248:180|264:176|256:141,2,67.5,8|8|8,1:3|1:3|1:0,2:0:0:0:
256,244,131969,1,4,1:0:0:0:
