osu file format v14

[General]
AudioFilename: audio_1.1_P.mp3
AudioLeadIn: 0
PreviewTime: 0
Countdown: 0
SampleSet: None
StackLeniency: 0.7
Mode: 3
LetterboxInBreaks: 0
SpecialStyle: 0
WidescreenStoryboard: 1

[Editor]
DistanceSpacing: 0.8
BeatDivisor: 4
GridSize: 8
TimelineZoom: 1.5

[Metadata]
Title:Route 29
TitleUnicode:Route 29
Artist:Junichi Masuda, Go Inchinose
ArtistUnicode:Junichi Masuda, Go Inchinose
Creator:Midgy
Version:I am Sailor Moon, the champion of justice. x1.1
Source:
Tags:
BeatmapID:1449039
BeatmapSetID:683338

[Difficulty]
HPDrainRate:8
CircleSize:4
OverallDifficulty:8
ApproachRate:5
SliderMultiplier:1.4
SliderTickRate:1

[Events]
//Background and Video events
0,0,"Digimon.Adventure.full.1563482.jpg",0,0
//Break Periods
//Storyboard Layer 0 (Background)
//Storyboard Layer 1 (Fail)
//Storyboard Layer 2 (Pass)
//Storyboard Layer 3 (Foreground)
//Storyboard Sound Samples

[TimingPoints]
14,412.754101743886,4,1,0,0,1,0

[HitObjects]
320,192,14,5,0,0:0:0:0:
320,192,117,1,0,0:0:0:0:
192,192,220,1,0,0:0:0:0:
64,192,427,1,0,0:0:0:0:
448,192,427,1,0,0:0:0:0:
64,192,633,1,0,0:0:0:0:
192,192,633,1,0,0:0:0:0:
320,192,839,1,0,0:0:0:0:
448,192,839,1,0,0:0:0:0:
192,192,1046,128,0,1252:0:0:0:0:
64,192,1046,1,0,0:0:0:0:
448,192,1252,128,0,1459:0:0:0:0:
320,192,1252,1,0,0:0:0:0:
64,192,1459,128,0,1665:0:0:0:0:
192,192,1459,1,0,0:0:0:0:
320,192,1665,1,0,0:0:0:0:
192,192,1871,1,0,0:0:0:0:
192,192,1974,1,0,0:0:0:0:
320,192,2078,1,0,0:0:0:0:
192,192,2078,1,0,0:0:0:0:
64,192,2284,1,0,0:0:0:0:
448,192,2284,1,0,0:0:0:0:
192,192,2490,1,0,0:0:0:0:
320,192,2490,1,0,0:0:0:0:
448,192,2697,1,0,0:0:0:0:
320,192,2903,1,0,0:0:0:0:
192,192,2903,1,0,0:0:0:0:
64,192,2903,1,0,0:0:0:0:
64,192,3109,1,0,0:0:0:0:
192,192,3109,1,0,0:0:0:0:
320,192,3109,1,0,0:0:0:0:
448,192,3316,1,0,0:0:0:0:
64,192,3316,1,0,0:0:0:0:
448,192,3419,1,0,0:0:0:0:
320,192,3522,1,0,0:0:0:0:
64,192,3729,1,0,0:0:0:0:
192,192,3729,1,0,0:0:0:0:
192,192,3935,1,0,0:0:0:0:
320,192,3935,1,0,0:0:0:0:
448,192,4141,1,0,0:0:0:0:
64,192,4141,1,0,0:0:0:0:
320,192,4348,128,0,4554:0:0:0:0:
192,192,4348,1,0,0:0:0:0:
64,192,4554,128,0,4760:0:0:0:0:
448,192,4554,1,0,0:0:0:0:
448,192,4760,128,0,4967:0:0:0:0:
192,192,4760,1,0,0:0:0:0:
320,192,4967,1,0,0:0:0:0:
64,192,5173,1,0,0:0:0:0:
64,192,5276,1,0,0:0:0:0:
64,192,5380,1,0,0:0:0:0:
448,192,5380,1,0,0:0:0:0:
192,192,5586,1,0,0:0:0:0:
320,192,5586,1,0,0:0:0:0:
448,192,5792,1,0,0:0:0:0:
64,192,5792,1,0,0:0:0:0:
320,192,5999,128,0,6101:0:0:0:0:
448,192,5999,1,0,0:0:0:0:
192,192,5999,1,0,0:0:0:0:
192,192,6205,1,0,0:0:0:0:
64,192,6205,1,0,0:0:0:0:
448,192,6205,1,0,0:0:0:0:
448,192,6411,1,0,0:0:0:0:
192,192,6411,1,0,0:0:0:0:
64,192,6411,1,0,0:0:0:0:
320,192,6618,1,0,0:0:0:0:
320,192,6720,1,0,0:0:0:0:
64,192,6824,1,0,0:0:0:0:
192,192,6824,1,0,0:0:0:0:
64,192,7030,1,0,0:0:0:0:
448,192,7030,1,0,0:0:0:0:
192,192,7237,1,0,0:0:0:0:
320,192,7237,1,0,0:0:0:0:
64,192,7443,1,0,0:0:0:0:
448,192,7443,1,0,0:0:0:0:
192,192,7649,128,0,7856:0:0:0:0:
320,192,7649,1,0,0:0:0:0:
64,192,7856,1,0,0:0:0:0:
448,192,7856,128,0,8062:0:0:0:0:
64,192,8062,128,0,8269:0:0:0:0:
192,192,8062,1,0,0:0:0:0:
320,192,8269,1,0,0:0:0:0:
448,192,8475,1,0,0:0:0:0:
448,192,8579,1,0,0:0:0:0:
448,192,8681,1,0,0:0:0:0:
192,192,8681,1,0,0:0:0:0:
64,192,8888,1,0,0:0:0:0:
192,192,8888,1,0,0:0:0:0:
320,192,8888,1,0,0:0:0:0:
448,192,9094,1,0,0:0:0:0:
192,192,9094,1,0,0:0:0:0:
64,192,9300,1,0,0:0:0:0:
320,192,9300,1,0,0:0:0:0:
192,192,9507,1,0,0:0:0:0:
320,192,9507,1,0,0:0:0:0:
448,192,9507,1,0,0:0:0:0:
448,192,9713,1,0,0:0:0:0:
320,192,9713,1,0,0:0:0:0:
192,192,9713,1,0,0:0:0:0:
64,192,9920,1,0,0:0:0:0:
64,192,10023,1,0,0:0:0:0:
192,192,10126,1,0,0:0:0:0:
320,192,10332,1,0,0:0:0:0:
448,192,10332,1,0,0:0:0:0:
192,192,10539,1,0,0:0:0:0:
320,192,10539,1,0,0:0:0:0:
64,192,10745,1,0,0:0:0:0:
192,192,10745,1,0,0:0:0:0:
448,192,10951,128,0,11158:0:0:0:0:
320,192,10951,1,0,0:0:0:0:
320,192,11158,128,0,11364:0:0:0:0:
64,192,11158,1,0,0:0:0:0:
192,192,11364,128,0,11570:0:0:0:0:
64,192,11570,1,0,0:0:0:0:
320,192,11777,1,0,0:0:0:0:
320,192,11880,1,0,0:0:0:0:
320,192,11983,1,0,0:0:0:0:
448,192,11983,1,0,0:0:0:0:
64,192,12189,1,0,0:0:0:0:
192,192,12189,1,0,0:0:0:0:
64,192,12396,1,0,0:0:0:0:
448,192,12396,1,0,0:0:0:0:
192,192,12602,1,0,0:0:0:0:
320,192,12602,1,0,0:0:0:0:
192,192,12706,1,0,0:0:0:0:
448,192,12706,1,0,0:0:0:0:
448,192,12809,1,0,0:0:0:0:
64,192,12809,1,0,0:0:0:0:
320,192,13015,1,0,0:0:0:0:
192,192,13015,1,0,0:0:0:0:
64,192,13221,1,0,0:0:0:0:
448,192,13221,1,0,0:0:0:0:
64,192,13428,1,0,0:0:0:0:
192,192,13428,1,0,0:0:0:0:
448,192,13497,1,0,0:0:0:0:
320,192,13566,1,0,0:0:0:0:
64,192,13634,1,0,0:0:0:0:
192,192,13634,1,0,0:0:0:0:
448,192,13703,1,0,0:0:0:0:
320,192,13772,1,0,0:0:0:0:
64,192,13840,1,0,0:0:0:0:
448,192,13840,1,0,0:0:0:0:
192,192,13909,1,0,0:0:0:0:
320,192,13979,1,0,0:0:0:0:
448,192,14048,1,0,0:0:0:0:
64,192,14048,1,0,0:0:0:0:
192,192,14116,1,0,0:0:0:0:
64,192,14185,1,0,0:0:0:0:
320,192,14254,1,0,0:0:0:0:
448,192,14254,1,0,0:0:0:0:
192,192,14322,1,0,0:0:0:0:
64,192,14391,1,0,0:0:0:0:
320,192,14460,1,0,0:0:0:0:
448,192,14460,1,0,0:0:0:0:
192,192,14529,1,0,0:0:0:0:
448,192,14598,1,0,0:0:0:0:
64,192,14667,1,0,0:0:0:0:
320,192,14667,1,0,0:0:0:0:
192,192,14735,1,0,0:0:0:0:
320,192,14804,1,0,0:0:0:0:
448,192,14873,1,0,0:0:0:0:
64,192,14873,1,0,0:0:0:0:
192,192,14941,1,0,0:0:0:0:
320,192,15010,1,0,0:0:0:0:
64,192,15079,1,0,0:0:0:0:
192,192,15079,1,0,0:0:0:0:
448,192,15148,1,0,0:0:0:0:
320,192,15217,1,0,0:0:0:0:
448,192,15286,1,0,0:0:0:0:
192,192,15286,1,0,0:0:0:0:
64,192,15354,1,0,0:0:0:0:
320,192,15423,1,0,0:0:0:0:
192,192,15492,1,0,0:0:0:0:
64,192,15492,1,0,0:0:0:0:
320,192,15560,1,0,0:0:0:0:
448,192,15629,1,0,0:0:0:0:
192,192,15699,1,0,0:0:0:0:
64,192,15699,1,0,0:0:0:0:
320,192,15767,1,0,0:0:0:0:
192,192,15836,1,0,0:0:0:0:
320,192,15905,1,0,0:0:0:0:
64,192,15905,1,0,0:0:0:0:
448,192,15973,1,0,0:0:0:0:
192,192,16042,1,0,0:0:0:0:
320,192,16111,1,0,0:0:0:0:
448,192,16111,1,0,0:0:0:0:
64,192,16179,1,0,0:0:0:0:
192,192,16249,1,0,0:0:0:0:
64,192,16318,1,0,0:0:0:0:
448,192,16318,1,0,0:0:0:0:
320,192,16386,1,0,0:0:0:0:
192,192,16455,1,0,0:0:0:0:
64,192,16524,1,0,0:0:0:0:
448,192,16524,1,0,0:0:0:0:
320,192,16592,1,0,0:0:0:0:
448,192,16661,1,0,0:0:0:0:
192,192,16730,1,0,0:0:0:0:
64,192,16730,1,0,0:0:0:0:
320,192,16799,1,0,0:0:0:0:
448,192,16868,1,0,0:0:0:0:
64,192,16937,1,0,0:0:0:0:
192,192,16937,1,0,0:0:0:0:
320,192,17005,1,0,0:0:0:0:
192,192,17074,1,0,0:0:0:0:
64,192,17143,1,0,0:0:0:0:
448,192,17143,1,0,0:0:0:0:
320,192,17211,1,0,0:0:0:0:
192,192,17280,1,0,0:0:0:0:
320,192,17350,1,0,0:0:0:0:
64,192,17350,1,0,0:0:0:0:
448,192,17418,1,0,0:0:0:0:
192,192,17487,1,0,0:0:0:0:
64,192,17556,1,0,0:0:0:0:
320,192,17556,1,0,0:0:0:0:
448,192,17624,1,0,0:0:0:0:
192,192,17693,1,0,0:0:0:0:
320,192,17762,1,0,0:0:0:0:
448,192,17762,1,0,0:0:0:0:
192,192,17830,1,0,0:0:0:0:
64,192,17900,1,0,0:0:0:0:
448,192,17969,1,0,0:0:0:0:
320,192,17969,1,0,0:0:0:0:
192,192,18037,1,0,0:0:0:0:
64,192,18106,1,0,0:0:0:0:
192,192,18175,1,0,0:0:0:0:
448,192,18175,1,0,0:0:0:0:
320,192,18243,1,0,0:0:0:0:
192,192,18312,1,0,0:0:0:0:
64,192,18381,1,0,0:0:0:0:
448,192,18381,1,0,0:0:0:0:
320,192,18450,1,0,0:0:0:0:
448,192,18519,1,0,0:0:0:0:
64,192,18588,1,0,0:0:0:0:
192,192,18588,1,0,0:0:0:0:
320,192,18656,1,0,0:0:0:0:
448,192,18725,1,0,0:0:0:0:
64,192,18794,1,0,0:0:0:0:
192,192,18794,1,0,0:0:0:0:
320,192,18863,1,0,0:0:0:0:
192,192,18931,1,0,0:0:0:0:
64,192,19000,1,0,0:0:0:0:
448,192,19000,1,0,0:0:0:0:
192,192,19070,1,0,0:0:0:0:
320,192,19138,1,0,0:0:0:0:
448,192,19207,1,0,0:0:0:0:
64,192,19207,1,0,0:0:0:0:
192,192,19276,1,0,0:0:0:0:
64,192,19344,1,0,0:0:0:0:
320,192,19413,1,0,0:0:0:0:
448,192,19413,1,0,0:0:0:0:
192,192,19482,1,0,0:0:0:0:
64,192,19550,1,0,0:0:0:0:
320,192,19620,1,0,0:0:0:0:
448,192,19620,1,0,0:0:0:0:
192,192,19689,1,0,0:0:0:0:
448,192,19757,1,0,0:0:0:0:
64,192,19826,1,0,0:0:0:0:
320,192,19826,1,0,0:0:0:0:
192,192,19895,1,0,0:0:0:0:
320,192,19963,1,0,0:0:0:0:
448,192,20032,1,0,0:0:0:0:
64,192,20032,1,0,0:0:0:0:
192,192,20101,1,0,0:0:0:0:
320,192,20170,1,0,0:0:0:0:
64,192,20239,1,0,0:0:0:0:
192,192,20239,1,0,0:0:0:0:
448,192,20308,1,0,0:0:0:0:
320,192,20376,1,0,0:0:0:0:
448,192,20445,1,0,0:0:0:0:
192,192,20445,1,0,0:0:0:0:
64,192,20514,1,0,0:0:0:0:
320,192,20582,1,0,0:0:0:0:
192,192,20651,1,0,0:0:0:0:
64,192,20651,1,0,0:0:0:0:
320,192,20720,1,0,0:0:0:0:
448,192,20789,1,0,0:0:0:0:
192,192,20858,1,0,0:0:0:0:
64,192,20858,1,0,0:0:0:0:
320,192,20927,1,0,0:0:0:0:
192,192,20995,1,0,0:0:0:0:
320,192,21064,1,0,0:0:0:0:
64,192,21064,1,0,0:0:0:0:
448,192,21133,1,0,0:0:0:0:
192,192,21201,1,0,0:0:0:0:
320,192,21270,1,0,0:0:0:0:
448,192,21270,1,0,0:0:0:0:
64,192,21340,1,0,0:0:0:0:
192,192,21408,1,0,0:0:0:0:
64,192,21477,1,0,0:0:0:0:
448,192,21477,1,0,0:0:0:0:
320,192,21546,1,0,0:0:0:0:
192,192,21614,1,0,0:0:0:0:
64,192,21683,1,0,0:0:0:0:
448,192,21683,1,0,0:0:0:0:
320,192,21752,1,0,0:0:0:0:
448,192,21820,1,0,0:0:0:0:
192,192,21890,1,0,0:0:0:0:
64,192,21890,1,0,0:0:0:0:
320,192,21959,1,0,0:0:0:0:
448,192,22027,1,0,0:0:0:0:
64,192,22096,1,0,0:0:0:0:
192,192,22096,1,0,0:0:0:0:
320,192,22165,1,0,0:0:0:0:
192,192,22233,1,0,0:0:0:0:
64,192,22302,1,0,0:0:0:0:
448,192,22302,1,0,0:0:0:0:
320,192,22371,1,0,0:0:0:0:
192,192,22440,1,0,0:0:0:0:
320,192,22509,1,0,0:0:0:0:
64,192,22509,1,0,0:0:0:0:
448,192,22578,1,0,0:0:0:0:
192,192,22646,1,0,0:0:0:0:
64,192,22715,1,0,0:0:0:0:
320,192,22715,1,0,0:0:0:0:
448,192,22784,1,0,0:0:0:0:
192,192,22852,1,0,0:0:0:0:
320,192,22921,1,0,0:0:0:0:
448,192,22921,1,0,0:0:0:0:
192,192,22990,1,0,0:0:0:0:
64,192,23059,1,0,0:0:0:0:
448,192,23128,1,0,0:0:0:0:
320,192,23128,1,0,0:0:0:0:
192,192,23197,1,0,0:0:0:0:
64,192,23265,1,0,0:0:0:0:
320,192,23334,1,0,0:0:0:0:
448,192,23334,1,0,0:0:0:0:
192,192,23334,1,0,0:0:0:0:
64,192,23403,1,0,0:0:0:0:
320,192,23472,1,0,0:0:0:0:
448,192,23540,1,0,0:0:0:0:
192,192,23540,1,0,0:0:0:0:
64,192,23540,1,0,0:0:0:0:
320,192,23609,1,0,0:0:0:0:
192,192,23679,1,0,0:0:0:0:
64,192,23747,1,0,0:0:0:0:
320,192,23747,1,0,0:0:0:0:
448,192,23747,1,0,0:0:0:0:
192,192,23816,1,0,0:0:0:0:
320,192,23885,1,0,0:0:0:0:
192,192,23953,1,0,0:0:0:0:
64,192,23953,1,0,0:0:0:0:
448,192,23953,1,0,0:0:0:0:
320,192,24022,1,0,0:0:0:0:
64,192,24091,1,0,0:0:0:0:
192,192,24159,1,0,0:0:0:0:
320,192,24159,1,0,0:0:0:0:
448,192,24159,1,0,0:0:0:0:
192,192,24366,1,0,0:0:0:0:
64,192,24572,1,0,0:0:0:0:
448,192,24572,1,0,0:0:0:0:
320,192,24779,1,0,0:0:0:0:
64,192,24985,1,0,0:0:0:0:
192,192,24985,1,0,0:0:0:0:
448,192,24985,1,0,0:0:0:0:
192,192,25089,1,0,0:0:0:0:
320,192,25191,1,0,0:0:0:0:
448,192,25191,1,0,0:0:0:0:
64,192,25191,1,0,0:0:0:0:
448,192,25295,1,0,0:0:0:0:
192,192,25398,1,0,0:0:0:0:
64,192,25398,1,0,0:0:0:0:
320,192,25398,1,0,0:0:0:0:
64,192,25501,1,0,0:0:0:0:
448,192,25604,1,0,0:0:0:0:
320,192,25604,1,0,0:0:0:0:
192,192,25604,1,0,0:0:0:0:
320,192,25708,1,0,0:0:0:0:
64,192,25810,1,0,0:0:0:0:
192,192,25810,1,0,0:0:0:0:
448,192,25810,1,0,0:0:0:0:
192,192,25914,1,0,0:0:0:0:
320,192,26017,1,0,0:0:0:0:
448,192,26017,1,0,0:0:0:0:
64,192,26017,1,0,0:0:0:0:
448,192,26120,1,0,0:0:0:0:
192,192,26223,1,0,0:0:0:0:
64,192,26223,1,0,0:0:0:0:
320,192,26223,1,0,0:0:0:0:
64,192,26327,1,0,0:0:0:0:
448,192,26429,1,0,0:0:0:0:
320,192,26429,1,0,0:0:0:0:
192,192,26429,1,0,0:0:0:0:
320,192,26533,1,0,0:0:0:0:
64,192,26636,1,0,0:0:0:0:
192,192,26636,1,0,0:0:0:0:
448,192,26636,1,0,0:0:0:0:
192,192,26739,1,0,0:0:0:0:
320,192,26842,1,0,0:0:0:0:
448,192,26842,1,0,0:0:0:0:
64,192,26842,1,0,0:0:0:0:
448,192,26946,1,0,0:0:0:0:
192,192,27049,1,0,0:0:0:0:
64,192,27049,1,0,0:0:0:0:
320,192,27049,1,0,0:0:0:0:
64,192,27152,1,0,0:0:0:0:
448,192,27255,1,0,0:0:0:0:
320,192,27255,1,0,0:0:0:0:
192,192,27255,1,0,0:0:0:0:
320,192,27359,1,0,0:0:0:0:
64,192,27461,1,0,0:0:0:0:
192,192,27461,1,0,0:0:0:0:
448,192,27461,1,0,0:0:0:0:
192,192,27668,1,0,0:0:0:0:
320,192,27668,1,0,0:0:0:0:
64,192,27874,1,0,0:0:0:0:
448,192,27874,1,0,0:0:0:0:
320,192,28081,5,0,0:0:0:0:
448,192,28081,1,0,0:0:0:0:
320,192,28184,1,0,0:0:0:0:
192,192,28288,1,0,0:0:0:0:
64,192,28494,1,0,0:0:0:0:
448,192,28494,1,0,0:0:0:0:
320,192,28700,1,0,0:0:0:0:
448,192,28700,1,0,0:0:0:0:
64,192,28907,1,0,0:0:0:0:
192,192,28907,1,0,0:0:0:0:
448,192,29113,1,0,0:0:0:0:
320,192,29113,128,0,29319:0:0:0:0:
192,192,29319,1,0,0:0:0:0:
64,192,29319,128,0,29526:0:0:0:0:
320,192,29526,1,0,0:0:0:0:
448,192,29526,128,0,29732:0:0:0:0:
192,192,29732,1,0,0:0:0:0:
320,192,29939,1,0,0:0:0:0:
320,192,30041,1,0,0:0:0:0:
320,192,30145,1,0,0:0:0:0:
192,192,30145,1,0,0:0:0:0:
64,192,30351,1,0,0:0:0:0:
448,192,30351,1,0,0:0:0:0:
192,192,30558,1,0,0:0:0:0:
320,192,30558,1,0,0:0:0:0:
64,192,30764,1,0,0:0:0:0:
448,192,30970,1,0,0:0:0:0:
320,192,30970,1,0,0:0:0:0:
192,192,30970,1,0,0:0:0:0:
192,192,31177,1,0,0:0:0:0:
320,192,31177,1,0,0:0:0:0:
448,192,31177,1,0,0:0:0:0:
448,192,31383,1,0,0:0:0:0:
64,192,31383,1,0,0:0:0:0:
64,192,31486,1,0,0:0:0:0:
192,192,31589,1,0,0:0:0:0:
320,192,31796,1,0,0:0:0:0:
448,192,31796,1,0,0:0:0:0:
192,192,32002,1,0,0:0:0:0:
320,192,32002,1,0,0:0:0:0:
448,192,32209,1,0,0:0:0:0:
64,192,32209,1,0,0:0:0:0:
320,192,32415,1,0,0:0:0:0:
192,192,32415,128,0,32621:0:0:0:0:
64,192,32621,1,0,0:0:0:0:
448,192,32621,128,0,32828:0:0:0:0:
320,192,32828,1,0,0:0:0:0:
64,192,32828,128,0,33034:0:0:0:0:
192,192,33034,1,0,0:0:0:0:
448,192,33240,1,0,0:0:0:0:
448,192,33343,1,0,0:0:0:0:
64,192,33447,1,0,0:0:0:0:
448,192,33447,1,0,0:0:0:0:
192,192,33653,1,0,0:0:0:0:
320,192,33653,1,0,0:0:0:0:
448,192,33860,1,0,0:0:0:0:
64,192,33860,1,0,0:0:0:0:
320,192,34066,1,0,0:0:0:0:
64,192,34066,1,0,0:0:0:0:
192,192,34066,128,0,34169:0:0:0:0:
64,192,34272,1,0,0:0:0:0:
448,192,34272,1,0,0:0:0:0:
320,192,34272,1,0,0:0:0:0:
448,192,34479,1,0,0:0:0:0:
320,192,34479,1,0,0:0:0:0:
64,192,34479,1,0,0:0:0:0:
192,192,34685,1,0,0:0:0:0:
192,192,34788,1,0,0:0:0:0:
320,192,34891,1,0,0:0:0:0:
448,192,34891,1,0,0:0:0:0:
64,192,35098,1,0,0:0:0:0:
448,192,35098,1,0,0:0:0:0:
192,192,35304,1,0,0:0:0:0:
320,192,35304,1,0,0:0:0:0:
64,192,35510,1,0,0:0:0:0:
448,192,35510,1,0,0:0:0:0:
192,192,35717,1,0,0:0:0:0:
320,192,35717,128,0,35923:0:0:0:0:
64,192,35923,128,0,36130:0:0:0:0:
448,192,35923,1,0,0:0:0:0:
320,192,36130,1,0,0:0:0:0:
448,192,36130,128,0,36336:0:0:0:0:
192,192,36336,1,0,0:0:0:0:
64,192,36542,1,0,0:0:0:0:
64,192,36646,1,0,0:0:0:0:
320,192,36749,1,0,0:0:0:0:
64,192,36749,1,0,0:0:0:0:
192,192,36955,1,0,0:0:0:0:
320,192,36955,1,0,0:0:0:0:
448,192,36955,1,0,0:0:0:0:
320,192,37161,1,0,0:0:0:0:
64,192,37161,1,0,0:0:0:0:
192,192,37368,1,0,0:0:0:0:
448,192,37368,1,0,0:0:0:0:
64,192,37574,1,0,0:0:0:0:
192,192,37574,1,0,0:0:0:0:
320,192,37574,1,0,0:0:0:0:
320,192,37780,1,0,0:0:0:0:
192,192,37780,1,0,0:0:0:0:
64,192,37780,1,0,0:0:0:0:
448,192,37987,1,0,0:0:0:0:
448,192,38090,1,0,0:0:0:0:
320,192,38193,1,0,0:0:0:0:
64,192,38400,1,0,0:0:0:0:
192,192,38400,1,0,0:0:0:0:
192,192,38606,1,0,0:0:0:0:
320,192,38606,1,0,0:0:0:0:
320,192,38812,1,0,0:0:0:0:
448,192,38812,1,0,0:0:0:0:
192,192,39019,1,0,0:0:0:0:
64,192,39019,128,0,39225:0:0:0:0:
448,192,39225,1,0,0:0:0:0:
192,192,39225,128,0,39431:0:0:0:0:
320,192,39431,128,0,39638:0:0:0:0:
448,192,39638,1,0,0:0:0:0:
192,192,39844,1,0,0:0:0:0:
192,192,39948,1,0,0:0:0:0:
64,192,40050,1,0,0:0:0:0:
192,192,40050,1,0,0:0:0:0:
320,192,40257,1,0,0:0:0:0:
448,192,40257,1,0,0:0:0:0:
64,192,40463,1,0,0:0:0:0:
448,192,40463,1,0,0:0:0:0:
192,192,40670,1,0,0:0:0:0:
320,192,40670,1,0,0:0:0:0:
64,192,40773,1,0,0:0:0:0:
320,192,40773,1,0,0:0:0:0:
448,192,40876,1,0,0:0:0:0:
64,192,40876,1,0,0:0:0:0:
320,192,41082,1,0,0:0:0:0:
192,192,41082,1,0,0:0:0:0:
64,192,41289,1,0,0:0:0:0:
448,192,41289,1,0,0:0:0:0:
320,192,41495,1,0,0:0:0:0:
448,192,41495,1,0,0:0:0:0:
64,192,41564,1,0,0:0:0:0:
192,192,41633,1,0,0:0:0:0:
320,192,41701,1,0,0:0:0:0:
448,192,41701,1,0,0:0:0:0:
64,192,41770,1,0,0:0:0:0:
192,192,41840,1,0,0:0:0:0:
64,192,41908,1,0,0:0:0:0:
448,192,41908,1,0,0:0:0:0:
320,192,41977,1,0,0:0:0:0:
192,192,42046,1,0,0:0:0:0:
448,192,42115,1,0,0:0:0:0:
64,192,42115,1,0,0:0:0:0:
320,192,42183,1,0,0:0:0:0:
448,192,42252,1,0,0:0:0:0:
64,192,42321,1,0,0:0:0:0:
192,192,42321,1,0,0:0:0:0:
320,192,42390,1,0,0:0:0:0:
448,192,42459,1,0,0:0:0:0:
64,192,42528,1,0,0:0:0:0:
192,192,42528,1,0,0:0:0:0:
320,192,42596,1,0,0:0:0:0:
64,192,42665,1,0,0:0:0:0:
192,192,42734,1,0,0:0:0:0:
448,192,42734,1,0,0:0:0:0:
320,192,42802,1,0,0:0:0:0:
192,192,42871,1,0,0:0:0:0:
448,192,42940,1,0,0:0:0:0:
64,192,42940,1,0,0:0:0:0:
320,192,43009,1,0,0:0:0:0:
192,192,43078,1,0,0:0:0:0:
320,192,43147,1,0,0:0:0:0:
448,192,43147,1,0,0:0:0:0:
64,192,43215,1,0,0:0:0:0:
192,192,43284,1,0,0:0:0:0:
320,192,43353,1,0,0:0:0:0:
64,192,43353,1,0,0:0:0:0:
448,192,43421,1,0,0:0:0:0:
192,192,43490,1,0,0:0:0:0:
448,192,43560,1,0,0:0:0:0:
320,192,43560,1,0,0:0:0:0:
192,192,43628,1,0,0:0:0:0:
64,192,43697,1,0,0:0:0:0:
448,192,43766,1,0,0:0:0:0:
320,192,43766,1,0,0:0:0:0:
192,192,43834,1,0,0:0:0:0:
320,192,43903,1,0,0:0:0:0:
448,192,43972,1,0,0:0:0:0:
192,192,43972,1,0,0:0:0:0:
64,192,44040,1,0,0:0:0:0:
320,192,44110,1,0,0:0:0:0:
64,192,44179,1,0,0:0:0:0:
192,192,44179,1,0,0:0:0:0:
448,192,44247,1,0,0:0:0:0:
320,192,44316,1,0,0:0:0:0:
64,192,44385,1,0,0:0:0:0:
448,192,44385,1,0,0:0:0:0:
192,192,44453,1,0,0:0:0:0:
320,192,44522,1,0,0:0:0:0:
64,192,44591,1,0,0:0:0:0:
448,192,44591,1,0,0:0:0:0:
192,192,44660,1,0,0:0:0:0:
64,192,44729,1,0,0:0:0:0:
448,192,44798,1,0,0:0:0:0:
320,192,44798,1,0,0:0:0:0:
192,192,44866,1,0,0:0:0:0:
64,192,44935,1,0,0:0:0:0:
320,192,45004,1,0,0:0:0:0:
448,192,45004,1,0,0:0:0:0:
192,192,45072,1,0,0:0:0:0:
320,192,45141,1,0,0:0:0:0:
64,192,45210,1,0,0:0:0:0:
448,192,45210,1,0,0:0:0:0:
192,192,45279,1,0,0:0:0:0:
320,192,45348,1,0,0:0:0:0:
448,192,45417,1,0,0:0:0:0:
192,192,45417,1,0,0:0:0:0:
64,192,45485,1,0,0:0:0:0:
320,192,45554,1,0,0:0:0:0:
192,192,45623,1,0,0:0:0:0:
448,192,45623,1,0,0:0:0:0:
64,192,45691,1,0,0:0:0:0:
320,192,45760,1,0,0:0:0:0:
64,192,45829,1,0,0:0:0:0:
192,192,45829,1,0,0:0:0:0:
320,192,45898,1,0,0:0:0:0:
448,192,45967,1,0,0:0:0:0:
192,192,46036,1,0,0:0:0:0:
64,192,46036,1,0,0:0:0:0:
320,192,46104,1,0,0:0:0:0:
448,192,46173,1,0,0:0:0:0:
64,192,46242,1,0,0:0:0:0:
320,192,46242,1,0,0:0:0:0:
192,192,46310,1,0,0:0:0:0:
320,192,46379,1,0,0:0:0:0:
64,192,46449,1,0,0:0:0:0:
448,192,46449,1,0,0:0:0:0:
192,192,46517,1,0,0:0:0:0:
64,192,46586,1,0,0:0:0:0:
320,192,46655,1,0,0:0:0:0:
448,192,46655,1,0,0:0:0:0:
192,192,46724,1,0,0:0:0:0:
64,192,46792,1,0,0:0:0:0:
320,192,46861,1,0,0:0:0:0:
448,192,46861,1,0,0:0:0:0:
192,192,46930,1,0,0:0:0:0:
320,192,46999,1,0,0:0:0:0:
64,192,47068,1,0,0:0:0:0:
448,192,47068,1,0,0:0:0:0:
320,192,47137,1,0,0:0:0:0:
192,192,47205,1,0,0:0:0:0:
448,192,47274,1,0,0:0:0:0:
64,192,47274,1,0,0:0:0:0:
320,192,47343,1,0,0:0:0:0:
448,192,47411,1,0,0:0:0:0:
64,192,47480,1,0,0:0:0:0:
192,192,47480,1,0,0:0:0:0:
320,192,47549,1,0,0:0:0:0:
448,192,47618,1,0,0:0:0:0:
64,192,47687,1,0,0:0:0:0:
192,192,47687,1,0,0:0:0:0:
320,192,47756,1,0,0:0:0:0:
64,192,47824,1,0,0:0:0:0:
192,192,47893,1,0,0:0:0:0:
448,192,47893,1,0,0:0:0:0:
320,192,47962,1,0,0:0:0:0:
192,192,48030,1,0,0:0:0:0:
448,192,48099,1,0,0:0:0:0:
64,192,48099,1,0,0:0:0:0:
320,192,48169,1,0,0:0:0:0:
192,192,48237,1,0,0:0:0:0:
320,192,48306,1,0,0:0:0:0:
448,192,48306,1,0,0:0:0:0:
64,192,48375,1,0,0:0:0:0:
192,192,48443,1,0,0:0:0:0:
320,192,48512,1,0,0:0:0:0:
64,192,48512,1,0,0:0:0:0:
448,192,48581,1,0,0:0:0:0:
192,192,48649,1,0,0:0:0:0:
448,192,48719,1,0,0:0:0:0:
320,192,48719,1,0,0:0:0:0:
192,192,48788,1,0,0:0:0:0:
64,192,48856,1,0,0:0:0:0:
448,192,48925,1,0,0:0:0:0:
320,192,48925,1,0,0:0:0:0:
192,192,48994,1,0,0:0:0:0:
320,192,49062,1,0,0:0:0:0:
448,192,49131,1,0,0:0:0:0:
192,192,49131,1,0,0:0:0:0:
64,192,49200,1,0,0:0:0:0:
320,192,49269,1,0,0:0:0:0:
64,192,49338,1,0,0:0:0:0:
192,192,49338,1,0,0:0:0:0:
448,192,49407,1,0,0:0:0:0:
320,192,49475,1,0,0:0:0:0:
64,192,49544,1,0,0:0:0:0:
448,192,49544,1,0,0:0:0:0:
192,192,49613,1,0,0:0:0:0:
320,192,49681,1,0,0:0:0:0:
64,192,49750,1,0,0:0:0:0:
448,192,49750,1,0,0:0:0:0:
192,192,49819,1,0,0:0:0:0:
64,192,49888,1,0,0:0:0:0:
448,192,49957,1,0,0:0:0:0:
320,192,49957,1,0,0:0:0:0:
192,192,50026,1,0,0:0:0:0:
64,192,50094,1,0,0:0:0:0:
320,192,50163,1,0,0:0:0:0:
448,192,50163,1,0,0:0:0:0:
192,192,50232,1,0,0:0:0:0:
320,192,50300,1,0,0:0:0:0:
64,192,50369,1,0,0:0:0:0:
448,192,50369,1,0,0:0:0:0:
192,192,50439,1,0,0:0:0:0:
320,192,50507,1,0,0:0:0:0:
448,192,50576,1,0,0:0:0:0:
192,192,50576,1,0,0:0:0:0:
64,192,50645,1,0,0:0:0:0:
320,192,50713,1,0,0:0:0:0:
192,192,50782,1,0,0:0:0:0:
448,192,50782,1,0,0:0:0:0:
64,192,50851,1,0,0:0:0:0:
320,192,50919,1,0,0:0:0:0:
64,192,50989,1,0,0:0:0:0:
192,192,50989,1,0,0:0:0:0:
320,192,51058,1,0,0:0:0:0:
448,192,51126,1,0,0:0:0:0:
192,192,51195,1,0,0:0:0:0:
64,192,51195,1,0,0:0:0:0:
320,192,51264,1,0,0:0:0:0:
448,192,51333,1,0,0:0:0:0:
320,192,51401,1,0,0:0:0:0:
64,192,51401,1,0,0:0:0:0:
192,192,51401,1,0,0:0:0:0:
448,192,51470,1,0,0:0:0:0:
192,192,51539,1,0,0:0:0:0:
448,192,51608,1,0,0:0:0:0:
320,192,51608,1,0,0:0:0:0:
64,192,51608,1,0,0:0:0:0:
192,192,51677,1,0,0:0:0:0:
320,192,51746,1,0,0:0:0:0:
64,192,51814,1,0,0:0:0:0:
192,192,51814,1,0,0:0:0:0:
448,192,51814,1,0,0:0:0:0:
320,192,51883,1,0,0:0:0:0:
192,192,51952,1,0,0:0:0:0:
64,192,52020,1,0,0:0:0:0:
448,192,52020,1,0,0:0:0:0:
320,192,52020,1,0,0:0:0:0:
192,192,52089,1,0,0:0:0:0:
448,192,52159,1,0,0:0:0:0:
64,192,52227,1,0,0:0:0:0:
192,192,52227,1,0,0:0:0:0:
320,192,52227,1,0,0:0:0:0:
64,192,52639,1,0,0:0:0:0:
448,192,52639,1,0,0:0:0:0:
448,192,53052,1,0,0:0:0:0:
320,192,53052,1,0,0:0:0:0:
64,192,53052,1,0,0:0:0:0:
320,192,53156,1,0,0:0:0:0:
192,192,53259,1,0,0:0:0:0:
64,192,53259,1,0,0:0:0:0:
448,192,53259,1,0,0:0:0:0:
64,192,53362,1,0,0:0:0:0:
320,192,53465,1,0,0:0:0:0:
448,192,53465,1,0,0:0:0:0:
192,192,53465,1,0,0:0:0:0:
448,192,53569,1,0,0:0:0:0:
64,192,53671,1,0,0:0:0:0:
192,192,53671,1,0,0:0:0:0:
320,192,53671,1,0,0:0:0:0:
192,192,53775,1,0,0:0:0:0:
448,192,53878,1,0,0:0:0:0:
320,192,53878,1,0,0:0:0:0:
64,192,53878,1,0,0:0:0:0:
320,192,53981,1,0,0:0:0:0:
192,192,54084,1,0,0:0:0:0:
64,192,54084,1,0,0:0:0:0:
448,192,54084,1,0,0:0:0:0:
64,192,54188,1,0,0:0:0:0:
320,192,54290,1,0,0:0:0:0:
448,192,54290,1,0,0:0:0:0:
192,192,54290,1,0,0:0:0:0:
448,192,54394,1,0,0:0:0:0:
64,192,54497,1,0,0:0:0:0:
192,192,54497,1,0,0:0:0:0:
320,192,54497,1,0,0:0:0:0:
192,192,54600,1,0,0:0:0:0:
448,192,54703,1,0,0:0:0:0:
320,192,54703,1,0,0:0:0:0:
64,192,54703,1,0,0:0:0:0:
320,192,54807,1,0,0:0:0:0:
192,192,54909,1,0,0:0:0:0:
64,192,54909,1,0,0:0:0:0:
448,192,54909,1,0,0:0:0:0:
64,192,55013,1,0,0:0:0:0:
320,192,55116,1,0,0:0:0:0:
448,192,55116,1,0,0:0:0:0:
192,192,55116,1,0,0:0:0:0:
448,192,55219,1,0,0:0:0:0:
64,192,55322,1,0,0:0:0:0:
192,192,55322,1,0,0:0:0:0:
320,192,55322,1,0,0:0:0:0:
192,192,55426,1,0,0:0:0:0:
448,192,55529,1,0,0:0:0:0:
320,192,55529,1,0,0:0:0:0:
64,192,55529,1,0,0:0:0:0:
320,192,55735,1,0,0:0:0:0:
192,192,55735,1,0,0:0:0:0:
448,192,55941,1,0,0:0:0:0:
64,192,55941,1,0,0:0:0:0:
