osu file format v14

[General]
AudioFilename: audio.mp3
AudioLeadIn: 0
PreviewTime: 2152
Countdown: 0
SampleSet: Soft
StackLeniency: 0.7
Mode: 0
LetterboxInBreaks: 0
WidescreenStoryboard: 0
SamplesMatchPlaybackRate: 1

[Editor]
DistanceSpacing: 1
BeatDivisor: 4
GridSize: 8
TimelineZoom: 1

[Metadata]
Title:Mt. Pyre Peak
TitleUnicode:Mt. Pyre Peak
Artist:Junichi Masuda, Go Ichinose
ArtistUnicode:Junichi Masuda, Go Ichinose
Creator:randomous
Version:Insane
Source:Pokémon Ruby and Sapphire
Tags:pokemon ruby sapphire mt pyre peak
BeatmapID:1348181
BeatmapSetID:635362

[Difficulty]
HPDrainRate:5
CircleSize:4
OverallDifficulty:7
ApproachRate:9
SliderMultiplier:1.4
SliderTickRate:1

[Events]
//Background and Video events
0,0,"background_800x600.jpg",0,0
//Break Periods
2,12128,16052
2,38107,39374
//Storyboard Layer 0 (Background)
//Storyboard Layer 1 (Fail)
//Storyboard Layer 2 (Pass)
//Storyboard Layer 3 (Foreground)
//Storyboard Sound Samples

[TimingPoints]
120,295.217476874631,4,2,1,100,1,0
2152,-100,4,2,1,50,0,0
7097,-100,4,2,1,60,0,0
8278,-100,4,2,1,70,0,0
9459,-100,4,2,1,80,0,0
18906,-100,4,2,1,60,0,0
20677,-100,4,2,1,80,0,0
21267,-100,4,2,1,80,0,0
21932,-76.9230769230769,4,2,1,80,0,0
29755,-100,4,2,1,80,0,0
39940,-76.9230769230769,4,2,1,80,0,0
42498,-100,4,2,1,80,0,0
44663,-76.9230769230769,4,2,1,80,0,0
47025,-100,4,2,1,80,0,0
51970,-100,4,2,1,50,0,0
54332,-100,4,2,1,80,0,0
56693,-100,4,2,1,50,0,0
59055,-66.6666666666667,4,2,1,80,0,0
62706,-66.6666666666667,4,2,1,50,0,1
63591,-100,4,2,1,50,0,0

[HitObjects]
96,192,2481,6,0,P|136:176|168:136,1,70,2|0,0:0|0:0,0:0:0:0:
232,128,2776,1,2,0:0:0:0:
320,152,2924,1,2,0:0:0:0:
456,160,3072,2,0,P|416:144|384:104,1,70,2|0,0:0|0:0,0:0:0:0:
320,96,3367,1,2,0:0:0:0:
232,120,3515,1,2,0:0:0:0:
120,104,3662,6,0,P|160:88|192:48,1,70,2|0,0:0|0:0,0:0:0:0:
256,40,3957,1,2,0:0:0:0:
344,72,4105,1,2,0:0:0:0:
256,128,4253,1,2,0:0:0:0:
344,144,4400,1,2,0:0:0:0:
256,200,4548,1,2,0:0:0:0:
344,216,4695,1,2,0:0:0:0:
480,216,4843,6,0,P|440:208|408:184,1,70,2|0,0:0|0:0,0:0:0:0:
336,168,5138,1,2,0:0:0:0:
248,192,5286,1,2,0:0:0:0:
144,168,5433,2,0,P|184:160|216:136,1,70,2|0,0:0|0:0,0:0:0:0:
288,120,5729,1,2,0:0:0:0:
376,144,5876,1,2,0:0:0:0:
480,128,6024,6,0,P|440:120|408:96,1,70,2|0,0:0|0:0,0:0:0:0:
336,80,6319,1,2,0:0:0:0:
248,104,6467,1,2,0:0:0:0:
336,160,6614,1,2,0:0:0:0:
248,176,6762,1,2,0:0:0:0:
336,232,6910,1,2,0:0:0:0:
248,248,7057,1,2,0:0:0:0:
88,280,7205,6,0,P|112:256|120:216,1,70,2|0,0:0|0:0,0:0:0:0:
200,224,7500,2,0,P|208:264|232:288,1,70,2|0,0:0|0:0,0:0:0:0:
304,288,7795,2,0,P|328:264|336:224,1,70,2|0,0:0|0:0,0:0:0:0:
416,232,8090,2,0,P|424:272|448:296,1,70,2|0,0:0|0:0,0:0:0:0:
448,72,8386,5,2,0:0:0:0:
368,144,8533,1,2,0:0:0:0:
320,32,8681,2,0,P|296:56|288:96,1,70,2|0,0:0|0:0,0:0:0:0:
256,200,8976,2,0,P|224:216|184:176,1,70,2|0,0:0|0:0,0:0:0:0:
136,104,9271,1,2,0:0:0:0:
80,32,9419,1,2,0:0:0:0:
48,176,9566,6,0,P|48:232|72:256,1,70,2|0,0:0|0:0,0:0:0:0:
152,240,9862,2,0,P|152:192|128:168,1,70,2|0,0:0|0:0,0:0:0:0:
232,248,10157,2,0,P|232:304|256:328,1,70,2|0,0:0|0:0,0:0:0:0:
336,312,10452,2,0,P|336:264|312:240,1,70,2|0,0:0|0:0,0:0:0:0:
448,344,10747,5,4,0:0:0:0:
464,320,10846,1,0,0:0:0:0:
472,288,10944,1,0,0:0:0:0:
472,264,11043,5,0,0:0:0:0:
464,240,11141,1,0,0:0:0:0:
448,216,11239,1,0,0:0:0:0:
440,192,11338,5,4,0:0:0:0:
424,168,11436,1,0,0:0:0:0:
416,144,11535,1,0,0:0:0:0:
416,120,11633,5,0,0:0:0:0:
424,96,11731,1,0,0:0:0:0:
440,72,11830,1,0,0:0:0:0:
456,48,11928,5,4,0:0:0:0:
168,280,16652,6,0,P|120:280|88:240,1,70,2|0,0:0|0:0,0:0:0:0:
40,168,16947,1,2,0:0:0:0:
120,88,17095,2,2,L|152:64,1,35
176,88,17242,2,0,B|224:72|272:88|296:112|304:152|288:192|248:216|208:216|176:256|184:312|264:344|320:344|360:336|440:200|416:176|384:144|360:128,1,560,2|0,0:0|0:0,0:0:0:0:
208,128,19013,5,2,0:0:0:0:
256,256,19161,1,2,0:0:0:0:
304,128,19309,1,2,0:0:0:0:
184,208,19456,1,2,0:0:0:0:
320,208,19604,1,2,0:0:0:0:
208,128,19751,1,2,0:0:0:0:
256,256,19899,1,2,0:0:0:0:
304,128,20047,1,2,0:0:0:0:
304,128,20120,1,2,0:0:0:0:
304,128,20194,1,2,0:0:0:0:
352,256,20342,6,0,L|392:176,1,70,2|0,0:0|0:0,0:0:0:0:
432,344,20637,1,2,0:0:0:0:
264,256,20785,2,0,L|296:344,1,70,2|0,0:0|0:0,0:0:0:0:
192,288,21080,2,0,L|160:376,1,70,2|0,0:0|0:0,0:0:0:0:
72,56,21375,6,0,P|104:88|104:112,1,70,2|0,0:0|0:0,0:0:0:0:
64,192,21670,1,2,0:0:0:0:
184,80,21818,1,2,0:0:0:0:
272,144,21966,2,0,P|304:192|312:232,1,90.9999958343508,2|0,0:0|0:0,0:0:0:0:
360,144,22261,2,0,P|384:192|392:232,1,90.9999958343508,2|0,0:0|0:0,0:0:0:0:
352,280,22556,2,0,P|320:328|304:368,1,90.9999958343508,2|0,0:0|0:0,0:0:0:0:
264,280,22851,2,0,P|232:328|224:368,1,90.9999958343508,2|0,0:0|0:0,0:0:0:0:
136,336,23146,1,2,0:0:0:0:
64,168,23294,1,2,0:0:0:0:
96,272,23442,5,0,0:0:0:0:
96,272,23515,1,0,0:0:0:0:
96,272,23589,1,0,0:0:0:0:
96,272,23663,1,0,0:0:0:0:
96,272,23737,5,2,0:0:0:0:
128,136,23885,1,2,0:0:0:0:
224,232,24032,1,2,0:0:0:0:
96,272,24180,1,2,0:0:0:0:
272,208,25065,5,2,0:0:0:0:
328,64,25213,1,2,0:0:0:0:
360,208,25361,1,2,0:0:0:0:
392,64,25508,1,2,0:0:0:0:
424,208,25656,1,2,0:0:0:0:
392,352,25803,2,0,L|360:232,1,90.9999958343508,2|2,0:0|0:0,0:0:0:0:
336,136,26099,1,2,0:0:0:0:
248,144,27280,6,0,L|192:232,1,90.9999958343508,2|0,0:0|0:0,0:0:0:0:
150,297,27575,2,0,L|198:220,1,90.9999958343508,2|0,0:0|0:0,0:0:0:0:
360,120,27870,2,0,L|304:208,1,90.9999958343508,2|0,0:0|0:0,0:0:0:0:
262,273,28165,2,0,L|310:196,1,90.9999958343508,2|0,0:0|0:0,0:0:0:0:
400,64,28460,1,2,0:0:0:0:
296,224,30232,5,2,0:0:0:0:
288,216,30305,1,2,0:0:0:0:
280,208,30379,1,2,0:0:0:0:
272,200,30453,1,2,0:0:0:0:
264,192,30527,2,0,P|232:176|200:192,1,70,2|0,0:0|0:0,0:0:0:0:
72,48,30822,6,0,P|112:80|128:120,1,70,2|0,0:0|0:0,0:0:0:0:
136,192,31117,1,2,0:0:0:0:
232,48,31265,1,2,0:0:0:0:
336,112,31413,2,0,P|344:144|344:184,1,70,2|0,0:0|0:0,0:0:0:0:
440,112,31708,1,2,0:0:0:0:
448,144,31782,1,2,0:0:0:0:
448,168,31855,1,2,0:0:0:0:
400,248,32003,6,0,P|392:280|392:320,1,70,2|0,0:0|0:0,0:0:0:0:
296,248,32298,1,2,0:0:0:0:
288,280,32372,1,2,0:0:0:0:
288,304,32446,1,2,0:0:0:0:
152,312,32593,2,0,P|112:288|104:248,1,70,2|0,0:0|0:0,0:0:0:0:
232,184,32889,5,2,0:0:0:0:
232,184,32962,1,2,0:0:0:0:
232,184,33036,1,2,0:0:0:0:
232,184,33110,1,2,0:0:0:0:
232,184,33184,5,2,0:0:0:0:
304,88,33331,1,2,0:0:0:0:
352,192,33479,1,2,0:0:0:0:
232,184,33627,2,0,P|192:192|168:216,1,70,2|2,0:0|0:0,0:0:0:0:
256,72,34660,6,0,P|224:96|208:144,1,70,2|0,0:0|0:0,0:0:0:0:
280,272,34955,2,0,P|305:248|316:215,1,70,2|0,0:0|0:0,0:0:0:0:
352,352,35250,1,2,0:0:0:0:
416,240,35398,1,2,0:0:0:0:
352,120,35546,1,2,0:0:0:0:
208,80,36726,6,0,P|160:96|128:128,1,70,2|0,0:0|0:0,0:0:0:0:
240,200,37022,1,2,0:0:0:0:
344,112,37169,1,2,0:0:0:0:
96,48,37317,2,0,P|112:80|112:128,1,70,2|0,0:0|0:0,0:0:0:0:
120,240,37612,1,2,0:0:0:0:
208,128,37760,1,2,0:0:0:0:
328,72,37907,1,2,0:0:0:0:
56,192,39974,5,0,0:0:0:0:
56,192,40048,1,0,0:0:0:0:
56,192,40121,1,0,0:0:0:0:
56,192,40195,1,0,0:0:0:0:
56,192,40269,2,0,P|88:216|160:192,1,121.333327779134,2|0,0:0|0:0,0:0:0:0:
112,32,40663,1,2,0:0:0:0:
368,64,40860,6,0,P|316:37|264:64,1,121.333327779134,2|0,0:0|0:0,0:0:0:0:
320,224,41254,1,2,0:0:0:0:
176,304,41450,6,0,P|208:328|280:304,1,121.333327779134,2|0,0:0|0:0,0:0:0:0:
232,136,41844,1,2,0:0:0:0:
144,56,42040,1,2,0:0:0:0:
400,56,42631,6,0,P|272:56|72:288,1,455,2|2,0:0|0:0,0:0:0:0:
72,304,43664,1,2,0:0:0:0:
72,320,43738,1,2,0:0:0:0:
72,336,43812,1,2,0:0:0:0:
136,232,44993,6,0,P|192:232|224:160,1,121.333327779134,2|0,0:0|0:0,0:0:0:0:
112,48,45386,1,2,0:0:0:0:
360,72,45583,6,0,P|392:64|432:152,1,121.333327779134,2|0,0:0|0:0,0:0:0:0:
320,240,45977,1,2,0:0:0:0:
168,272,46173,6,0,P|176:296|264:288,1,121.333327779134,2|0,0:0|0:0,0:0:0:0:
256,128,46567,1,2,0:0:0:0:
336,40,46764,1,2,0:0:0:0:
456,320,47354,6,0,P|232:320|80:128,1,455,2|2,0:0|0:0,0:0:0:0:
80,144,48388,1,2,0:0:0:0:
72,128,48461,1,2,0:0:0:0:
64,112,48535,1,2,0:0:0:0:
96,216,49716,5,2,0:0:0:0:
416,168,49913,1,2,0:0:0:0:
96,112,50110,1,2,0:0:0:0:
416,112,50306,1,2,0:0:0:0:
96,168,50503,1,2,0:0:0:0:
416,216,50700,1,2,0:0:0:0:
120,336,50897,5,2,0:0:0:0:
280,248,51094,1,2,0:0:0:0:
128,144,51291,1,2,0:0:0:0:
288,64,51487,1,2,0:0:0:0:
448,48,52078,6,0,B|368:88|328:184|208:232,1,280,4|0,0:0|0:0,0:0:0:0:
304,336,52816,1,4,0:0:0:0:
144,112,53111,1,4,0:0:0:0:
104,280,53259,2,0,P|272:232|336:144,1,280,4|2,0:0|0:0,0:0:0:0:
168,320,54440,5,2,0:0:0:0:
256,88,54637,1,2,0:0:0:0:
344,320,54834,1,2,0:0:0:0:
136,176,55030,1,2,0:0:0:0:
376,184,55227,1,2,0:0:0:0:
168,320,55424,1,2,0:0:0:0:
400,320,55620,5,2,0:0:0:0:
208,256,55817,1,2,0:0:0:0:
64,136,56014,1,2,0:0:0:0:
256,88,56211,1,2,0:0:0:0:
96,64,56801,6,0,B|168:144|272:128|360:216,1,280,4|0,0:0|0:0,0:0:0:0:
200,328,57539,1,4,0:0:0:0:
472,224,57835,1,4,0:0:0:0:
368,144,57982,2,0,P|256:128|120:24,1,280,4|2,0:0|0:0,0:0:0:0:
64,152,59163,6,0,L|64:264,1,105.000004005432,4|0,0:0|0:0,0:0:0:0:
64,320,59458,1,0,0:0:0:0:
128,320,59606,2,0,L|128:208,1,105.000004005432,4|0,0:0|0:0,0:0:0:0:
128,152,59901,1,0,0:0:0:0:
192,152,60049,2,0,L|192:264,1,105.000004005432,4|0,0:0|0:0,0:0:0:0:
384,120,60344,6,0,L|320:208,1,105.000004005432,4|0,0:0|0:0,0:0:0:0:
288,256,60639,1,0,0:0:0:0:
336,296,60787,2,0,L|397:211,1,105.000004005432,4|0,0:0|0:0,0:0:0:0:
432,160,61082,1,0,0:0:0:0:
480,200,61230,2,0,L|416:288,1,105.000004005432,4|0,0:0|0:0,0:0:0:0:
216,160,61525,5,4,0:0:0:0:
128,272,61672,1,0,0:0:0:0:
264,296,61820,1,0,0:0:0:0:
216,160,61968,1,4,0:0:0:0:
200,296,62115,1,0,0:0:0:0:
320,232,62263,1,0,0:0:0:0:
216,160,62410,1,4,0:0:0:0:
272,288,62558,1,0,0:0:0:0:
416,72,62706,6,0,P|224:112|40:240,1,420.000016021729,6|0,0:2|0:0,0:0:0:0:
