osu file format v14

[General]
AudioFilename: audio.mp3
AudioLeadIn: 0
PreviewTime: -1
Countdown: 0
SampleSet: None
StackLeniency: 0.7
Mode: 3
LetterboxInBreaks: 0
SpecialStyle: 0
WidescreenStoryboard: 0

[Editor]
DistanceSpacing: 1.2
BeatDivisor: 4
GridSize: 4
TimelineZoom: 1

[Metadata]
Title:route1
TitleUnicode:1号路
Artist:Junichi Masuda
ArtistUnicode:Junichi Masuda
Creator:pikechu
Version:route1
Source:Pokemon
Tags:
BeatmapID:1577113
BeatmapSetID:748653

[Difficulty]
HPDrainRate:8
CircleSize:7
OverallDifficulty:8
ApproachRate:5
SliderMultiplier:1.4
SliderTickRate:1

[Events]
//Background and Video events
0,0,"background.jpg",0,0
//Break Periods
//Storyboard Layer 0 (Background)
//Storyboard Layer 1 (Fail)
//Storyboard Layer 2 (Pass)
//Storyboard Layer 3 (Foreground)
//Storyboard Sound Samples

[TimingPoints]
0,260.869,4,1,1,100,1,0

[HitObjects]
302,192,0,5,0,0:0:0:62:D6S_s.wav
83,192,130,1,0,0:0:0:62:E6S_s.wav
156,192,261,1,0,0:0:0:62:D4S_s.wav
448,192,261,1,0,0:0:0:62:F#6S_Gb6S_s.wav
375,192,522,1,0,0:0:0:62:F#6S_Gb6S_s.wav
10,192,783,1,0,0:0:0:62:C#4S_Db4S_s.wav
229,192,783,1,0,0:0:0:62:F#6S_Gb6S_s.wav
302,192,1043,1,0,0:0:0:62:D6S_s.wav
83,192,1174,1,0,0:0:0:62:E6S_s.wav
156,192,1304,1,0,0:0:0:62:B3S_s.wav
448,192,1304,1,0,0:0:0:62:F#6S_Gb6S_s.wav
375,192,1565,1,0,0:0:0:62:F#6S_Gb6S_s.wav
10,192,1826,1,0,0:0:0:62:A3S_s.wav
229,192,1826,1,0,0:0:0:62:F#6S_Gb6S_s.wav
302,192,2087,1,0,0:0:0:62:D6S_s.wav
83,192,2217,1,0,0:0:0:62:E6S_s.wav
156,192,2348,1,0,0:0:0:62:D4S_s.wav
448,192,2348,1,0,0:0:0:62:F#6S_Gb6S_s.wav
375,192,2609,1,0,0:0:0:62:F#6S_Gb6S_s.wav
10,192,2870,1,0,0:0:0:62:A3S_s.wav
229,192,2870,1,0,0:0:0:62:G6S.wav
302,192,3261,1,0,0:0:0:62:F#6S_Gb6S_s.wav
83,192,3391,1,0,0:0:0:62:B3S_s.wav
448,192,3391,1,0,0:0:0:62:E6S_s.wav
156,192,3652,1,0,0:0:0:62:A5S_s.wav
229,192,3913,1,0,0:0:0:62:A3S_s.wav
375,192,3913,1,0,0:0:0:62:A5S_s.wav
10,192,4174,1,0,0:0:0:62:C#6S_Db6S_s.wav
302,192,4304,1,0,0:0:0:62:D6S_s.wav
83,192,4435,1,0,0:0:0:62:C#4S_Db4S_s.wav
448,192,4435,1,0,0:0:0:62:E6S_s.wav
156,192,4696,1,0,0:0:0:62:E6S_s.wav
229,192,4957,1,0,0:0:0:62:A3S_s.wav
375,192,4957,1,0,0:0:0:62:E6S_s.wav
10,192,5217,1,0,0:0:0:62:C#6S_Db6S_s.wav
302,192,5348,1,0,0:0:0:62:D6S_s.wav
83,192,5478,1,0,0:0:0:62:B3S_s.wav
448,192,5478,1,0,0:0:0:62:E6S_s.wav
156,192,5739,1,0,0:0:0:62:E6S_s.wav
229,192,6000,1,0,0:0:0:62:C4S_s.wav
375,192,6000,1,0,0:0:0:62:E6S_s.wav
10,192,6261,1,0,0:0:0:62:C#6S_Db6S_s.wav
302,192,6391,1,0,0:0:0:62:D6S_s.wav
83,192,6522,1,0,0:0:0:62:C#4S_Db4S_s.wav
448,192,6522,1,0,0:0:0:62:E6S_s.wav
156,192,6783,1,0,0:0:0:62:E6S_s.wav
229,192,7043,1,0,0:0:0:62:A3S_s.wav
375,192,7043,1,0,0:0:0:62:F#6S_Gb6S_s.wav
10,192,7304,1,0,0:0:0:62:E6S_s.wav
302,192,7435,1,0,0:0:0:62:F#6S_Gb6S_s.wav
83,192,7565,1,0,0:0:0:62:D4S.wav
448,192,7565,1,0,0:0:0:62:D6S_s.wav
156,192,7826,1,0,0:0:0:62:A5S_s.wav
229,192,8087,1,0,0:0:0:62:F#6S_Gb6S_s.wav
375,192,8348,1,0,0:0:0:62:D6S_s.wav
10,192,8478,1,0,0:0:0:62:E6S_s.wav
83,192,8609,1,0,0:0:0:62:D3S_s.wav
302,192,8609,1,0,0:0:0:62:F#6S_Gb6S_s.wav
448,192,8870,1,0,0:0:0:62:F#6S_Gb6S_s.wav
156,192,9130,1,0,0:0:0:62:F#3S_Gb3S_s.wav
229,192,9130,1,0,0:0:0:62:F#6S_Gb6S_s.wav
375,192,9391,1,0,0:0:0:62:D6S_s.wav
10,192,9522,1,0,0:0:0:62:E6S_s.wav
83,192,9652,1,0,0:0:0:62:A3S_s.wav
302,192,9652,1,0,0:0:0:62:F#6S_Gb6S_s.wav
448,192,9913,1,0,0:0:0:62:F#6S_Gb6S_s.wav
156,192,10174,1,0,0:0:0:62:D4S_s.wav
229,192,10174,1,0,0:0:0:62:F#6S_Gb6S_s.wav
375,192,10435,1,0,0:0:0:62:D6S_s.wav
10,192,10565,1,0,0:0:0:62:E6S_s.wav
83,192,10696,1,0,0:0:0:62:D4S_s.wav
302,192,10696,1,0,0:0:0:62:F#6S_Gb6S_s.wav
448,192,10956,1,0,0:0:0:62:F#6S_Gb6S_s.wav
156,192,11217,1,0,0:0:0:62:A3S_s.wav
229,192,11217,1,0,0:0:0:62:G6S.wav
375,192,11609,1,0,0:0:0:62:F#6S_Gb6S_s.wav
10,192,11739,1,0,0:0:0:62:C#4S_Db4S.wav
302,192,11739,1,0,0:0:0:62:E6S_s.wav
83,192,12000,1,0,0:0:0:62:A5S_s.wav
448,192,12261,1,0,0:0:0:62:A5S_s.wav
156,192,12522,1,0,0:0:0:62:C#6S_Db6S_s.wav
229,192,12652,1,0,0:0:0:62:D6S_s.wav
10,192,12783,1,0,0:0:0:62:C#4S_Db4S_s.wav
375,192,12783,1,0,0:0:0:62:E6S_s.wav
302,192,13043,1,0,0:0:0:62:G6S_s.wav
83,192,13304,1,0,0:0:0:62:B3S_s.wav
448,192,13304,1,0,0:0:0:62:F#6S_Gb6S_s.wav
156,192,13565,1,0,0:0:0:62:E6S_s.wav
10,192,13826,1,0,0:0:0:62:A3S_s.wav
229,192,13826,1,0,0:0:0:62:D6S_s.wav
375,192,14087,1,0,0:0:0:62:C#6S_Db6S_s.wav
83,192,14348,1,0,0:0:0:62:G3S_s.wav
302,192,14348,1,0,0:0:0:62:B5S_s.wav
448,192,14609,1,0,0:0:0:62:C#6S_Db6S_s.wav
156,192,14870,1,0,0:0:0:62:C#4S_Db4S_s.wav
229,192,14870,1,0,0:0:0:62:B6S.wav
10,192,15391,1,0,0:0:0:62:A3S_s.wav
375,192,15391,1,0,0:0:0:62:F#6S_Gb6S_s.wav
83,192,15435,1,0,0:0:0:62:E6S_s.wav
302,192,15477,1,0,0:0:0:62:F#6S_Gb6S_s.wav
448,192,15517,1,0,0:0:0:62:E6S_s.wav
229,192,15555,1,0,0:0:0:62:F#6S_Gb6S_s.wav
156,192,15592,1,0,0:0:0:62:E6S_s.wav
375,192,15652,1,0,0:0:0:62:D6S_s.wav
10,192,15783,1,0,0:0:0:62:E6S_s.wav
83,192,15913,1,0,0:0:0:62:D4S.wav
302,192,15913,1,0,0:0:0:62:F#6S_Gb6S_s.wav
448,192,16174,1,0,0:0:0:62:A5S_s.wav
229,192,16435,1,0,0:0:0:62:A5S_s.wav
156,192,16696,1,0,0:0:0:62:F#6S_Gb6S_s.wav
375,192,16826,1,0,0:0:0:62:G6S_s.wav
10,192,16956,1,0,0:0:0:62:D4S.wav
302,192,16956,1,0,0:0:0:62:A6S_s.wav
83,192,17217,1,0,0:0:0:62:A6S_s.wav
229,192,17478,1,0,0:0:0:62:F#4S_Gb4S.wav
448,192,17478,1,0,0:0:0:62:F#6S_Gb6S_s.wav
156,192,17739,1,0,0:0:0:62:D6S_s.wav
10,192,18000,1,0,0:0:0:62:G4S_s.wav
375,192,18000,1,0,0:0:0:62:D7S_s.wav
83,192,18261,1,0,0:0:0:62:A4S_s.wav
302,192,18261,1,0,0:0:0:62:C#7S_Db7S_s.wav
229,192,18522,1,0,0:0:0:62:B4S_s.wav
448,192,18522,1,0,0:0:0:62:B6S_s.wav
156,192,18783,1,0,0:0:0:62:G4S_s.wav
375,192,18783,1,0,0:0:0:62:D7S_s.wav
10,192,19043,1,0,0:0:0:62:F#4S_Gb4S_s.wav
302,192,19043,1,0,0:0:0:62:A6S_s.wav
83,192,19304,1,0,0:0:0:62:D4S_s.wav
229,192,19304,1,0,0:0:0:62:F#6S_Gb6S_s.wav
156,192,19565,1,0,0:0:0:62:A3S_s.wav
448,192,19565,1,0,0:0:0:62:D6S_s.wav
10,192,19826,1,0,0:0:0:62:F#4S_Gb4S_s.wav
375,192,19826,1,0,0:0:0:62:G6S_s.wav
302,192,19956,1,0,0:0:0:62:F#6S_Gb6S_s.wav
83,192,20087,1,0,0:0:0:62:A4S_s.wav
229,192,20087,1,0,0:0:0:62:E6S.wav
156,192,20217,1,0,0:0:0:62:B4S_s.wav
448,192,20348,1,0,0:0:0:62:A4S_s.wav
10,192,20478,1,0,0:0:0:62:B4S_s.wav
375,192,20609,1,0,0:0:0:62:A4S_s.wav
302,192,20870,1,0,0:0:0:62:F#6S_Gb6S_s.wav
83,192,21000,1,0,0:0:0:62:G6S_s.wav
156,192,21130,1,0,0:0:0:62:F#4S_Gb4S_s.wav
229,192,21130,1,0,0:0:0:62:A6S_s.wav
10,192,21391,1,0,0:0:0:62:D4S_s.wav
448,192,21391,1,0,0:0:0:62:A6S_s.wav
302,192,21652,1,0,0:0:0:62:A3S_s.wav
375,192,21652,1,0,0:0:0:62:F#6S_Gb6S_s.wav
83,192,21913,1,0,0:0:0:62:D4S_s.wav
229,192,21913,1,0,0:0:0:62:D6S_s.wav
156,192,22174,1,0,0:0:0:62:G4S_s.wav
448,192,22174,1,0,0:0:0:62:D7S_s.wav
10,192,22435,1,0,0:0:0:62:F#4S_Gb4S_s.wav
302,192,22435,1,0,0:0:0:62:C#7S_Db7S_s.wav
83,192,22696,1,0,0:0:0:62:E4S.wav
375,192,22696,1,0,0:0:0:62:B6S.wav
156,192,23087,1,0,0:0:0:62:C#4S_Db4S_s.wav
229,192,23087,1,0,0:0:0:62:F#6S_Gb6S_s.wav
10,192,23217,1,0,0:0:0:62:D4S_s.wav
448,192,23217,1,0,0:0:0:62:A6S_s.wav
83,192,23478,1,0,0:0:0:62:F#4S_Gb4S_s.wav
302,192,23478,1,0,0:0:0:62:D7S_s.wav
229,192,23739,1,0,0:0:0:62:E4S_s.wav
375,192,23739,1,0,0:0:0:62:C#7S_Db7S_s.wav
156,192,24000,1,0,0:0:0:62:C#4S_Db4S_s.wav
448,192,24000,1,0,0:0:0:62:E7S_s.wav
10,192,24261,1,0,0:0:0:62:D4S.wav
302,192,24261,1,0,0:0:0:62:D7S_s.wav
83,192,24522,1,0,0:0:0:62:D8S_s.wav
375,192,24783,1,0,0:0:0:62:D8S_s.wav
229,192,25043,1,0,0:0:0:62:D6S_s.wav
156,192,25174,1,0,0:0:0:62:E6S_s.wav
10,192,25304,1,0,0:0:0:62:D4S_s.wav
448,192,25304,1,0,0:0:0:62:F#6S_Gb6S_s.wav
302,192,25565,1,0,0:0:0:62:F#6S_Gb6S_s.wav
83,192,25826,1,0,0:0:0:62:C#4S_Db4S_s.wav
375,192,25826,1,0,0:0:0:62:F#6S_Gb6S_s.wav
229,192,26087,1,0,0:0:0:62:D6S_s.wav
156,192,26217,1,0,0:0:0:62:E6S_s.wav
10,192,26348,1,0,0:0:0:62:B3S_s.wav
448,192,26348,1,0,0:0:0:62:F#6S_Gb6S_s.wav
302,192,26609,1,0,0:0:0:62:F#6S_Gb6S_s.wav
83,192,26870,1,0,0:0:0:62:A3S_s.wav
375,192,26870,1,0,0:0:0:62:F#6S_Gb6S_s.wav
229,192,27130,1,0,0:0:0:62:D6S_s.wav
156,192,27261,1,0,0:0:0:62:E6S_s.wav
10,192,27391,1,0,0:0:0:62:D4S_s.wav
448,192,27391,1,0,0:0:0:62:F#6S_Gb6S_s.wav
302,192,27652,1,0,0:0:0:62:F#6S_Gb6S_s.wav
83,192,27913,1,0,0:0:0:62:A3S_s.wav
375,192,27913,1,0,0:0:0:62:G6S.wav
229,192,28304,1,0,0:0:0:62:F#6S_Gb6S_s.wav
156,192,28435,1,0,0:0:0:62:B3S_s.wav
448,192,28435,1,0,0:0:0:62:E6S_s.wav
10,192,28696,1,0,0:0:0:62:A5S_s.wav
83,192,28956,1,0,0:0:0:62:A3S_s.wav
302,192,28956,1,0,0:0:0:62:A5S_s.wav
375,192,29217,1,0,0:0:0:62:C#6S_Db6S_s.wav
229,192,29348,1,0,0:0:0:62:D6S_s.wav
156,192,29478,1,0,0:0:0:62:C#4S_Db4S_s.wav
448,192,29478,1,0,0:0:0:62:E6S_s.wav
10,192,29739,1,0,0:0:0:62:E6S_s.wav
83,192,30000,1,0,0:0:0:62:A3S_s.wav
302,192,30000,1,0,0:0:0:62:E6S_s.wav
375,192,30261,1,0,0:0:0:62:C#6S_Db6S_s.wav
229,192,30391,1,0,0:0:0:62:D6S_s.wav
156,192,30522,1,0,0:0:0:62:B3S_s.wav
448,192,30522,1,0,0:0:0:62:E6S_s.wav
10,192,30783,1,0,0:0:0:62:E6S_s.wav
83,192,31043,1,0,0:0:0:62:C4S_s.wav
302,192,31043,1,0,0:0:0:62:E6S_s.wav
375,192,31304,1,0,0:0:0:62:C#6S_Db6S_s.wav
229,192,31435,1,0,0:0:0:62:D6S_s.wav
156,192,31565,1,0,0:0:0:62:C#4S_Db4S_s.wav
448,192,31565,1,0,0:0:0:62:E6S_s.wav
10,192,31826,1,0,0:0:0:62:E6S_s.wav
83,192,32087,1,0,0:0:0:62:A3S_s.wav
302,192,32087,1,0,0:0:0:62:F#6S_Gb6S_s.wav
375,192,32348,1,0,0:0:0:62:E6S_s.wav
229,192,32478,1,0,0:0:0:62:F#6S_Gb6S_s.wav
156,192,32609,1,0,0:0:0:62:D4S.wav
448,192,32609,1,0,0:0:0:62:D6S_s.wav
10,192,32869,1,0,0:0:0:62:A5S_s.wav
302,192,33130,1,0,0:0:0:62:F#6S_Gb6S_s.wav
83,192,33391,1,0,0:0:0:62:D6S_s.wav
375,192,33522,1,0,0:0:0:62:E6S_s.wav
229,192,33652,1,0,0:0:0:62:D4S_s.wav
448,192,33652,1,0,0:0:0:62:F#6S_Gb6S_s.wav
156,192,33913,1,0,0:0:0:62:F#6S_Gb6S_s.wav
10,192,34174,1,0,0:0:0:62:C#4S_Db4S_s.wav
302,192,34174,1,0,0:0:0:62:F#6S_Gb6S_s.wav
83,192,34435,1,0,0:0:0:62:D6S_s.wav
375,192,34565,1,0,0:0:0:62:E6S_s.wav
229,192,34696,1,0,0:0:0:62:B3S_s.wav
448,192,34696,1,0,0:0:0:62:F#6S_Gb6S_s.wav
156,192,34956,1,0,0:0:0:62:F#6S_Gb6S_s.wav
10,192,35217,1,0,0:0:0:62:A3S_s.wav
302,192,35217,1,0,0:0:0:62:F#6S_Gb6S_s.wav
83,192,35478,1,0,0:0:0:62:D6S_s.wav
375,192,35609,1,0,0:0:0:62:E6S_s.wav
229,192,35739,1,0,0:0:0:62:D4S_s.wav
448,192,35739,1,0,0:0:0:62:F#6S_Gb6S_s.wav
156,192,36000,1,0,0:0:0:62:F#6S_Gb6S_s.wav
10,192,36261,1,0,0:0:0:62:A3S_s.wav
302,192,36261,1,0,0:0:0:62:G6S.wav
83,192,36652,1,0,0:0:0:62:F#6S_Gb6S_s.wav
375,192,36783,1,0,0:0:0:62:B3S_s.wav
448,192,36783,1,0,0:0:0:62:E6S_s.wav
229,192,37043,1,0,0:0:0:62:A5S_s.wav
156,192,37304,1,0,0:0:0:62:A3S_s.wav
302,192,37304,1,0,0:0:0:62:A5S_s.wav
10,192,37565,1,0,0:0:0:62:C#6S_Db6S_s.wav
83,192,37696,1,0,0:0:0:62:D6S_s.wav
375,192,37826,1,0,0:0:0:62:C#4S_Db4S_s.wav
448,192,37826,1,0,0:0:0:62:E6S_s.wav
229,192,38087,1,0,0:0:0:62:G6S_s.wav
156,192,38348,1,0,0:0:0:62:B3S_s.wav
302,192,38348,1,0,0:0:0:62:F#6S_Gb6S_s.wav
10,192,38609,1,0,0:0:0:62:E6S_s.wav
83,192,38869,1,0,0:0:0:62:A3S_s.wav
448,192,38869,1,0,0:0:0:62:D6S_s.wav
375,192,39130,1,0,0:0:0:62:C#6S_Db6S_s.wav
229,192,39391,1,0,0:0:0:62:G3S_s.wav
302,192,39391,1,0,0:0:0:62:B5S_s.wav
156,192,39652,1,0,0:0:0:62:C#6S_Db6S_s.wav
10,192,39913,1,0,0:0:0:62:C#4S_Db4S_s.wav
448,192,39913,1,0,0:0:0:62:B6S.wav
83,192,40435,1,0,0:0:0:62:A3S_s.wav
375,192,40435,1,0,0:0:0:62:F#6S_Gb6S_s.wav
229,192,40478,1,0,0:0:0:62:E6S_s.wav
302,192,40520,1,0,0:0:0:62:F#6S_Gb6S_s.wav
156,192,40560,1,0,0:0:0:62:E6S_s.wav
448,192,40599,1,0,0:0:0:62:F#6S_Gb6S_s.wav
10,192,40636,1,0,0:0:0:62:E6S_s.wav
375,192,40696,1,0,0:0:0:62:D6S_s.wav
83,192,40826,1,0,0:0:0:62:E6S_s.wav
229,192,40956,1,0,0:0:0:62:D4S.wav
302,192,40956,1,0,0:0:0:62:F#6S_Gb6S_s.wav
156,192,41217,1,0,0:0:0:62:A5S_s.wav
448,192,41478,1,0,0:0:0:62:A5S_s.wav
10,192,41739,1,0,0:0:0:62:F#6S_Gb6S_s.wav
375,192,41869,1,0,0:0:0:62:G6S_s.wav
83,192,42000,1,0,0:0:0:62:D4S.wav
302,192,42000,1,0,0:0:0:62:A6S_s.wav
229,192,42261,1,0,0:0:0:62:A6S_s.wav
156,192,42522,1,0,0:0:0:62:F#4S_Gb4S.wav
448,192,42522,1,0,0:0:0:62:F#6S_Gb6S_s.wav
10,192,42783,1,0,0:0:0:62:D6S_s.wav
83,192,43043,1,0,0:0:0:62:G4S_s.wav
375,192,43043,1,0,0:0:0:62:D7S_s.wav
229,192,43304,1,0,0:0:0:62:A4S_s.wav
302,192,43304,1,0,0:0:0:62:C#7S_Db7S_s.wav
156,192,43565,1,0,0:0:0:62:B4S_s.wav
448,192,43565,1,0,0:0:0:62:B6S_s.wav
10,192,43826,1,0,0:0:0:62:G4S_s.wav
375,192,43826,1,0,0:0:0:62:D7S_s.wav
83,192,44087,1,0,0:0:0:62:F#4S_Gb4S_s.wav
302,192,44087,1,0,0:0:0:62:A6S_s.wav
229,192,44348,1,0,0:0:0:62:D4S_s.wav
448,192,44348,1,0,0:0:0:62:F#6S_Gb6S_s.wav
156,192,44609,1,0,0:0:0:62:A3S_s.wav
375,192,44609,1,0,0:0:0:62:D6S_s.wav
10,192,44869,1,0,0:0:0:62:F#4S_Gb4S_s.wav
302,192,44869,1,0,0:0:0:62:G6S_s.wav
83,192,45000,1,0,0:0:0:62:F#6S_Gb6S_s.wav
229,192,45130,1,0,0:0:0:62:A4S_s.wav
448,192,45130,1,0,0:0:0:62:E6S.wav
156,192,45261,1,0,0:0:0:62:B4S_s.wav
375,192,45391,1,0,0:0:0:62:A4S_s.wav
10,192,45522,1,0,0:0:0:62:B4S_s.wav
302,192,45652,1,0,0:0:0:62:A4S_s.wav
83,192,45913,1,0,0:0:0:62:F#6S_Gb6S_s.wav
229,192,46043,1,0,0:0:0:62:G6S_s.wav
156,192,46174,1,0,0:0:0:62:F#4S_Gb4S_s.wav
448,192,46174,1,0,0:0:0:62:A6S_s.wav
10,192,46435,1,0,0:0:0:62:D4S_s.wav
375,192,46435,1,0,0:0:0:62:A6S_s.wav
83,192,46696,1,0,0:0:0:62:A3S_s.wav
302,192,46696,1,0,0:0:0:62:F#6S_Gb6S_s.wav
156,192,46956,1,0,0:0:0:62:D4S_s.wav
229,192,46956,1,0,0:0:0:62:D6S_s.wav
10,192,47217,1,0,0:0:0:62:G4S_s.wav
448,192,47217,1,0,0:0:0:62:D7S_s.wav
83,192,47478,1,0,0:0:0:62:F#4S_Gb4S_s.wav
375,192,47478,1,0,0:0:0:62:C#7S_Db7S_s.wav
156,192,47739,1,0,0:0:0:62:E4S.wav
302,192,47739,1,0,0:0:0:62:B6S.wav
229,192,48130,1,0,0:0:0:62:C#4S_Db4S_s.wav
448,192,48130,1,0,0:0:0:62:F#6S_Gb6S_s.wav
10,192,48261,1,0,0:0:0:62:D4S_s.wav
375,192,48261,1,0,0:0:0:62:A6S_s.wav
83,192,48522,1,0,0:0:0:62:F#4S_Gb4S_s.wav
302,192,48522,1,0,0:0:0:62:D7S_s.wav
156,192,48783,1,0,0:0:0:62:E4S_s.wav
448,192,48783,1,0,0:0:0:62:C#7S_Db7S_s.wav
229,192,49043,1,0,0:0:0:62:C#4S_Db4S_s.wav
375,192,49043,1,0,0:0:0:62:E7S_s.wav
10,192,49304,1,0,0:0:0:62:D4S_s.wav
302,192,49304,1,0,0:0:0:62:D7S.wav
83,192,49565,1,0,0:0:0:62:D5S_s.wav
448,192,49826,1,0,0:0:0:62:D5S_s.wav
156,192,50087,1,0,0:0:0:62:D6S_s.wav
229,192,50217,1,0,0:0:0:62:E6S_s.wav
10,192,50348,1,0,0:0:0:62:D4S_s.wav
375,192,50348,1,0,0:0:0:62:F#6S_Gb6S_s.wav
302,192,50609,1,0,0:0:0:62:F#6S_Gb6S_s.wav
83,192,50869,1,0,0:0:0:62:C#4S_Db4S_s.wav
448,192,50869,1,0,0:0:0:62:F#6S_Gb6S_s.wav
156,192,51130,1,0,0:0:0:62:D6S_s.wav
229,192,51261,1,0,0:0:0:62:E6S_s.wav
10,192,51391,1,0,0:0:0:62:B3S_s.wav
375,192,51391,1,0,0:0:0:62:F#6S_Gb6S_s.wav
302,192,51652,1,0,0:0:0:62:F#6S_Gb6S_s.wav
83,192,51913,1,0,0:0:0:62:A3S_s.wav
448,192,51913,1,0,0:0:0:62:F#6S_Gb6S_s.wav
156,192,52174,1,0,0:0:0:62:D6S_s.wav
229,192,52304,1,0,0:0:0:62:E6S_s.wav
10,192,52435,1,0,0:0:0:62:D4S_s.wav
375,192,52435,1,0,0:0:0:62:F#6S_Gb6S_s.wav
302,192,52696,1,0,0:0:0:62:F#6S_Gb6S_s.wav
83,192,52956,1,0,0:0:0:62:A3S_s.wav
448,192,52956,1,0,0:0:0:62:G6S.wav
156,192,53348,1,0,0:0:0:62:F#6S_Gb6S_s.wav
10,192,53478,1,0,0:0:0:62:B3S_s.wav
229,192,53478,1,0,0:0:0:62:E6S_s.wav
375,192,53739,1,0,0:0:0:62:A5S_s.wav
83,192,54000,1,0,0:0:0:62:A3S_s.wav
302,192,54000,1,0,0:0:0:62:A5S_s.wav
448,192,54261,1,0,0:0:0:62:C#6S_Db6S_s.wav
156,192,54391,1,0,0:0:0:62:D6S_s.wav
10,192,54522,1,0,0:0:0:62:C#4S_Db4S_s.wav
229,192,54522,1,0,0:0:0:62:E6S_s.wav
375,192,54782,1,0,0:0:0:62:E6S_s.wav
83,192,55043,1,0,0:0:0:62:A3S_s.wav
302,192,55043,1,0,0:0:0:62:E6S_s.wav
448,192,55304,1,0,0:0:0:62:C#6S_Db6S_s.wav
156,192,55435,1,0,0:0:0:62:D6S_s.wav
10,192,55565,1,0,0:0:0:62:B3S_s.wav
229,192,55565,1,0,0:0:0:62:E6S_s.wav
375,192,55826,1,0,0:0:0:62:E6S_s.wav
83,192,56087,1,0,0:0:0:62:C4S_s.wav
302,192,56087,1,0,0:0:0:62:E6S_s.wav
448,192,56348,1,0,0:0:0:62:C#6S_Db6S_s.wav
156,192,56478,1,0,0:0:0:62:D6S_s.wav
10,192,56609,1,0,0:0:0:62:C#4S_Db4S_s.wav
229,192,56609,1,0,0:0:0:62:E6S_s.wav
375,192,56869,1,0,0:0:0:62:E6S_s.wav
83,192,57130,1,0,0:0:0:62:A3S_s.wav
302,192,57130,1,0,0:0:0:62:F#6S_Gb6S_s.wav
448,192,57391,1,0,0:0:0:62:E6S_s.wav
156,192,57522,1,0,0:0:0:62:F#6S_Gb6S_s.wav
10,192,57652,1,0,0:0:0:62:D4S.wav
229,192,57652,1,0,0:0:0:62:D6S.wav
