osu file format v14

[General]
AudioFilename: 110 Battle! Wild Pokemon (Johto).mp3
AudioLeadIn: 0
PreviewTime: 15947
Countdown: 0
SampleSet: Soft
StackLeniency: 0.7
Mode: 0
LetterboxInBreaks: 1
WidescreenStoryboard: 1

[Editor]
Bookmarks: 28242
DistanceSpacing: 0.5
BeatDivisor: 4
GridSize: 4
TimelineZoom: 1.5

[Metadata]
Title:Wild Pokemon Battle HGSS Johto
TitleUnicode:Wild Pokemon Battle HGSS Johto
Artist:Junichi Masuda
ArtistUnicode:Junichi Masuda
Creator:Hisoka
Version:Hard
Source:Pokemon HeartGold SoulSilver
Tags:Pokemon Silver Gold
BeatmapID:493561
BeatmapSetID:209551

[Difficulty]
HPDrainRate:5.5
CircleSize:4
OverallDifficulty:6
ApproachRate:7
SliderMultiplier:1.8
SliderTickRate:2

[Events]
//Background and Video events
0,0,"a991d08d621cf463cab78c10dbf9051c.jpg",0,0
//Break Periods
2,37131,38326
//Storyboard Layer 0 (Background)
//Storyboard Layer 1 (Fail)
//Storyboard Layer 2 (Pass)
//Storyboard Layer 3 (Foreground)
//Storyboard Sound Samples

[TimingPoints]
210,327.868852459016,4,2,0,100,1,0
15947,-100,4,2,0,100,0,1
18570,-133.333333333333,4,2,0,100,0,1
21193,-100,4,2,0,100,0,1
23816,-133.333333333333,4,2,0,100,0,1
26439,-100,4,2,0,100,0,1
29062,-133.333333333333,4,2,0,100,0,1
31685,-100,4,2,0,100,0,1
34308,-133.333333333333,4,2,0,100,0,1
36931,-133.333333333333,4,2,0,100,0,0
47423,-100,4,2,0,100,0,0
55291,-133.333333333333,4,2,0,100,0,0

[HitObjects]
84,68,210,6,0,L|168:100,1,90
256,144,537,2,0,L|172:176,1,90
84,220,865,2,0,L|168:252,1,90
256,296,1192,2,0,L|172:328,1,90
256,360,1521,6,0,L|340:328,1,90
428,284,1848,2,0,L|344:252,1,90
256,208,2176,2,0,L|340:176,1,90
428,132,2503,2,0,L|344:100,1,90
240,72,2832,2,0,P|96:88|60:208,2,270,0|0|0,0:0|0:0|0:0,0:0:0:0:
252,272,4144,1,0,0:0:0:0:
56,192,4472,1,0,0:0:0:0:
252,272,4800,2,0,L|344:264,1,90
341,264,5046,1,0,0:0:0:0:
341,264,5128,1,0,0:0:0:0:
412,196,5291,1,0,0:0:0:0:
352,116,5455,6,0,L|80:136,2,270,0|0|0,0:0|0:0|0:0,0:0:0:0:
256,292,6767,1,0,0:0:0:0:
252,300,6849,1,0,0:0:0:0:
248,308,6931,1,0,0:0:0:0:
148,316,7095,1,0,0:0:0:0:
60,252,7423,2,0,P|88:184|184:160,1,180
360,68,8078,6,0,L|272:92,1,90
412,128,8406,2,0,L|324:152,1,90
464,188,8734,2,0,L|276:240,1,180
96,192,9390,1,0,0:0:0:0:
280,112,9718,2,0,P|244:191|280:271,1,180
464,192,10373,5,0,0:0:0:0:
452,212,10455,1,0,0:0:0:0:
448,236,10537,1,0,0:0:0:0:
448,260,10619,1,0,0:0:0:0:
456,280,10701,2,0,P|316:324|188:304,2,270,0|0|0,0:0|0:0|0:0,0:0:0:0:
280,192,12013,5,0,0:0:0:0:
280,192,12095,1,0,0:0:0:0:
280,192,12177,1,0,0:0:0:0:
180,192,12341,1,0,0:0:0:0:
84,192,12669,2,0,L|41:164,1,45
86,149,12832,2,0,L|59:108,1,45
105,109,12996,2,0,L|96:65,1,45
140,82,13160,2,0,L|156:38,1,45
184,73,13324,5,0,0:0:0:0:
280,52,13488,2,0,L|272:100,2,45,0|0|0,0:0|0:0|0:0,0:0:0:0:
376,84,13816,2,0,L|384:36,2,45,0|0|0,0:0|0:0|0:0,0:0:0:0:
412,176,14144,2,0,L|381:209,1,45
418,233,14308,2,0,L|377:252,1,45
402,288,14471,2,0,L|357:290,1,45
372,328,14636,2,0,L|328:304,7,45,0|0|0|0|0|0|0|0,0:0|0:0|0:0|0:0|0:0|0:0|0:0|0:0,0:0:0:0:
284,280,15291,2,0,L|240:256,7,45,0|0|0|0|0|0|0|0,0:0|0:0|0:0|0:0|0:0|0:0|0:0|0:0,0:0:0:0:
232,208,15947,6,0,P|124:192|56:328,2,270,0|0|0,0:0|0:0|0:0,0:0:0:0:
212,112,17095,1,0,0:0:0:0:
308,96,17259,2,0,P|344:64|392:64,1,90
380,160,17587,2,0,P|428:158|464:189,1,90
396,256,17914,2,0,P|433:285|442:333,1,90
344,304,18242,2,0,P|325:263|336:216,1,90
304,152,18570,6,0,P|164:184|48:248,1,270.000010299683
56,248,19308,1,0,0:0:0:0:
60,252,19390,1,0,0:0:0:0:
88,320,19554,1,0,0:0:0:0:
92,324,19636,1,0,0:0:0:0:
96,328,19718,1,0,0:0:0:0:
172,324,19882,6,0,P|303:295|422:232,1,270.000010299683
428,228,20619,1,0,0:0:0:0:
432,224,20701,1,0,0:0:0:0:
436,148,20865,1,0,0:0:0:0:
436,144,20947,1,0,0:0:0:0:
436,140,21029,1,0,0:0:0:0:
352,88,21193,6,0,L|84:120,2,270,0|0|0,0:0|0:0|0:0,0:0:0:0:
320,184,22341,1,0,0:0:0:0:
256,260,22505,2,0,L|292:348,1,90
172,280,22832,2,0,L|206:196,1,90
88,260,23160,2,0,L|124:348,1,90
4,280,23487,2,0,L|38:196,1,90
112,188,23816,6,0,P|208:160|272:60,1,202.500007724762
332,44,24472,2,0,P|364:152|344:264,1,202.500007724762
276,212,25128,2,0,P|272:248|400:308,1,202.500007724762
460,272,25783,2,0,L|448:64,1,202.500007724762
416,52,26357,1,0,0:0:0:0:
368,60,26439,6,0,P|248:144|112:152,1,270
404,268,27423,1,0,0:0:0:0:
320,316,27587,1,0,0:0:0:0:
220,316,27750,1,0,0:0:0:0:
132,268,27914,1,0,0:0:0:0:
216,216,28078,2,0,L|132:176,1,90
248,148,28406,2,0,L|188:72,1,90
312,112,28734,2,0,L|300:16,1,90
396,112,29062,6,0,P|452:156|414:224,1,135.000005149842
344,324,29718,2,0,L|308:320,3,33.7500012874604,0|0|0|0,0:0|0:0|0:0|0:0,0:0:0:0:
280,264,30046,2,0,L|244:260,3,33.7500012874604,0|0|0|0,0:0|0:0|0:0|0:0,0:0:0:0:
212,208,30373,6,0,P|200:145|253:110,1,135.000005149842
380,192,31029,1,0,0:0:0:0:
304,192,31193,1,0,0:0:0:0:
340,48,31521,1,0,0:0:0:0:
240,44,31685,2,0,P|148:36|80:128,1,180
184,124,32177,2,0,P|119:182|32:172,1,180
132,316,32669,2,0,L|56:264,1,90
200,316,32996,2,0,L|360:224,1,180
464,60,33652,2,0,L|307:149,1,180
192,232,34308,6,0,P|160:248|192:164,1,202.500007724762
216,128,34964,2,0,P|200:96|284:128,1,202.500007724762
320,152,35619,2,0,P|352:136|320:220,1,202.500007724762
296,256,36275,2,0,P|312:288|228:272,1,135.000005149842
256,192,36931,1,0,0:0:0:0:
120,192,39226,5,0,0:0:0:0:
176,144,39390,1,0,0:0:0:0:
248,124,39554,6,0,P|248:196|276:244,1,67.5000025749208
344,304,40046,1,0,0:0:0:0:
404,264,40209,2,0,L|420:120,1,135.000005149842
328,44,40865,2,0,L|184:28,1,135.000005149842
108,120,41521,2,0,L|92:264,1,135.000005149842
240,228,42177,5,0,0:0:0:0:
240,80,42505,1,0,0:0:0:0:
240,80,42669,1,0,0:0:0:0:
240,228,42832,1,0,0:0:0:0:
472,44,43488,6,0,P|368:156|360:308,1,270.000010299683
256,192,44800,12,0,46111,0:0:0:0:
84,124,47423,6,0,L|172:72,1,90
220,124,47750,2,0,L|132:176,1,90
292,124,48078,2,0,L|380:72,1,90
428,124,48405,2,0,L|340:176,1,90
368,344,48734,6,0,L|408:263,1,90
272,208,49062,2,0,L|312:288,1,90
176,340,49390,2,0,L|216:259,1,90
80,204,49718,2,0,L|120:284,1,90
176,204,50046,6,0,L|148:116,1,90
240,160,50373,2,0,L|243:67,1,90
316,160,50701,2,0,L|351:74,1,90
380,200,51029,2,0,L|442:131,1,90
416,268,51357,2,0,L|348:340,1,90
156,320,51849,1,0,0:0:0:0:
60,148,52177,1,0,0:0:0:0:
108,236,52341,1,0,0:0:0:0:
212,68,52669,5,0,0:0:0:0:
240,64,52750,1,0,0:0:0:0:
268,68,52832,1,0,0:0:0:0:
292,84,52914,1,0,0:0:0:0:
308,104,52996,2,0,P|336:152|328:208,1,90
284,248,53324,2,0,P|256:204|268:144,1,90
160,144,53652,1,0,0:0:0:0:
160,144,53816,1,0,0:0:0:0:
120,236,53980,6,0,P|144:304|244:340,1,180
392,236,54636,2,0,P|368:304|268:340,1,180
320,200,55291,2,0,P|324:120|152:96,1,270.000010299683
168,84,56029,1,0,0:0:0:0:
168,92,56111,1,0,0:0:0:0:
168,168,56275,1,0,0:0:0:0:
168,168,56357,1,0,0:0:0:0:
168,168,56439,1,0,0:0:0:0:
100,196,56603,6,0,P|96:276|268:300,1,270.000010299683
256,312,57341,1,0,0:0:0:0:
260,304,57423,1,0,0:0:0:0:
264,296,57505,1,0,0:0:0:0:
268,288,57587,1,0,0:0:0:0:
