osu file format v14

[General]
AudioFilename: audio.mp3
AudioLeadIn: 0
PreviewTime: -1
Countdown: 0
SampleSet: None
StackLeniency: 0.7
Mode: 3
LetterboxInBreaks: 0
SpecialStyle: 0
WidescreenStoryboard: 0

[Editor]
DistanceSpacing: 1.2
BeatDivisor: 4
GridSize: 4
TimelineZoom: 1

[Metadata]
Title:Viridian City2
TitleUnicode:常馨市
Artist:Junichi Masuda
ArtistUnicode:Junichi Masuda
Creator:pikechu
Version:Viridian City2
Source:Pokemon
Tags:
BeatmapID:1577120
BeatmapSetID:748653

[Difficulty]
HPDrainRate:8
CircleSize:7
OverallDifficulty:8
ApproachRate:5
SliderMultiplier:1.4
SliderTickRate:1

[Events]
//Background and Video events
0,0,"background.jpg",0,0
//Break Periods
//Storyboard Layer 0 (Background)
//Storyboard Layer 1 (Fail)
//Storyboard Layer 2 (Pass)
//Storyboard Layer 3 (Foreground)
//Storyboard Sound Samples

[TimingPoints]
0,461.538,4,1,1,100,1,0

[HitObjects]
10,192,0,5,0,0:0:0:62:E4S_s.wav
302,192,0,1,0,0:0:0:62:G#4S_Ab4S_s.wav
375,192,0,1,0,0:0:0:62:B6S_s.wav
156,192,231,1,0,0:0:0:62:E4S_s.wav
83,192,462,1,0,0:0:0:62:F#4S_Gb4S_s.wav
448,192,462,1,0,0:0:0:62:A6S_s.wav
229,192,692,1,0,0:0:0:62:F#4S_Gb4S_s.wav
10,192,923,1,0,0:0:0:62:E4S_s.wav
375,192,923,1,0,0:0:0:62:G#6S_Ab6S.wav
302,192,1154,1,0,0:0:0:62:E4S_s.wav
156,192,1385,1,0,0:0:0:62:F#4S_Gb4S_s.wav
448,192,1615,1,0,0:0:0:62:D#4S_Eb4S_s.wav
83,192,1846,1,0,0:0:0:62:E4S_s.wav
10,192,2077,1,0,0:0:0:62:E4S_s.wav
229,192,2077,1,0,0:0:0:62:G#6S_Ab6S_s.wav
302,192,2308,1,0,0:0:0:62:D#4S_Eb4S_s.wav
375,192,2308,1,0,0:0:0:62:A6S_s.wav
156,192,2538,1,0,0:0:0:62:C#4S_Db4S_s.wav
448,192,2538,1,0,0:0:0:62:B6S_s.wav
10,192,3000,1,0,0:0:0:62:D#4S_Eb4S_s.wav
83,192,3000,1,0,0:0:0:62:B6S_s.wav
229,192,3231,1,0,0:0:0:62:E4S_s.wav
302,192,3231,1,0,0:0:0:62:A6S_s.wav
375,192,3462,1,0,0:0:0:62:G#6S_Ab6S_s.wav
156,192,3692,1,0,0:0:0:62:D#4S_Eb4S_s.wav
448,192,3692,1,0,0:0:0:62:A6S_s.wav
83,192,3923,1,0,0:0:0:62:F#6S_Gb6S_s.wav
10,192,4154,1,0,0:0:0:62:C#4S_Db4S_s.wav
229,192,4385,1,0,0:0:0:62:E4S_s.wav
302,192,4615,1,0,0:0:0:62:E4S_s.wav
375,192,4846,1,0,0:0:0:62:E4S_s.wav
156,192,5308,1,0,0:0:0:62:E4S_s.wav
448,192,5538,1,0,0:0:0:62:D#4S_Eb4S.wav
83,192,6231,1,0,0:0:0:62:C#4S_Db4S_s.wav
10,192,6462,1,0,0:0:0:62:C#4S_Db4S_s.wav
229,192,6462,1,0,0:0:0:62:E4S_s.wav
302,192,6923,1,0,0:0:0:62:D#4S_Eb4S_s.wav
375,192,6923,1,0,0:0:0:62:F#4S_Gb4S_s.wav
156,192,7385,1,0,0:0:0:62:F#4S_Gb4S_s.wav
448,192,7385,1,0,0:0:0:62:A6S_s.wav
83,192,7615,1,0,0:0:0:62:D#4S_Eb4S_s.wav
10,192,7846,1,0,0:0:0:62:G#6S_Ab6S_s.wav
229,192,8077,1,0,0:0:0:62:E4S_s.wav
302,192,8308,1,0,0:0:0:62:D#4S_Eb4S_s.wav
375,192,8308,1,0,0:0:0:62:F#6S_Gb6S.wav
156,192,8538,1,0,0:0:0:62:D#4S_Eb4S_s.wav
448,192,8769,1,0,0:0:0:62:C#4S_Db4S_s.wav
83,192,9000,1,0,0:0:0:62:C#4S_Db4S_s.wav
10,192,9231,1,0,0:0:0:62:B3S_s.wav
229,192,9462,1,0,0:0:0:62:F#6S_Gb6S_s.wav
302,192,9692,1,0,0:0:0:62:C#4S_Db4S_s.wav
375,192,9692,1,0,0:0:0:62:G#6S_Ab6S_s.wav
156,192,9923,1,0,0:0:0:62:D#4S_Eb4S_s.wav
448,192,9923,1,0,0:0:0:62:A6S_s.wav
83,192,10154,1,0,0:0:0:62:C#4S_Db4S_s.wav
10,192,10385,1,0,0:0:0:62:D#4S_Eb4S_s.wav
229,192,10385,1,0,0:0:0:62:A6S_s.wav
302,192,10615,1,0,0:0:0:62:G#6S_Ab6S_s.wav
375,192,10846,1,0,0:0:0:62:F#6S_Gb6S_s.wav
156,192,11077,1,0,0:0:0:62:E4S_s.wav
448,192,11077,1,0,0:0:0:62:G#6S_Ab6S_s.wav
10,192,11308,1,0,0:0:0:62:B3S_s.wav
83,192,11308,1,0,0:0:0:62:E6S_s.wav
229,192,11769,1,0,0:0:0:62:C#4S_Db4S_s.wav
302,192,12000,1,0,0:0:0:62:C#4S_Db4S_s.wav
375,192,12462,1,0,0:0:0:62:D#4S_Eb4S_s.wav
156,192,12923,1,0,0:0:0:62:E3S_s.wav
448,192,12923,1,0,0:0:0:62:E4S.wav
10,192,13615,1,0,0:0:0:62:F#3S_Gb3S_s.wav
83,192,13615,1,0,0:0:0:62:F#4S_Gb4S.wav
229,192,14308,1,0,0:0:0:62:G#3S_Ab3S_s.wav
302,192,14308,1,0,0:0:0:62:G#4S_Ab4S_s.wav
375,192,14562,1,0,0:0:0:62:G#6S_Ab6S_s.wav
156,192,14665,1,0,0:0:0:62:A6S_s.wav
10,192,14769,1,0,0:0:0:62:E4S_s.wav
83,192,14769,1,0,0:0:0:62:G#4S_Ab4S_s.wav
302,192,14769,1,0,0:0:0:62:B5S_s.wav
448,192,14769,1,0,0:0:0:62:B6S_s.wav
229,192,15000,1,0,0:0:0:62:E4S_s.wav
156,192,15231,1,0,0:0:0:62:F#4S_Gb4S_s.wav
302,192,15231,1,0,0:0:0:62:A5S_s.wav
375,192,15231,1,0,0:0:0:62:A6S_s.wav
10,192,15462,1,0,0:0:0:62:F#4S_Gb4S_s.wav
83,192,15692,1,0,0:0:0:62:E4S_s.wav
229,192,15692,1,0,0:0:0:62:G#5S_Ab5S.wav
448,192,15692,1,0,0:0:0:62:G#6S_Ab6S.wav
375,192,15923,1,0,0:0:0:62:E4S_s.wav
156,192,16154,1,0,0:0:0:62:F#4S_Gb4S_s.wav
302,192,16385,1,0,0:0:0:62:D#4S_Eb4S_s.wav
10,192,16615,1,0,0:0:0:62:E4S_s.wav
83,192,16846,1,0,0:0:0:62:E4S_s.wav
229,192,16846,1,0,0:0:0:62:G#5S_Ab5S_s.wav
448,192,16846,1,0,0:0:0:62:G#6S_Ab6S_s.wav
156,192,17077,1,0,0:0:0:62:D#4S_Eb4S_s.wav
302,192,17077,1,0,0:0:0:62:A5S_s.wav
375,192,17077,1,0,0:0:0:62:A6S_s.wav
10,192,17308,1,0,0:0:0:62:C#4S_Db4S_s.wav
83,192,17308,1,0,0:0:0:62:B5S_s.wav
448,192,17308,1,0,0:0:0:62:B6S_s.wav
156,192,17769,1,0,0:0:0:62:D#4S_Eb4S_s.wav
229,192,17769,1,0,0:0:0:62:B5S_s.wav
302,192,17769,1,0,0:0:0:62:B6S_s.wav
10,192,18000,1,0,0:0:0:62:E4S_s.wav
375,192,18000,1,0,0:0:0:62:A5S_s.wav
448,192,18000,1,0,0:0:0:62:A6S_s.wav
83,192,18231,1,0,0:0:0:62:G#5S_Ab5S_s.wav
302,192,18231,1,0,0:0:0:62:G#6S_Ab6S_s.wav
156,192,18462,1,0,0:0:0:62:D#4S_Eb4S_s.wav
229,192,18462,1,0,0:0:0:62:A5S_s.wav
375,192,18462,1,0,0:0:0:62:A6S_s.wav
10,192,18692,1,0,0:0:0:62:F#5S_Gb5S_s.wav
448,192,18692,1,0,0:0:0:62:F#6S_Gb6S_s.wav
83,192,18923,1,0,0:0:0:62:C#4S_Db4S_s.wav
302,192,19154,1,0,0:0:0:62:E4S_s.wav
156,192,19385,1,0,0:0:0:62:E4S_s.wav
375,192,19615,1,0,0:0:0:62:E4S_s.wav
229,192,20077,1,0,0:0:0:62:E4S_s.wav
448,192,20308,1,0,0:0:0:62:D#4S_Eb4S.wav
10,192,21000,1,0,0:0:0:62:C#4S_Db4S_s.wav
83,192,21231,1,0,0:0:0:62:C#4S_Db4S_s.wav
302,192,21231,1,0,0:0:0:62:E4S_s.wav
156,192,21692,1,0,0:0:0:62:D#4S_Eb4S_s.wav
375,192,21692,1,0,0:0:0:62:F#4S_Gb4S_s.wav
10,192,22154,1,0,0:0:0:62:F#4S_Gb4S_s.wav
229,192,22154,1,0,0:0:0:62:A5S_s.wav
448,192,22154,1,0,0:0:0:62:A6S_s.wav
302,192,22385,1,0,0:0:0:62:D#4S_Eb4S_s.wav
83,192,22615,1,0,0:0:0:62:G#5S_Ab5S_s.wav
375,192,22615,1,0,0:0:0:62:G#6S_Ab6S_s.wav
156,192,22846,1,0,0:0:0:62:E4S_s.wav
10,192,23077,1,0,0:0:0:62:D#4S_Eb4S_s.wav
229,192,23077,1,0,0:0:0:62:F#5S_Gb5S.wav
448,192,23077,1,0,0:0:0:62:F#6S_Gb6S.wav
302,192,23308,1,0,0:0:0:62:D#4S_Eb4S_s.wav
83,192,23538,1,0,0:0:0:62:C#4S_Db4S_s.wav
375,192,23769,1,0,0:0:0:62:C#4S_Db4S_s.wav
156,192,24000,1,0,0:0:0:62:B3S_s.wav
229,192,24231,1,0,0:0:0:62:F#5S_Gb5S_s.wav
448,192,24231,1,0,0:0:0:62:F#6S_Gb6S_s.wav
10,192,24462,1,0,0:0:0:62:C#4S_Db4S_s.wav
83,192,24462,1,0,0:0:0:62:G#5S_Ab5S_s.wav
302,192,24462,1,0,0:0:0:62:G#6S_Ab6S_s.wav
156,192,24692,1,0,0:0:0:62:D#4S_Eb4S_s.wav
375,192,24692,1,0,0:0:0:62:A5S_s.wav
448,192,24692,1,0,0:0:0:62:A6S_s.wav
229,192,24923,1,0,0:0:0:62:C#4S_Db4S_s.wav
10,192,25154,1,0,0:0:0:62:D#4S_Eb4S_s.wav
83,192,25154,1,0,0:0:0:62:A5S_s.wav
302,192,25154,1,0,0:0:0:62:A6S_s.wav
156,192,25385,1,0,0:0:0:62:G#5S_Ab5S_s.wav
448,192,25385,1,0,0:0:0:62:G#6S_Ab6S_s.wav
229,192,25615,1,0,0:0:0:62:F#5S_Gb5S_s.wav
375,192,25615,1,0,0:0:0:62:F#6S_Gb6S_s.wav
10,192,25846,1,0,0:0:0:62:E4S_s.wav
83,192,25846,1,0,0:0:0:62:G#5S_Ab5S_s.wav
302,192,25846,1,0,0:0:0:62:G#6S_Ab6S_s.wav
156,192,26077,1,0,0:0:0:62:B3S_s.wav
375,192,26077,1,0,0:0:0:62:E5S_s.wav
448,192,26077,1,0,0:0:0:62:E6S_s.wav
229,192,26308,1,0,0:0:0:62:C#4S_Db4S_s.wav
10,192,26538,1,0,0:0:0:62:G#4S_Ab4S_s.wav
302,192,26769,1,0,0:0:0:62:E4S_s.wav
83,192,27231,1,0,0:0:0:62:B3S_s.wav
375,192,27462,1,0,0:0:0:62:E4S_s.wav
156,192,27692,1,0,0:0:0:62:E3S_s.wav
448,192,27692,1,0,0:0:0:62:E4S.wav
10,192,28385,1,0,0:0:0:62:F#3S_Gb3S_s.wav
229,192,28385,1,0,0:0:0:62:F#4S_Gb4S.wav
83,192,29077,1,0,0:0:0:62:G#3S_Ab3S_s.wav
302,192,29077,1,0,0:0:0:62:G#4S_Ab4S_s.wav
156,192,29538,1,0,0:0:0:62:G#4S_Ab4S_s.wav
375,192,29538,1,0,0:0:0:62:C#6S_Db6S.wav
448,192,29538,1,0,0:0:0:62:C#7S_Db7S.wav
229,192,29769,1,0,0:0:0:62:E4S_s.wav
10,192,30000,1,0,0:0:0:62:C#4S_Db4S_s.wav
302,192,30231,1,0,0:0:0:62:E4S_s.wav
83,192,30692,1,0,0:0:0:62:E4S_s.wav
156,192,30923,1,0,0:0:0:62:C#4S_Db4S_s.wav
375,192,30923,1,0,0:0:0:62:A5S_s.wav
448,192,30923,1,0,0:0:0:62:A6S_s.wav
229,192,31154,1,0,0:0:0:62:E4S_s.wav
10,192,31385,1,0,0:0:0:62:A4S_s.wav
83,192,31385,1,0,0:0:0:62:E6S.wav
302,192,31385,1,0,0:0:0:62:E7S.wav
375,192,31615,1,0,0:0:0:62:E4S_s.wav
156,192,31846,1,0,0:0:0:62:A4S_s.wav
448,192,32077,1,0,0:0:0:62:B4S_s.wav
10,192,32308,1,0,0:0:0:62:B4S_s.wav
229,192,32308,1,0,0:0:0:62:F#6S_Gb6S_s.wav
302,192,32308,1,0,0:0:0:62:F#7S_Gb7S_s.wav
83,192,32538,1,0,0:0:0:62:A4S_s.wav
156,192,32538,1,0,0:0:0:62:E6S_s.wav
375,192,32538,1,0,0:0:0:62:E7S_s.wav
10,192,32769,1,0,0:0:0:62:G#4S_Ab4S_s.wav
229,192,32769,1,0,0:0:0:62:D#6S_Eb6S_s.wav
448,192,32769,1,0,0:0:0:62:D#7S_Eb7S_s.wav
83,192,33000,1,0,0:0:0:62:F#4S_Gb4S_s.wav
302,192,33000,1,0,0:0:0:62:C#6S_Db6S_s.wav
375,192,33000,1,0,0:0:0:62:C#7S_Db7S_s.wav
156,192,33231,1,0,0:0:0:62:G#4S_Ab4S_s.wav
229,192,33231,1,0,0:0:0:62:B5S.wav
448,192,33231,1,0,0:0:0:62:B6S.wav
10,192,33462,1,0,0:0:0:62:E4S_s.wav
302,192,33692,1,0,0:0:0:62:B3S_s.wav
83,192,33923,1,0,0:0:0:62:E4S_s.wav
375,192,34385,1,0,0:0:0:62:G#4S_Ab4S_s.wav
156,192,34615,1,0,0:0:0:62:B3S_s.wav
229,192,34615,1,0,0:0:0:62:G#5S_Ab5S_s.wav
448,192,34615,1,0,0:0:0:62:G#6S_Ab6S_s.wav
10,192,34846,1,0,0:0:0:62:E4S_s.wav
83,192,35077,1,0,0:0:0:62:E4S_s.wav
302,192,35077,1,0,0:0:0:62:B5S.wav
375,192,35077,1,0,0:0:0:62:B6S.wav
156,192,35308,1,0,0:0:0:62:F#4S_Gb4S_s.wav
448,192,35538,1,0,0:0:0:62:E4S_s.wav
229,192,35769,1,0,0:0:0:62:D#4S_Eb4S_s.wav
10,192,36000,1,0,0:0:0:62:E4S_s.wav
302,192,36231,1,0,0:0:0:62:D#4S_Eb4S_s.wav
83,192,36462,1,0,0:0:0:62:C#4S_Db4S_s.wav
375,192,36692,1,0,0:0:0:62:B3S_s.wav
156,192,36923,1,0,0:0:0:62:C#4S_Db4S_s.wav
229,192,36923,1,0,0:0:0:62:F#5S_Gb5S.wav
448,192,36923,1,0,0:0:0:62:F#6S_Gb6S.wav
10,192,37154,1,0,0:0:0:62:D#4S_Eb4S_s.wav
302,192,37385,1,0,0:0:0:62:C#4S_Db4S_s.wav
83,192,37615,1,0,0:0:0:62:B3S_s.wav
156,192,38077,1,0,0:0:0:62:B3S_s.wav
375,192,38077,1,0,0:0:0:62:F#5S_Gb5S_s.wav
448,192,38077,1,0,0:0:0:62:F#6S_Gb6S_s.wav
10,192,38308,1,0,0:0:0:62:C#4S_Db4S_s.wav
229,192,38308,1,0,0:0:0:62:G#5S_Ab5S_s.wav
302,192,38308,1,0,0:0:0:62:G#6S_Ab6S_s.wav
83,192,38538,1,0,0:0:0:62:D#4S_Eb4S_s.wav
156,192,38538,1,0,0:0:0:62:A5S_s.wav
448,192,38538,1,0,0:0:0:62:A6S_s.wav
10,192,38769,1,0,0:0:0:62:C#4S_Db4S_s.wav
302,192,38769,1,0,0:0:0:62:B5S_s.wav
375,192,38769,1,0,0:0:0:62:B6S_s.wav
229,192,39000,1,0,0:0:0:62:D#4S_Eb4S_s.wav
83,192,39231,1,0,0:0:0:62:C#4S_Db4S_s.wav
156,192,39231,1,0,0:0:0:62:A5S_s.wav
448,192,39231,1,0,0:0:0:62:A6S_s.wav
375,192,39461,1,0,0:0:0:62:B3S_s.wav
10,192,39692,1,0,0:0:0:62:G#5S_Ab5S_s.wav
302,192,39692,1,0,0:0:0:62:G#6S_Ab6S_s.wav
229,192,39923,1,0,0:0:0:62:B3S_s.wav
83,192,40154,1,0,0:0:0:62:C#4S_Db4S_s.wav
156,192,40154,1,0,0:0:0:62:F#5S_Gb5S_s.wav
448,192,40154,1,0,0:0:0:62:F#6S_Gb6S_s.wav
375,192,40385,1,0,0:0:0:62:D#4S_Eb4S_s.wav
10,192,40615,1,0,0:0:0:62:E4S_s.wav
229,192,40615,1,0,0:0:0:62:G#5S_Ab5S.wav
302,192,40615,1,0,0:0:0:62:G#6S_Ab6S.wav
83,192,40846,1,0,0:0:0:62:B3S_s.wav
448,192,41308,1,0,0:0:0:62:E4S_s.wav
156,192,41769,1,0,0:0:0:62:B3S_s.wav
10,192,42000,1,0,0:0:0:62:C#4S_Db4S_s.wav
229,192,42000,1,0,0:0:0:62:E5S_s.wav
375,192,42000,1,0,0:0:0:62:E6S_s.wav
302,192,42231,1,0,0:0:0:62:G#4S_Ab4S_s.wav
83,192,42461,1,0,0:0:0:62:G#4S_Ab4S_s.wav
156,192,42461,1,0,0:0:0:62:B5S.wav
448,192,42461,1,0,0:0:0:62:B6S.wav
375,192,42692,1,0,0:0:0:62:B3S_s.wav
10,192,42923,1,0,0:0:0:62:F#4S_Gb4S_s.wav
229,192,43154,1,0,0:0:0:62:B3S_s.wav
302,192,43385,1,0,0:0:0:62:E4S_s.wav
83,192,43615,1,0,0:0:0:62:B3S_s.wav
448,192,43846,1,0,0:0:0:62:D#4S_Eb4S_s.wav
156,192,44077,1,0,0:0:0:62:B3S_s.wav
10,192,44308,1,0,0:0:0:62:A4S_s.wav
229,192,44308,1,0,0:0:0:62:C#6S_Db6S.wav
375,192,44308,1,0,0:0:0:62:C#7S_Db7S.wav
302,192,44538,1,0,0:0:0:62:E4S_s.wav
83,192,44769,1,0,0:0:0:62:C#4S_Db4S_s.wav
448,192,45000,1,0,0:0:0:62:E4S_s.wav
156,192,45461,1,0,0:0:0:62:C#6S_Db6S_s.wav
375,192,45461,1,0,0:0:0:62:C#7S_Db7S_s.wav
10,192,45692,1,0,0:0:0:62:C#4S_Db4S_s.wav
229,192,45692,1,0,0:0:0:62:D#6S_Eb6S_s.wav
302,192,45692,1,0,0:0:0:62:D#7S_Eb7S_s.wav
83,192,45923,1,0,0:0:0:62:E4S_s.wav
156,192,45923,1,0,0:0:0:62:E6S_s.wav
448,192,45923,1,0,0:0:0:62:E7S_s.wav
10,192,46154,1,0,0:0:0:62:A4S_s.wav
229,192,46154,1,0,0:0:0:62:F#6S_Gb6S_s.wav
375,192,46154,1,0,0:0:0:62:F#7S_Gb7S_s.wav
302,192,46385,1,0,0:0:0:62:E4S_s.wav
83,192,46615,1,0,0:0:0:62:A4S_s.wav
156,192,46615,1,0,0:0:0:62:E6S_s.wav
448,192,46615,1,0,0:0:0:62:E7S_s.wav
375,192,46846,1,0,0:0:0:62:B4S_s.wav
10,192,47077,1,0,0:0:0:62:B4S_s.wav
229,192,47077,1,0,0:0:0:62:D#6S_Eb6S_s.wav
302,192,47077,1,0,0:0:0:62:D#7S_Eb7S_s.wav
83,192,47308,1,0,0:0:0:62:A4S_s.wav
156,192,47538,1,0,0:0:0:62:G#4S_Ab4S_s.wav
375,192,47538,1,0,0:0:0:62:C#6S_Db6S_s.wav
448,192,47538,1,0,0:0:0:62:C#7S_Db7S_s.wav
10,192,47769,1,0,0:0:0:62:F#4S_Gb4S_s.wav
83,192,48000,1,0,0:0:0:62:G#4S_Ab4S_s.wav
229,192,48000,1,0,0:0:0:62:B5S.wav
302,192,48000,1,0,0:0:0:62:B6S.wav
448,192,48231,1,0,0:0:0:62:E4S_s.wav
156,192,48461,1,0,0:0:0:62:B3S_s.wav
375,192,48692,1,0,0:0:0:62:E4S_s.wav
10,192,48923,1,0,0:0:0:62:C#4S_Db4S_s.wav
302,192,49154,1,0,0:0:0:62:G#4S_Ab4S_s.wav
83,192,49385,1,0,0:0:0:62:C#4S_Db4S_s.wav
229,192,49385,1,0,0:0:0:62:C#6S_Db6S_s.wav
448,192,49385,1,0,0:0:0:62:C#7S_Db7S_s.wav
10,192,49615,1,0,0:0:0:62:D#4S_Eb4S_s.wav
156,192,49615,1,0,0:0:0:62:D#6S_Eb6S_s.wav
375,192,49615,1,0,0:0:0:62:D#7S_Eb7S_s.wav
83,192,49846,1,0,0:0:0:62:B4S_s.wav
302,192,49846,1,0,0:0:0:62:C#6S_Db6S_s.wav
448,192,49846,1,0,0:0:0:62:C#7S_Db7S_s.wav
229,192,50077,1,0,0:0:0:62:E4S_s.wav
10,192,50308,1,0,0:0:0:62:G#4S_Ab4S_s.wav
156,192,50308,1,0,0:0:0:62:B5S_s.wav
375,192,50308,1,0,0:0:0:62:B6S_s.wav
448,192,50538,1,0,0:0:0:62:E4S_s.wav
83,192,50769,1,0,0:0:0:62:F#4S_Gb4S_s.wav
229,192,50769,1,0,0:0:0:62:A5S_s.wav
302,192,50769,1,0,0:0:0:62:A6S_s.wav
156,192,51000,1,0,0:0:0:62:E4S_s.wav
10,192,51231,1,0,0:0:0:62:G#5S_Ab5S_s.wav
375,192,51231,1,0,0:0:0:62:G#6S_Ab6S_s.wav
83,192,51692,1,0,0:0:0:62:F#4S_Gb4S_s.wav
302,192,51692,1,0,0:0:0:62:A5S.wav
448,192,51692,1,0,0:0:0:62:A6S.wav
229,192,51923,1,0,0:0:0:62:D#4S_Eb4S_s.wav
156,192,52154,1,0,0:0:0:62:B3S_s.wav
375,192,52385,1,0,0:0:0:62:D#4S_Eb4S_s.wav
10,192,53077,1,0,0:0:0:62:D#4S_Eb4S_s.wav
83,192,53077,1,0,0:0:0:62:B5S_s.wav
448,192,53077,1,0,0:0:0:62:B6S_s.wav
156,192,53308,1,0,0:0:0:62:D#4S_Eb4S_s.wav
229,192,53308,1,0,0:0:0:62:C6S_s.wav
302,192,53308,1,0,0:0:0:62:C7S_s.wav
10,192,53538,1,0,0:0:0:62:F#4S_Gb4S_s.wav
375,192,53538,1,0,0:0:0:62:C6S_s.wav
448,192,53538,1,0,0:0:0:62:C7S_s.wav
83,192,53769,1,0,0:0:0:62:B3S_s.wav
156,192,54000,1,0,0:0:0:62:E4S_s.wav
229,192,54000,1,0,0:0:0:62:B5S_s.wav
302,192,54000,1,0,0:0:0:62:B6S_s.wav
10,192,54231,1,0,0:0:0:62:B3S_s.wav
83,192,54461,1,0,0:0:0:62:D#4S_Eb4S_s.wav
375,192,54461,1,0,0:0:0:62:A5S_s.wav
448,192,54461,1,0,0:0:0:62:A6S_s.wav
302,192,54692,1,0,0:0:0:62:B3S_s.wav
10,192,54923,1,0,0:0:0:62:B3S_s.wav
156,192,54923,1,0,0:0:0:62:F#5S_Gb5S_s.wav
229,192,54923,1,0,0:0:0:62:F#6S_Gb6S_s.wav
448,192,55154,1,0,0:0:0:62:D#4S_Eb4S_s.wav
83,192,55385,1,0,0:0:0:62:F#4S_Gb4S_s.wav
302,192,55385,1,0,0:0:0:62:A5S.wav
375,192,55385,1,0,0:0:0:62:A6S.wav
156,192,55615,1,0,0:0:0:62:E4S_s.wav
10,192,55846,1,0,0:0:0:62:F#4S_Gb4S_s.wav
229,192,56077,1,0,0:0:0:62:G#4S_Ab4S_s.wav
83,192,56308,1,0,0:0:0:62:F#4S_Gb4S_s.wav
302,192,56308,1,0,0:0:0:62:C6S.wav
448,192,56308,1,0,0:0:0:62:C7S.wav
375,192,56538,1,0,0:0:0:62:E4S_s.wav
156,192,56769,1,0,0:0:0:62:F#4S_Gb4S_s.wav
10,192,56885,1,0,0:0:0:62:G#4S_Ab4S_s.wav
229,192,57000,1,0,0:0:0:62:E4S_s.wav
83,192,57115,1,0,0:0:0:62:F#4S_Gb4S_s.wav
156,192,57231,1,0,0:0:0:62:E4S_s.wav
302,192,57231,1,0,0:0:0:62:G#4S_Ab4S_s.wav
375,192,57231,1,0,0:0:0:62:B5S.wav
448,192,57231,1,0,0:0:0:62:B6S.wav
10,192,57461,1,0,0:0:0:62:G#4S_Ab4S_s.wav
229,192,57692,1,0,0:0:0:62:B4S_s.wav
83,192,57923,1,0,0:0:0:62:A4S_s.wav
448,192,58154,1,0,0:0:0:62:G#4S_Ab4S_s.wav
156,192,58385,1,0,0:0:0:62:A4S_s.wav
375,192,58615,1,0,0:0:0:62:G#4S_Ab4S_s.wav
302,192,58846,1,0,0:0:0:62:F#4S_Gb4S_s.wav
10,192,58869,1,0,0:0:0:62:G#6S_Ab6S_s.wav
229,192,58973,1,0,0:0:0:62:A6S_s.wav
83,192,59077,1,0,0:0:0:62:E4S_s.wav
156,192,59077,1,0,0:0:0:62:G#4S_Ab4S_s.wav
448,192,59077,1,0,0:0:0:62:B6S_s.wav
375,192,59308,1,0,0:0:0:62:E4S_s.wav
10,192,59538,1,0,0:0:0:62:F#4S_Gb4S_s.wav
302,192,59538,1,0,0:0:0:62:A6S_s.wav
229,192,59769,1,0,0:0:0:62:F#4S_Gb4S_s.wav
83,192,60000,1,0,0:0:0:62:E4S_s.wav
448,192,60000,1,0,0:0:0:62:G#6S_Ab6S.wav
156,192,60231,1,0,0:0:0:62:E4S_s.wav
375,192,60461,1,0,0:0:0:62:F#4S_Gb4S_s.wav
10,192,60692,1,0,0:0:0:62:D#4S_Eb4S_s.wav
302,192,60923,1,0,0:0:0:62:E4S_s.wav
229,192,61154,1,0,0:0:0:62:E4S_s.wav
448,192,61154,1,0,0:0:0:62:G#6S_Ab6S_s.wav
83,192,61385,1,0,0:0:0:62:D#4S_Eb4S_s.wav
156,192,61385,1,0,0:0:0:62:A6S_s.wav
10,192,61615,1,0,0:0:0:62:C#4S_Db4S_s.wav
375,192,61615,1,0,0:0:0:62:B6S_s.wav
229,192,62077,1,0,0:0:0:62:D#4S_Eb4S_s.wav
302,192,62077,1,0,0:0:0:62:B6S_s.wav
156,192,62308,1,0,0:0:0:62:E4S_s.wav
448,192,62308,1,0,0:0:0:62:A6S_s.wav
83,192,62538,1,0,0:0:0:62:G#6S_Ab6S_s.wav
10,192,62769,1,0,0:0:0:62:D#4S_Eb4S_s.wav
375,192,62769,1,0,0:0:0:62:A6S_s.wav
302,192,63000,1,0,0:0:0:62:F#6S_Gb6S_s.wav
229,192,63231,1,0,0:0:0:62:C#4S_Db4S_s.wav
448,192,63461,1,0,0:0:0:62:E4S_s.wav
156,192,63692,1,0,0:0:0:62:E4S_s.wav
83,192,63923,1,0,0:0:0:62:E4S_s.wav
375,192,64385,1,0,0:0:0:62:E4S_s.wav
10,192,64615,1,0,0:0:0:62:D#4S_Eb4S.wav
302,192,65308,1,0,0:0:0:62:C#4S_Db4S_s.wav
229,192,65538,1,0,0:0:0:62:C#4S_Db4S_s.wav
448,192,65538,1,0,0:0:0:62:E4S_s.wav
83,192,66000,1,0,0:0:0:62:D#4S_Eb4S_s.wav
156,192,66000,1,0,0:0:0:62:F#4S_Gb4S_s.wav
10,192,66461,1,0,0:0:0:62:F#4S_Gb4S_s.wav
375,192,66461,1,0,0:0:0:62:A6S_s.wav
302,192,66692,1,0,0:0:0:62:D#4S_Eb4S_s.wav
448,192,66923,1,0,0:0:0:62:G#6S_Ab6S_s.wav
229,192,67154,1,0,0:0:0:62:E4S_s.wav
83,192,67385,1,0,0:0:0:62:D#4S_Eb4S_s.wav
156,192,67385,1,0,0:0:0:62:F#6S_Gb6S.wav
375,192,67615,1,0,0:0:0:62:D#4S_Eb4S_s.wav
10,192,67846,1,0,0:0:0:62:C#4S_Db4S_s.wav
302,192,68077,1,0,0:0:0:62:C#4S_Db4S_s.wav
448,192,68308,1,0,0:0:0:62:B3S_s.wav
229,192,68538,1,0,0:0:0:62:F#6S_Gb6S_s.wav
83,192,68769,1,0,0:0:0:62:C#4S_Db4S_s.wav
156,192,68769,1,0,0:0:0:62:G#6S_Ab6S_s.wav
10,192,69000,1,0,0:0:0:62:D#4S_Eb4S_s.wav
375,192,69000,1,0,0:0:0:62:A6S_s.wav
302,192,69231,1,0,0:0:0:62:C#4S_Db4S_s.wav
229,192,69461,1,0,0:0:0:62:D#4S_Eb4S_s.wav
448,192,69461,1,0,0:0:0:62:A6S_s.wav
83,192,69692,1,0,0:0:0:62:G#6S_Ab6S_s.wav
156,192,69923,1,0,0:0:0:62:F#6S_Gb6S_s.wav
10,192,70154,1,0,0:0:0:62:E4S_s.wav
375,192,70154,1,0,0:0:0:62:G#6S_Ab6S_s.wav
302,192,70385,1,0,0:0:0:62:B3S_s.wav
448,192,70385,1,0,0:0:0:62:E6S_s.wav
229,192,70846,1,0,0:0:0:62:C#4S_Db4S_s.wav
83,192,71077,1,0,0:0:0:62:C#4S_Db4S_s.wav
156,192,71538,1,0,0:0:0:62:D#4S_Eb4S_s.wav
10,192,72000,1,0,0:0:0:62:E3S_s.wav
375,192,72000,1,0,0:0:0:62:E4S.wav
302,192,72692,1,0,0:0:0:62:F#3S_Gb3S_s.wav
448,192,72692,1,0,0:0:0:62:F#4S_Gb4S.wav
83,192,73385,1,0,0:0:0:62:G#3S_Ab3S_s.wav
229,192,73385,1,0,0:0:0:62:G#4S_Ab4S_s.wav
156,192,73638,1,0,0:0:0:62:G#6S_Ab6S_s.wav
375,192,73742,1,0,0:0:0:62:A6S_s.wav
10,192,73846,1,0,0:0:0:62:E4S_s.wav
83,192,73846,1,0,0:0:0:62:G#4S_Ab4S_s.wav
302,192,73846,1,0,0:0:0:62:B5S_s.wav
448,192,73846,1,0,0:0:0:62:B6S_s.wav
229,192,74077,1,0,0:0:0:62:E4S_s.wav
10,192,74308,1,0,0:0:0:62:F#4S_Gb4S_s.wav
156,192,74308,1,0,0:0:0:62:A5S_s.wav
375,192,74308,1,0,0:0:0:62:A6S_s.wav
302,192,74538,1,0,0:0:0:62:F#4S_Gb4S_s.wav
83,192,74769,1,0,0:0:0:62:E4S_s.wav
229,192,74769,1,0,0:0:0:62:G#5S_Ab5S.wav
448,192,74769,1,0,0:0:0:62:G#6S_Ab6S.wav
375,192,75000,1,0,0:0:0:62:E4S_s.wav
156,192,75231,1,0,0:0:0:62:F#4S_Gb4S_s.wav
10,192,75461,1,0,0:0:0:62:D#4S_Eb4S_s.wav
302,192,75692,1,0,0:0:0:62:E4S_s.wav
83,192,75923,1,0,0:0:0:62:E4S_s.wav
229,192,75923,1,0,0:0:0:62:G#5S_Ab5S_s.wav
448,192,75923,1,0,0:0:0:62:G#6S_Ab6S_s.wav
10,192,76154,1,0,0:0:0:62:D#4S_Eb4S_s.wav
156,192,76154,1,0,0:0:0:62:A5S_s.wav
375,192,76154,1,0,0:0:0:62:A6S_s.wav
83,192,76385,1,0,0:0:0:62:C#4S_Db4S_s.wav
302,192,76385,1,0,0:0:0:62:B5S_s.wav
448,192,76385,1,0,0:0:0:62:B6S_s.wav
10,192,76846,1,0,0:0:0:62:D#4S_Eb4S_s.wav
229,192,76846,1,0,0:0:0:62:B5S_s.wav
375,192,76846,1,0,0:0:0:62:B6S_s.wav
83,192,77077,1,0,0:0:0:62:E4S_s.wav
156,192,77077,1,0,0:0:0:62:A5S_s.wav
448,192,77077,1,0,0:0:0:62:A6S_s.wav
10,192,77308,1,0,0:0:0:62:G#5S_Ab5S_s.wav
302,192,77308,1,0,0:0:0:62:G#6S_Ab6S_s.wav
83,192,77538,1,0,0:0:0:62:D#4S_Eb4S_s.wav
229,192,77538,1,0,0:0:0:62:A5S_s.wav
375,192,77538,1,0,0:0:0:62:A6S_s.wav
156,192,77769,1,0,0:0:0:62:F#5S_Gb5S_s.wav
448,192,77769,1,0,0:0:0:62:F#6S_Gb6S_s.wav
302,192,78000,1,0,0:0:0:62:C#4S_Db4S_s.wav
10,192,78231,1,0,0:0:0:62:E4S_s.wav
375,192,78461,1,0,0:0:0:62:E4S_s.wav
229,192,78692,1,0,0:0:0:62:E4S_s.wav
83,192,79154,1,0,0:0:0:62:E4S_s.wav
448,192,79385,1,0,0:0:0:62:D#4S_Eb4S.wav
156,192,80077,1,0,0:0:0:62:C#4S_Db4S_s.wav
10,192,80308,1,0,0:0:0:62:C#4S_Db4S_s.wav
302,192,80308,1,0,0:0:0:62:E4S_s.wav
229,192,80769,1,0,0:0:0:62:D#4S_Eb4S_s.wav
375,192,80769,1,0,0:0:0:62:F#4S_Gb4S_s.wav
83,192,81231,1,0,0:0:0:62:F#4S_Gb4S_s.wav
156,192,81231,1,0,0:0:0:62:A5S_s.wav
448,192,81231,1,0,0:0:0:62:A6S_s.wav
302,192,81461,1,0,0:0:0:62:D#4S_Eb4S_s.wav
10,192,81692,1,0,0:0:0:62:G#5S_Ab5S_s.wav
229,192,81692,1,0,0:0:0:62:G#6S_Ab6S_s.wav
375,192,81923,1,0,0:0:0:62:E4S_s.wav
83,192,82154,1,0,0:0:0:62:D#4S_Eb4S_s.wav
156,192,82154,1,0,0:0:0:62:F#5S_Gb5S.wav
448,192,82154,1,0,0:0:0:62:F#6S_Gb6S.wav
302,192,82385,1,0,0:0:0:62:D#4S_Eb4S_s.wav
10,192,82615,1,0,0:0:0:62:C#4S_Db4S_s.wav
229,192,82846,1,0,0:0:0:62:C#4S_Db4S_s.wav
375,192,83077,1,0,0:0:0:62:B3S_s.wav
156,192,83308,1,0,0:0:0:62:F#5S_Gb5S_s.wav
448,192,83308,1,0,0:0:0:62:F#6S_Gb6S_s.wav
10,192,83538,1,0,0:0:0:62:C#4S_Db4S_s.wav
83,192,83538,1,0,0:0:0:62:G#5S_Ab5S_s.wav
302,192,83538,1,0,0:0:0:62:G#6S_Ab6S_s.wav
156,192,83769,1,0,0:0:0:62:D#4S_Eb4S_s.wav
229,192,83769,1,0,0:0:0:62:A5S_s.wav
375,192,83769,1,0,0:0:0:62:A6S_s.wav
448,192,84000,1,0,0:0:0:62:C#4S_Db4S_s.wav
10,192,84231,1,0,0:0:0:62:D#4S_Eb4S_s.wav
83,192,84231,1,0,0:0:0:62:A5S_s.wav
302,192,84231,1,0,0:0:0:62:A6S_s.wav
229,192,84461,1,0,0:0:0:62:G#5S_Ab5S_s.wav
375,192,84461,1,0,0:0:0:62:G#6S_Ab6S_s.wav
156,192,84692,1,0,0:0:0:62:F#5S_Gb5S_s.wav
448,192,84692,1,0,0:0:0:62:F#6S_Gb6S_s.wav
10,192,84923,1,0,0:0:0:62:E4S_s.wav
83,192,84923,1,0,0:0:0:62:G#5S_Ab5S_s.wav
302,192,84923,1,0,0:0:0:62:G#6S_Ab6S_s.wav
156,192,85154,1,0,0:0:0:62:B3S_s.wav
229,192,85154,1,0,0:0:0:62:E5S_s.wav
375,192,85154,1,0,0:0:0:62:E6S_s.wav
448,192,85385,1,0,0:0:0:62:C#4S_Db4S_s.wav
10,192,85615,1,0,0:0:0:62:G#4S_Ab4S_s.wav
302,192,85846,1,0,0:0:0:62:E4S_s.wav
83,192,86308,1,0,0:0:0:62:B3S_s.wav
375,192,86538,1,0,0:0:0:62:E4S_s.wav
156,192,86769,1,0,0:0:0:62:E3S_s.wav
229,192,86769,1,0,0:0:0:62:E4S.wav
10,192,87461,1,0,0:0:0:62:F#3S_Gb3S_s.wav
448,192,87461,1,0,0:0:0:62:F#4S_Gb4S.wav
83,192,88154,1,0,0:0:0:62:G#3S_Ab3S_s.wav
302,192,88154,1,0,0:0:0:62:G#4S_Ab4S_s.wav
156,192,88615,1,0,0:0:0:62:G#4S_Ab4S_s.wav
229,192,88615,1,0,0:0:0:62:C#6S_Db6S.wav
375,192,88615,1,0,0:0:0:62:C#7S_Db7S.wav
448,192,88846,1,0,0:0:0:62:E4S_s.wav
10,192,89077,1,0,0:0:0:62:C#4S_Db4S_s.wav
302,192,89308,1,0,0:0:0:62:E4S_s.wav
83,192,89769,1,0,0:0:0:62:E4S_s.wav
156,192,90000,1,0,0:0:0:62:C#4S_Db4S_s.wav
229,192,90000,1,0,0:0:0:62:A5S_s.wav
375,192,90000,1,0,0:0:0:62:A6S_s.wav
448,192,90231,1,0,0:0:0:62:E4S_s.wav
10,192,90461,1,0,0:0:0:62:A4S_s.wav
83,192,90461,1,0,0:0:0:62:E6S.wav
302,192,90461,1,0,0:0:0:62:E7S.wav
375,192,90692,1,0,0:0:0:62:E4S_s.wav
156,192,90923,1,0,0:0:0:62:A4S_s.wav
229,192,91154,1,0,0:0:0:62:B4S_s.wav
10,192,91385,1,0,0:0:0:62:B4S_s.wav
302,192,91385,1,0,0:0:0:62:F#6S_Gb6S_s.wav
448,192,91385,1,0,0:0:0:62:F#7S_Gb7S_s.wav
83,192,91615,1,0,0:0:0:62:A4S_s.wav
156,192,91615,1,0,0:0:0:62:E6S_s.wav
375,192,91615,1,0,0:0:0:62:E7S_s.wav
10,192,91846,1,0,0:0:0:62:G#4S_Ab4S_s.wav
229,192,91846,1,0,0:0:0:62:D#6S_Eb6S_s.wav
302,192,91846,1,0,0:0:0:62:D#7S_Eb7S_s.wav
156,192,92077,1,0,0:0:0:62:F#4S_Gb4S_s.wav
375,192,92077,1,0,0:0:0:62:C#6S_Db6S_s.wav
448,192,92077,1,0,0:0:0:62:C#7S_Db7S_s.wav
83,192,92308,1,0,0:0:0:62:G#4S_Ab4S_s.wav
229,192,92308,1,0,0:0:0:62:B5S.wav
302,192,92308,1,0,0:0:0:62:B6S.wav
10,192,92538,1,0,0:0:0:62:E4S_s.wav
375,192,92769,1,0,0:0:0:62:B3S_s.wav
156,192,93000,1,0,0:0:0:62:E4S_s.wav
448,192,93461,1,0,0:0:0:62:G#4S_Ab4S_s.wav
83,192,93692,1,0,0:0:0:62:B3S_s.wav
229,192,93692,1,0,0:0:0:62:G#5S_Ab5S_s.wav
302,192,93692,1,0,0:0:0:62:G#6S_Ab6S_s.wav
10,192,93923,1,0,0:0:0:62:E4S_s.wav
156,192,94154,1,0,0:0:0:62:E4S_s.wav
375,192,94154,1,0,0:0:0:62:B5S.wav
448,192,94154,1,0,0:0:0:62:B6S.wav
83,192,94385,1,0,0:0:0:62:F#4S_Gb4S_s.wav
302,192,94615,1,0,0:0:0:62:E4S_s.wav
229,192,94846,1,0,0:0:0:62:D#4S_Eb4S_s.wav
10,192,95077,1,0,0:0:0:62:E4S_s.wav
448,192,95308,1,0,0:0:0:62:D#4S_Eb4S_s.wav
156,192,95538,1,0,0:0:0:62:C#4S_Db4S_s.wav
375,192,95769,1,0,0:0:0:62:B3S_s.wav
83,192,96000,1,0,0:0:0:62:C#4S_Db4S_s.wav
229,192,96000,1,0,0:0:0:62:F#5S_Gb5S.wav
302,192,96000,1,0,0:0:0:62:F#6S_Gb6S.wav
10,192,96231,1,0,0:0:0:62:D#4S_Eb4S_s.wav
448,192,96461,1,0,0:0:0:62:C#4S_Db4S_s.wav
156,192,96692,1,0,0:0:0:62:B3S_s.wav
83,192,97154,1,0,0:0:0:62:B3S_s.wav
302,192,97154,1,0,0:0:0:62:F#5S_Gb5S_s.wav
375,192,97154,1,0,0:0:0:62:F#6S_Gb6S_s.wav
10,192,97385,1,0,0:0:0:62:C#4S_Db4S_s.wav
229,192,97385,1,0,0:0:0:62:G#5S_Ab5S_s.wav
448,192,97385,1,0,0:0:0:62:G#6S_Ab6S_s.wav
83,192,97615,1,0,0:0:0:62:D#4S_Eb4S_s.wav
156,192,97615,1,0,0:0:0:62:A5S_s.wav
375,192,97615,1,0,0:0:0:62:A6S_s.wav
10,192,97846,1,0,0:0:0:62:C#4S_Db4S_s.wav
302,192,97846,1,0,0:0:0:62:B5S_s.wav
448,192,97846,1,0,0:0:0:62:B6S_s.wav
229,192,98077,1,0,0:0:0:62:D#4S_Eb4S_s.wav
83,192,98308,1,0,0:0:0:62:C#4S_Db4S_s.wav
156,192,98308,1,0,0:0:0:62:A5S_s.wav
375,192,98308,1,0,0:0:0:62:A6S_s.wav
448,192,98538,1,0,0:0:0:62:B3S_s.wav
10,192,98769,1,0,0:0:0:62:G#5S_Ab5S_s.wav
302,192,98769,1,0,0:0:0:62:G#6S_Ab6S_s.wav
229,192,99000,1,0,0:0:0:62:B3S_s.wav
83,192,99231,1,0,0:0:0:62:C#4S_Db4S_s.wav
156,192,99231,1,0,0:0:0:62:F#5S_Gb5S_s.wav
375,192,99231,1,0,0:0:0:62:F#6S_Gb6S_s.wav
448,192,99461,1,0,0:0:0:62:D#4S_Eb4S_s.wav
10,192,99692,1,0,0:0:0:62:E4S_s.wav
229,192,99692,1,0,0:0:0:62:G#5S_Ab5S.wav
302,192,99692,1,0,0:0:0:62:G#6S_Ab6S.wav
156,192,99923,1,0,0:0:0:62:B3S_s.wav
375,192,100385,1,0,0:0:0:62:E4S_s.wav
83,192,100846,1,0,0:0:0:62:B3S_s.wav
10,192,101077,1,0,0:0:0:62:C#4S_Db4S_s.wav
229,192,101077,1,0,0:0:0:62:E5S_s.wav
448,192,101077,1,0,0:0:0:62:E6S_s.wav
302,192,101308,1,0,0:0:0:62:G#4S_Ab4S_s.wav
83,192,101538,1,0,0:0:0:62:G#4S_Ab4S_s.wav
156,192,101538,1,0,0:0:0:62:B5S.wav
375,192,101538,1,0,0:0:0:62:B6S.wav
448,192,101769,1,0,0:0:0:62:B3S_s.wav
10,192,102000,1,0,0:0:0:62:F#4S_Gb4S_s.wav
229,192,102231,1,0,0:0:0:62:B3S_s.wav
302,192,102461,1,0,0:0:0:62:E4S_s.wav
83,192,102692,1,0,0:0:0:62:B3S_s.wav
375,192,102923,1,0,0:0:0:62:D#4S_Eb4S_s.wav
156,192,103154,1,0,0:0:0:62:B3S_s.wav
10,192,103385,1,0,0:0:0:62:A4S_s.wav
229,192,103385,1,0,0:0:0:62:C#6S_Db6S.wav
448,192,103385,1,0,0:0:0:62:C#7S_Db7S.wav
302,192,103615,1,0,0:0:0:62:E4S_s.wav
83,192,103846,1,0,0:0:0:62:C#4S_Db4S_s.wav
375,192,104077,1,0,0:0:0:62:E4S_s.wav
156,192,104538,1,0,0:0:0:62:C#6S_Db6S_s.wav
448,192,104538,1,0,0:0:0:62:C#7S_Db7S_s.wav
10,192,104769,1,0,0:0:0:62:C#4S_Db4S_s.wav
229,192,104769,1,0,0:0:0:62:D#6S_Eb6S_s.wav
302,192,104769,1,0,0:0:0:62:D#7S_Eb7S_s.wav
83,192,105000,1,0,0:0:0:62:E4S_s.wav
156,192,105000,1,0,0:0:0:62:E6S_s.wav
375,192,105000,1,0,0:0:0:62:E7S_s.wav
10,192,105231,1,0,0:0:0:62:A4S_s.wav
229,192,105231,1,0,0:0:0:62:F#6S_Gb6S_s.wav
448,192,105231,1,0,0:0:0:62:F#7S_Gb7S_s.wav
302,192,105461,1,0,0:0:0:62:E4S_s.wav
83,192,105692,1,0,0:0:0:62:A4S_s.wav
156,192,105692,1,0,0:0:0:62:E6S_s.wav
375,192,105692,1,0,0:0:0:62:E7S_s.wav
448,192,105923,1,0,0:0:0:62:B4S_s.wav
10,192,106154,1,0,0:0:0:62:B4S_s.wav
229,192,106154,1,0,0:0:0:62:D#6S_Eb6S_s.wav
302,192,106154,1,0,0:0:0:62:D#7S_Eb7S_s.wav
83,192,106385,1,0,0:0:0:62:A4S_s.wav
156,192,106615,1,0,0:0:0:62:G#4S_Ab4S_s.wav
375,192,106615,1,0,0:0:0:62:C#6S_Db6S_s.wav
448,192,106615,1,0,0:0:0:62:C#7S_Db7S_s.wav
10,192,106846,1,0,0:0:0:62:F#4S_Gb4S_s.wav
83,192,107077,1,0,0:0:0:62:G#4S_Ab4S_s.wav
229,192,107077,1,0,0:0:0:62:B5S.wav
302,192,107077,1,0,0:0:0:62:B6S.wav
375,192,107308,1,0,0:0:0:62:E4S_s.wav
156,192,107538,1,0,0:0:0:62:B3S_s.wav
448,192,107769,1,0,0:0:0:62:E4S_s.wav
10,192,108000,1,0,0:0:0:62:C#4S_Db4S_s.wav
302,192,108231,1,0,0:0:0:62:G#4S_Ab4S_s.wav
83,192,108461,1,0,0:0:0:62:C#4S_Db4S_s.wav
229,192,108461,1,0,0:0:0:62:C#6S_Db6S_s.wav
375,192,108461,1,0,0:0:0:62:C#7S_Db7S_s.wav
10,192,108692,1,0,0:0:0:62:D#4S_Eb4S_s.wav
156,192,108692,1,0,0:0:0:62:D#6S_Eb6S_s.wav
448,192,108692,1,0,0:0:0:62:D#7S_Eb7S_s.wav
83,192,108923,1,0,0:0:0:62:B4S_s.wav
302,192,108923,1,0,0:0:0:62:C#6S_Db6S_s.wav
375,192,108923,1,0,0:0:0:62:C#7S_Db7S_s.wav
229,192,109154,1,0,0:0:0:62:E4S_s.wav
10,192,109385,1,0,0:0:0:62:G#4S_Ab4S_s.wav
156,192,109385,1,0,0:0:0:62:B5S_s.wav
448,192,109385,1,0,0:0:0:62:B6S_s.wav
375,192,109615,1,0,0:0:0:62:E4S_s.wav
83,192,109846,1,0,0:0:0:62:F#4S_Gb4S_s.wav
229,192,109846,1,0,0:0:0:62:A5S_s.wav
302,192,109846,1,0,0:0:0:62:A6S_s.wav
10,192,110077,1,0,0:0:0:62:E4S_s.wav
156,192,110308,1,0,0:0:0:62:G#5S_Ab5S_s.wav
448,192,110308,1,0,0:0:0:62:G#6S_Ab6S_s.wav
83,192,110769,1,0,0:0:0:62:F#4S_Gb4S_s.wav
302,192,110769,1,0,0:0:0:62:A5S.wav
375,192,110769,1,0,0:0:0:62:A6S.wav
229,192,111000,1,0,0:0:0:62:D#4S_Eb4S_s.wav
10,192,111231,1,0,0:0:0:62:B3S_s.wav
448,192,111461,1,0,0:0:0:62:D#4S_Eb4S_s.wav
83,192,112154,1,0,0:0:0:62:D#4S_Eb4S_s.wav
156,192,112154,1,0,0:0:0:62:B5S_s.wav
302,192,112154,1,0,0:0:0:62:B6S_s.wav
10,192,112385,1,0,0:0:0:62:D#4S_Eb4S_s.wav
229,192,112385,1,0,0:0:0:62:C6S_s.wav
375,192,112385,1,0,0:0:0:62:C7S_s.wav
156,192,112615,1,0,0:0:0:62:F#4S_Gb4S_s.wav
302,192,112615,1,0,0:0:0:62:C6S_s.wav
448,192,112615,1,0,0:0:0:62:C7S_s.wav
83,192,112846,1,0,0:0:0:62:B3S_s.wav
10,192,113077,1,0,0:0:0:62:E4S_s.wav
229,192,113077,1,0,0:0:0:62:B5S_s.wav
375,192,113077,1,0,0:0:0:62:B6S_s.wav
448,192,113308,1,0,0:0:0:62:B3S_s.wav
83,192,113538,1,0,0:0:0:62:D#4S_Eb4S_s.wav
156,192,113538,1,0,0:0:0:62:A5S_s.wav
302,192,113538,1,0,0:0:0:62:A6S_s.wav
375,192,113769,1,0,0:0:0:62:B3S_s.wav
10,192,114000,1,0,0:0:0:62:B3S_s.wav
229,192,114000,1,0,0:0:0:62:F#5S_Gb5S_s.wav
448,192,114000,1,0,0:0:0:62:F#6S_Gb6S_s.wav
156,192,114231,1,0,0:0:0:62:D#4S_Eb4S_s.wav
83,192,114461,1,0,0:0:0:62:F#4S_Gb4S_s.wav
302,192,114461,1,0,0:0:0:62:A5S.wav
375,192,114461,1,0,0:0:0:62:A6S.wav
10,192,114692,1,0,0:0:0:62:E4S_s.wav
229,192,114923,1,0,0:0:0:62:F#4S_Gb4S_s.wav
448,192,115154,1,0,0:0:0:62:G#4S_Ab4S_s.wav
83,192,115385,1,0,0:0:0:62:F#4S_Gb4S_s.wav
156,192,115385,1,0,0:0:0:62:C6S.wav
302,192,115385,1,0,0:0:0:62:C7S.wav
375,192,115615,1,0,0:0:0:62:E4S_s.wav
10,192,115846,1,0,0:0:0:62:F#4S_Gb4S_s.wav
229,192,115961,1,0,0:0:0:62:G#4S_Ab4S_s.wav
448,192,116077,1,0,0:0:0:62:E4S_s.wav
83,192,116192,1,0,0:0:0:62:F#4S_Gb4S_s.wav
10,192,116308,1,0,0:0:0:62:E4S.wav
156,192,116308,1,0,0:0:0:62:G#4S_Ab4S.wav
302,192,116308,1,0,0:0:0:62:B5S.wav
375,192,116308,1,0,0:0:0:62:B6S.wav
