osu file format v14

[General]
AudioFilename: audio.mp3
AudioLeadIn: 0
PreviewTime: -1
Countdown: 0
SampleSet: None
StackLeniency: 0.7
Mode: 3
LetterboxInBreaks: 0
SpecialStyle: 0
WidescreenStoryboard: 0

[Editor]
DistanceSpacing: 1.2
BeatDivisor: 4
GridSize: 4
TimelineZoom: 1

[Metadata]
Title:Viridian City
TitleUnicode:常馨市
Artist:Junichi Masuda
ArtistUnicode:Junichi Masuda
Creator:pikechu
Version:Viridian City
Source:Pokemon
Tags:
BeatmapID:1577119
BeatmapSetID:748653

[Difficulty]
HPDrainRate:8
CircleSize:7
OverallDifficulty:8
ApproachRate:5
SliderMultiplier:1.4
SliderTickRate:1

[Events]
//Background and Video events
0,0,"background.jpg",0,0
//Break Periods
//Storyboard Layer 0 (Background)
//Storyboard Layer 1 (Fail)
//Storyboard Layer 2 (Pass)
//Storyboard Layer 3 (Foreground)
//Storyboard Sound Samples

[TimingPoints]
0,400,4,1,1,100,1,0

[HitObjects]
375,192,1200,5,0,0:0:0:62:E5S_s.wav
156,192,1400,1,0,0:0:0:62:F5S_s.wav
83,192,1600,1,0,0:0:0:62:F3S_s.wav
448,192,1600,1,0,0:0:0:62:F5S.wav
302,192,1800,1,0,0:0:0:62:C4S_s.wav
229,192,2000,1,0,0:0:0:62:F4S_s.wav
10,192,2200,1,0,0:0:0:62:C4S.wav
375,192,2800,1,0,0:0:0:62:E5S_s.wav
156,192,3000,1,0,0:0:0:62:F5S_s.wav
83,192,3200,1,0,0:0:0:62:A#3S_Bb3S_s.wav
448,192,3200,1,0,0:0:0:62:F5S.wav
302,192,3400,1,0,0:0:0:62:F4S_s.wav
229,192,3600,1,0,0:0:0:62:A#4S_Bb4S_s.wav
10,192,3800,1,0,0:0:0:62:F4S.wav
375,192,4400,1,0,0:0:0:62:E5S_s.wav
156,192,4600,1,0,0:0:0:62:F5S_s.wav
83,192,4800,1,0,0:0:0:62:C4S_s.wav
448,192,4800,1,0,0:0:0:62:F5S.wav
302,192,5000,1,0,0:0:0:62:G4S_s.wav
229,192,5200,1,0,0:0:0:62:C5S_s.wav
10,192,5400,1,0,0:0:0:62:G4S.wav
375,192,5600,1,0,0:0:0:62:G5S_s.wav
156,192,6000,1,0,0:0:0:62:E5S_s.wav
83,192,6400,1,0,0:0:0:62:F3S_s.wav
448,192,6400,1,0,0:0:0:62:F5S.wav
302,192,6600,1,0,0:0:0:62:C4S_s.wav
229,192,6800,1,0,0:0:0:62:F4S_s.wav
10,192,7000,1,0,0:0:0:62:C4S.wav
375,192,7600,1,0,0:0:0:62:E5S_s.wav
156,192,7800,1,0,0:0:0:62:F5S_s.wav
83,192,8000,1,0,0:0:0:62:F3S_s.wav
448,192,8000,1,0,0:0:0:62:F5S.wav
302,192,8200,1,0,0:0:0:62:C4S_s.wav
229,192,8400,1,0,0:0:0:62:F4S_s.wav
10,192,8600,1,0,0:0:0:62:C4S.wav
375,192,9200,1,0,0:0:0:62:E5S_s.wav
156,192,9400,1,0,0:0:0:62:F5S_s.wav
83,192,9600,1,0,0:0:0:62:A#3S_Bb3S_s.wav
448,192,9600,1,0,0:0:0:62:F5S.wav
302,192,9800,1,0,0:0:0:62:F4S_s.wav
229,192,10000,1,0,0:0:0:62:A#4S_Bb4S_s.wav
10,192,10200,1,0,0:0:0:62:F4S.wav
375,192,10800,1,0,0:0:0:62:E5S_s.wav
156,192,11000,1,0,0:0:0:62:F5S_s.wav
83,192,11200,1,0,0:0:0:62:C4S_s.wav
448,192,11200,1,0,0:0:0:62:F5S.wav
302,192,11400,1,0,0:0:0:62:G4S_s.wav
229,192,11600,1,0,0:0:0:62:C5S_s.wav
10,192,11800,1,0,0:0:0:62:G4S.wav
375,192,12000,1,0,0:0:0:62:G5S_s.wav
156,192,12400,1,0,0:0:0:62:E5S_s.wav
83,192,12800,1,0,0:0:0:62:F3S_s.wav
448,192,12800,1,0,0:0:0:62:F5S.wav
302,192,13000,1,0,0:0:0:62:C4S_s.wav
229,192,13200,1,0,0:0:0:62:F4S_s.wav
10,192,13400,1,0,0:0:0:62:C4S.wav
156,192,14000,1,0,0:0:0:62:E5S_s.wav
375,192,14000,1,0,0:0:0:62:E6S_s.wav
83,192,14200,1,0,0:0:0:62:F5S_s.wav
448,192,14200,1,0,0:0:0:62:F6S_s.wav
10,192,14400,1,0,0:0:0:62:F3S_s.wav
229,192,14400,1,0,0:0:0:62:F5S.wav
302,192,14400,1,0,0:0:0:62:F6S.wav
375,192,14600,1,0,0:0:0:62:C4S_s.wav
156,192,14800,1,0,0:0:0:62:F4S_s.wav
448,192,15000,1,0,0:0:0:62:C4S_s.wav
83,192,15200,1,0,0:0:0:62:F3S_s.wav
302,192,15400,1,0,0:0:0:62:C4S_s.wav
10,192,15600,1,0,0:0:0:62:F4S_s.wav
229,192,15600,1,0,0:0:0:62:E5S_s.wav
375,192,15600,1,0,0:0:0:62:E6S_s.wav
83,192,15800,1,0,0:0:0:62:C4S_s.wav
156,192,15800,1,0,0:0:0:62:F5S_s.wav
448,192,15800,1,0,0:0:0:62:F6S_s.wav
10,192,16000,1,0,0:0:0:62:A#3S_Bb3S_s.wav
302,192,16000,1,0,0:0:0:62:F5S.wav
375,192,16000,1,0,0:0:0:62:F6S.wav
229,192,16200,1,0,0:0:0:62:F4S_s.wav
83,192,16400,1,0,0:0:0:62:A#4S_Bb4S_s.wav
448,192,16600,1,0,0:0:0:62:F4S_s.wav
156,192,16800,1,0,0:0:0:62:A#3S_Bb3S_s.wav
375,192,17000,1,0,0:0:0:62:F4S_s.wav
10,192,17200,1,0,0:0:0:62:A#4S_Bb4S_s.wav
229,192,17200,1,0,0:0:0:62:E5S_s.wav
302,192,17200,1,0,0:0:0:62:E6S_s.wav
83,192,17400,1,0,0:0:0:62:F4S_s.wav
156,192,17400,1,0,0:0:0:62:F5S_s.wav
448,192,17400,1,0,0:0:0:62:F6S_s.wav
10,192,17600,1,0,0:0:0:62:C4S_s.wav
229,192,17600,1,0,0:0:0:62:F5S.wav
375,192,17600,1,0,0:0:0:62:F6S.wav
302,192,17800,1,0,0:0:0:62:G4S_s.wav
83,192,18000,1,0,0:0:0:62:C5S_s.wav
448,192,18200,1,0,0:0:0:62:G4S_s.wav
156,192,18400,1,0,0:0:0:62:C4S_s.wav
229,192,18400,1,0,0:0:0:62:G5S_s.wav
375,192,18400,1,0,0:0:0:62:G6S_s.wav
10,192,18600,1,0,0:0:0:62:G4S_s.wav
83,192,18800,1,0,0:0:0:62:C5S_s.wav
302,192,18800,1,0,0:0:0:62:E5S_s.wav
448,192,18800,1,0,0:0:0:62:E6S_s.wav
156,192,19000,1,0,0:0:0:62:G4S_s.wav
10,192,19200,1,0,0:0:0:62:F3S_s.wav
229,192,19200,1,0,0:0:0:62:F5S.wav
375,192,19200,1,0,0:0:0:62:F6S.wav
302,192,19400,1,0,0:0:0:62:C4S_s.wav
83,192,19600,1,0,0:0:0:62:F4S_s.wav
448,192,19800,1,0,0:0:0:62:C4S_s.wav
156,192,20000,1,0,0:0:0:62:F3S_s.wav
375,192,20200,1,0,0:0:0:62:C4S_s.wav
10,192,20400,1,0,0:0:0:62:F4S_s.wav
229,192,20400,1,0,0:0:0:62:E5S_s.wav
302,192,20400,1,0,0:0:0:62:E6S_s.wav
83,192,20600,1,0,0:0:0:62:C4S_s.wav
156,192,20600,1,0,0:0:0:62:F5S_s.wav
448,192,20600,1,0,0:0:0:62:F6S_s.wav
10,192,20800,1,0,0:0:0:62:F3S_s.wav
229,192,20800,1,0,0:0:0:62:F5S.wav
375,192,20800,1,0,0:0:0:62:F6S.wav
302,192,21000,1,0,0:0:0:62:C4S_s.wav
156,192,21200,1,0,0:0:0:62:F4S_s.wav
448,192,21400,1,0,0:0:0:62:C4S_s.wav
83,192,21600,1,0,0:0:0:62:F3S_s.wav
375,192,21800,1,0,0:0:0:62:C4S_s.wav
10,192,22000,1,0,0:0:0:62:F4S_s.wav
229,192,22000,1,0,0:0:0:62:E5S_s.wav
302,192,22000,1,0,0:0:0:62:E6S_s.wav
83,192,22200,1,0,0:0:0:62:C4S_s.wav
156,192,22200,1,0,0:0:0:62:F5S_s.wav
448,192,22200,1,0,0:0:0:62:F6S_s.wav
10,192,22400,1,0,0:0:0:62:A#3S_Bb3S_s.wav
229,192,22400,1,0,0:0:0:62:F5S.wav
375,192,22400,1,0,0:0:0:62:F6S.wav
302,192,22600,1,0,0:0:0:62:F4S_s.wav
83,192,22800,1,0,0:0:0:62:A#4S_Bb4S_s.wav
448,192,23000,1,0,0:0:0:62:F4S_s.wav
156,192,23200,1,0,0:0:0:62:A#3S_Bb3S_s.wav
375,192,23400,1,0,0:0:0:62:F4S_s.wav
10,192,23600,1,0,0:0:0:62:A#4S_Bb4S_s.wav
229,192,23600,1,0,0:0:0:62:E5S_s.wav
302,192,23600,1,0,0:0:0:62:E6S_s.wav
83,192,23800,1,0,0:0:0:62:F4S_s.wav
156,192,23800,1,0,0:0:0:62:F5S_s.wav
448,192,23800,1,0,0:0:0:62:F6S_s.wav
10,192,24000,1,0,0:0:0:62:C4S_s.wav
302,192,24000,1,0,0:0:0:62:F5S.wav
375,192,24000,1,0,0:0:0:62:F6S.wav
229,192,24200,1,0,0:0:0:62:G4S_s.wav
83,192,24400,1,0,0:0:0:62:C5S_s.wav
448,192,24600,1,0,0:0:0:62:G4S_s.wav
10,192,24800,1,0,0:0:0:62:C4S_s.wav
156,192,24800,1,0,0:0:0:62:G5S_s.wav
302,192,24800,1,0,0:0:0:62:G6S_s.wav
375,192,25000,1,0,0:0:0:62:G4S_s.wav
83,192,25200,1,0,0:0:0:62:C5S_s.wav
229,192,25200,1,0,0:0:0:62:E5S_s.wav
448,192,25200,1,0,0:0:0:62:E6S_s.wav
156,192,25400,1,0,0:0:0:62:G4S_s.wav
10,192,25600,1,0,0:0:0:62:F3S_s.wav
302,192,25600,1,0,0:0:0:62:F5S.wav
375,192,25600,1,0,0:0:0:62:F6S.wav
83,192,25800,1,0,0:0:0:62:C4S_s.wav
229,192,26000,1,0,0:0:0:62:F4S_s.wav
448,192,26200,1,0,0:0:0:62:C4S_s.wav
156,192,26400,1,0,0:0:0:62:F3S_s.wav
302,192,26600,1,0,0:0:0:62:C4S_s.wav
10,192,26800,1,0,0:0:0:62:F4S_s.wav
375,192,26800,1,0,0:0:0:62:C5S_s.wav
83,192,27000,1,0,0:0:0:62:C4S_s.wav
229,192,27200,1,0,0:0:0:62:F3S_s.wav
448,192,27200,1,0,0:0:0:62:A5S_s.wav
156,192,27400,1,0,0:0:0:62:C4S_s.wav
10,192,27600,1,0,0:0:0:62:F4S_s.wav
302,192,27600,1,0,0:0:0:62:A5S_s.wav
375,192,27800,1,0,0:0:0:62:C4S_s.wav
83,192,28000,1,0,0:0:0:62:F3S_s.wav
448,192,28000,1,0,0:0:0:62:G5S_s.wav
156,192,28200,1,0,0:0:0:62:C4S_s.wav
229,192,28200,1,0,0:0:0:62:A5S_s.wav
10,192,28400,1,0,0:0:0:62:F4S_s.wav
302,192,28400,1,0,0:0:0:62:G5S_s.wav
375,192,28600,1,0,0:0:0:62:C4S_s.wav
83,192,28800,1,0,0:0:0:62:A#3S_Bb3S_s.wav
448,192,28800,1,0,0:0:0:62:C5S.wav
156,192,29000,1,0,0:0:0:62:F4S_s.wav
229,192,29200,1,0,0:0:0:62:A#4S_Bb4S_s.wav
302,192,29400,1,0,0:0:0:62:F4S_s.wav
10,192,29600,1,0,0:0:0:62:A#3S_Bb3S_s.wav
375,192,29800,1,0,0:0:0:62:F4S_s.wav
83,192,30000,1,0,0:0:0:62:A#4S_Bb4S_s.wav
448,192,30000,1,0,0:0:0:62:C5S_s.wav
156,192,30200,1,0,0:0:0:62:F4S_s.wav
229,192,30200,1,0,0:0:0:62:E5S_s.wav
10,192,30400,1,0,0:0:0:62:C4S_s.wav
302,192,30400,1,0,0:0:0:62:F5S.wav
375,192,30600,1,0,0:0:0:62:G4S_s.wav
83,192,30800,1,0,0:0:0:62:C5S_s.wav
448,192,31000,1,0,0:0:0:62:G4S_s.wav
156,192,31200,1,0,0:0:0:62:C4S_s.wav
229,192,31200,1,0,0:0:0:62:G5S_s.wav
302,192,31400,1,0,0:0:0:62:G4S_s.wav
10,192,31600,1,0,0:0:0:62:C5S_s.wav
375,192,31600,1,0,0:0:0:62:E5S_s.wav
83,192,31800,1,0,0:0:0:62:G4S_s.wav
229,192,32000,1,0,0:0:0:62:F3S_s.wav
448,192,32000,1,0,0:0:0:62:F5S.wav
156,192,32200,1,0,0:0:0:62:C4S_s.wav
302,192,32400,1,0,0:0:0:62:F4S_s.wav
10,192,32600,1,0,0:0:0:62:C4S_s.wav
375,192,32800,1,0,0:0:0:62:F3S_s.wav
83,192,33000,1,0,0:0:0:62:C4S_s.wav
229,192,33200,1,0,0:0:0:62:F4S_s.wav
448,192,33200,1,0,0:0:0:62:C5S_s.wav
156,192,33400,1,0,0:0:0:62:C4S_s.wav
10,192,33600,1,0,0:0:0:62:F3S_s.wav
302,192,33600,1,0,0:0:0:62:A5S_s.wav
375,192,33800,1,0,0:0:0:62:C4S_s.wav
83,192,34000,1,0,0:0:0:62:F4S_s.wav
448,192,34000,1,0,0:0:0:62:A5S_s.wav
229,192,34200,1,0,0:0:0:62:C4S_s.wav
156,192,34400,1,0,0:0:0:62:F3S_s.wav
302,192,34400,1,0,0:0:0:62:G5S_s.wav
10,192,34600,1,0,0:0:0:62:C4S_s.wav
375,192,34600,1,0,0:0:0:62:A5S_s.wav
83,192,34800,1,0,0:0:0:62:F4S_s.wav
448,192,34800,1,0,0:0:0:62:A#5S_Bb5S_s.wav
229,192,35000,1,0,0:0:0:62:C4S_s.wav
156,192,35200,1,0,0:0:0:62:A#3S_Bb3S_s.wav
302,192,35200,1,0,0:0:0:62:C6S.wav
10,192,35400,1,0,0:0:0:62:F4S_s.wav
375,192,35600,1,0,0:0:0:62:A#4S_Bb4S_s.wav
83,192,35800,1,0,0:0:0:62:F4S_s.wav
448,192,36000,1,0,0:0:0:62:A#3S_Bb3S_s.wav
229,192,36200,1,0,0:0:0:62:F4S_s.wav
156,192,36400,1,0,0:0:0:62:A#4S_Bb4S_s.wav
302,192,36400,1,0,0:0:0:62:A5S_s.wav
10,192,36600,1,0,0:0:0:62:F4S_s.wav
375,192,36600,1,0,0:0:0:62:A#5S_Bb5S_s.wav
83,192,36800,1,0,0:0:0:62:C4S_s.wav
448,192,36800,1,0,0:0:0:62:C6S.wav
229,192,37000,1,0,0:0:0:62:G4S_s.wav
156,192,37200,1,0,0:0:0:62:C5S_s.wav
10,192,37400,1,0,0:0:0:62:G4S_s.wav
302,192,37400,1,0,0:0:0:62:C6S_s.wav
83,192,37600,1,0,0:0:0:62:C4S_s.wav
375,192,37600,1,0,0:0:0:62:C6S_s.wav
229,192,37800,1,0,0:0:0:62:G4S_s.wav
448,192,37800,1,0,0:0:0:62:D6S_s.wav
156,192,38000,1,0,0:0:0:62:C5S_s.wav
302,192,38000,1,0,0:0:0:62:E6S_s.wav
10,192,38200,1,0,0:0:0:62:G4S_s.wav
83,192,38400,1,0,0:0:0:62:F3S_s.wav
375,192,38400,1,0,0:0:0:62:F6S_s.wav
448,192,38600,1,0,0:0:0:62:C4S_s.wav
229,192,38800,1,0,0:0:0:62:F4S_s.wav
302,192,38800,1,0,0:0:0:62:C6S_s.wav
156,192,39000,1,0,0:0:0:62:C4S_s.wav
10,192,39200,1,0,0:0:0:62:F3S_s.wav
375,192,39200,1,0,0:0:0:62:F5S_s.wav
83,192,39400,1,0,0:0:0:62:C4S_s.wav
229,192,39600,1,0,0:0:0:62:F4S_s.wav
448,192,39600,1,0,0:0:0:62:E6S_s.wav
156,192,39800,1,0,0:0:0:62:C4S_s.wav
302,192,39800,1,0,0:0:0:62:F6S_s.wav
10,192,40000,1,0,0:0:0:62:F3S_s.wav
375,192,40000,1,0,0:0:0:62:F6S.wav
83,192,40200,1,0,0:0:0:62:C4S_s.wav
229,192,40400,1,0,0:0:0:62:F4S_s.wav
448,192,40600,1,0,0:0:0:62:C4S_s.wav
156,192,40800,1,0,0:0:0:62:F3S_s.wav
302,192,41000,1,0,0:0:0:62:C4S_s.wav
10,192,41200,1,0,0:0:0:62:F4S_s.wav
375,192,41200,1,0,0:0:0:62:E6S_s.wav
83,192,41400,1,0,0:0:0:62:C4S_s.wav
229,192,41400,1,0,0:0:0:62:F6S_s.wav
156,192,41600,1,0,0:0:0:62:A#3S_Bb3S_s.wav
448,192,41600,1,0,0:0:0:62:F6S.wav
302,192,41800,1,0,0:0:0:62:F4S_s.wav
10,192,42000,1,0,0:0:0:62:A#4S_Bb4S_s.wav
375,192,42200,1,0,0:0:0:62:F4S_s.wav
229,192,42400,1,0,0:0:0:62:A#3S_Bb3S_s.wav
83,192,42600,1,0,0:0:0:62:F4S_s.wav
156,192,42800,1,0,0:0:0:62:A#4S_Bb4S_s.wav
448,192,42800,1,0,0:0:0:62:E6S_s.wav
10,192,43000,1,0,0:0:0:62:F4S_s.wav
302,192,43000,1,0,0:0:0:62:F6S_s.wav
229,192,43200,1,0,0:0:0:62:C4S_s.wav
375,192,43200,1,0,0:0:0:62:F6S.wav
83,192,43400,1,0,0:0:0:62:G4S_s.wav
448,192,43600,1,0,0:0:0:62:C5S_s.wav
156,192,43800,1,0,0:0:0:62:G4S_s.wav
10,192,44000,1,0,0:0:0:62:C4S_s.wav
302,192,44000,1,0,0:0:0:62:G6S_s.wav
229,192,44200,1,0,0:0:0:62:G4S_s.wav
83,192,44400,1,0,0:0:0:62:C5S_s.wav
375,192,44400,1,0,0:0:0:62:E6S_s.wav
448,192,44600,1,0,0:0:0:62:G4S_s.wav
156,192,44800,1,0,0:0:0:62:F3S_s.wav
302,192,44800,1,0,0:0:0:62:F6S.wav
10,192,45000,1,0,0:0:0:62:C4S_s.wav
229,192,45200,1,0,0:0:0:62:F4S_s.wav
375,192,45400,1,0,0:0:0:62:C4S_s.wav
83,192,45600,1,0,0:0:0:62:F3S_s.wav
448,192,45800,1,0,0:0:0:62:C4S_s.wav
156,192,46000,1,0,0:0:0:62:F4S_s.wav
302,192,46000,1,0,0:0:0:62:E6S_s.wav
10,192,46200,1,0,0:0:0:62:C4S_s.wav
229,192,46200,1,0,0:0:0:62:F6S_s.wav
83,192,46400,1,0,0:0:0:62:F3S_s.wav
375,192,46400,1,0,0:0:0:62:F6S.wav
448,192,46600,1,0,0:0:0:62:C4S_s.wav
156,192,46800,1,0,0:0:0:62:F4S_s.wav
302,192,47000,1,0,0:0:0:62:C4S_s.wav
10,192,47200,1,0,0:0:0:62:F3S_s.wav
229,192,47400,1,0,0:0:0:62:C4S_s.wav
83,192,47600,1,0,0:0:0:62:F4S_s.wav
375,192,47600,1,0,0:0:0:62:E6S_s.wav
156,192,47800,1,0,0:0:0:62:C4S_s.wav
448,192,47800,1,0,0:0:0:62:F6S_s.wav
10,192,48000,1,0,0:0:0:62:A#3S_Bb3S_s.wav
302,192,48000,1,0,0:0:0:62:F6S.wav
229,192,48200,1,0,0:0:0:62:F4S_s.wav
375,192,48400,1,0,0:0:0:62:A#4S_Bb4S_s.wav
83,192,48600,1,0,0:0:0:62:F4S_s.wav
448,192,48800,1,0,0:0:0:62:A#3S_Bb3S_s.wav
156,192,49000,1,0,0:0:0:62:F4S_s.wav
10,192,49200,1,0,0:0:0:62:A#4S_Bb4S_s.wav
302,192,49200,1,0,0:0:0:62:E6S_s.wav
229,192,49400,1,0,0:0:0:62:F4S_s.wav
375,192,49400,1,0,0:0:0:62:F6S_s.wav
83,192,49600,1,0,0:0:0:62:C4S_s.wav
448,192,49600,1,0,0:0:0:62:F6S.wav
156,192,49800,1,0,0:0:0:62:G4S_s.wav
302,192,50000,1,0,0:0:0:62:C5S_s.wav
10,192,50200,1,0,0:0:0:62:G4S_s.wav
229,192,50400,1,0,0:0:0:62:C4S_s.wav
375,192,50400,1,0,0:0:0:62:G6S_s.wav
83,192,50600,1,0,0:0:0:62:G4S_s.wav
156,192,50800,1,0,0:0:0:62:C5S_s.wav
448,192,50800,1,0,0:0:0:62:E6S_s.wav
302,192,51000,1,0,0:0:0:62:G4S_s.wav
10,192,51200,1,0,0:0:0:62:F3S_s.wav
375,192,51200,1,0,0:0:0:62:F6S.wav
229,192,51400,1,0,0:0:0:62:C4S_s.wav
83,192,51600,1,0,0:0:0:62:F4S_s.wav
448,192,51800,1,0,0:0:0:62:C4S_s.wav
156,192,52000,1,0,0:0:0:62:F3S_s.wav
302,192,52200,1,0,0:0:0:62:C4S_s.wav
10,192,52400,1,0,0:0:0:62:F4S_s.wav
229,192,52400,1,0,0:0:0:62:E5S_s.wav
375,192,52400,1,0,0:0:0:62:E6S_s.wav
83,192,52600,1,0,0:0:0:62:C4S_s.wav
156,192,52600,1,0,0:0:0:62:F5S_s.wav
448,192,52600,1,0,0:0:0:62:F6S_s.wav
10,192,52800,1,0,0:0:0:62:F3S_s.wav
302,192,52800,1,0,0:0:0:62:F5S.wav
375,192,52800,1,0,0:0:0:62:F6S.wav
229,192,53000,1,0,0:0:0:62:C4S_s.wav
156,192,53200,1,0,0:0:0:62:F4S_s.wav
448,192,53400,1,0,0:0:0:62:C4S_s.wav
83,192,53600,1,0,0:0:0:62:F3S_s.wav
375,192,53800,1,0,0:0:0:62:C4S_s.wav
10,192,54000,1,0,0:0:0:62:F4S_s.wav
229,192,54000,1,0,0:0:0:62:E5S_s.wav
302,192,54000,1,0,0:0:0:62:E6S_s.wav
83,192,54200,1,0,0:0:0:62:C4S_s.wav
156,192,54200,1,0,0:0:0:62:F5S_s.wav
448,192,54200,1,0,0:0:0:62:F6S_s.wav
10,192,54400,1,0,0:0:0:62:A#3S_Bb3S_s.wav
302,192,54400,1,0,0:0:0:62:F5S.wav
375,192,54400,1,0,0:0:0:62:F6S.wav
229,192,54600,1,0,0:0:0:62:F4S_s.wav
448,192,54800,1,0,0:0:0:62:A#4S_Bb4S_s.wav
156,192,55000,1,0,0:0:0:62:F4S_s.wav
83,192,55200,1,0,0:0:0:62:A#3S_Bb3S_s.wav
302,192,55400,1,0,0:0:0:62:F4S_s.wav
10,192,55600,1,0,0:0:0:62:A#4S_Bb4S_s.wav
229,192,55600,1,0,0:0:0:62:E5S_s.wav
375,192,55600,1,0,0:0:0:62:E6S_s.wav
83,192,55800,1,0,0:0:0:62:F4S_s.wav
156,192,55800,1,0,0:0:0:62:F5S_s.wav
448,192,55800,1,0,0:0:0:62:F6S_s.wav
10,192,56000,1,0,0:0:0:62:C4S_s.wav
302,192,56000,1,0,0:0:0:62:F5S.wav
375,192,56000,1,0,0:0:0:62:F6S.wav
229,192,56200,1,0,0:0:0:62:G4S_s.wav
448,192,56400,1,0,0:0:0:62:C5S_s.wav
83,192,56600,1,0,0:0:0:62:G4S_s.wav
10,192,56800,1,0,0:0:0:62:C4S_s.wav
156,192,56800,1,0,0:0:0:62:G5S_s.wav
375,192,56800,1,0,0:0:0:62:G6S_s.wav
302,192,57000,1,0,0:0:0:62:G4S_s.wav
83,192,57200,1,0,0:0:0:62:C5S_s.wav
229,192,57200,1,0,0:0:0:62:E5S_s.wav
448,192,57200,1,0,0:0:0:62:E6S_s.wav
375,192,57400,1,0,0:0:0:62:G4S_s.wav
10,192,57600,1,0,0:0:0:62:F3S_s.wav
156,192,57600,1,0,0:0:0:62:F5S.wav
302,192,57600,1,0,0:0:0:62:F6S.wav
83,192,57800,1,0,0:0:0:62:C4S_s.wav
448,192,58000,1,0,0:0:0:62:F4S_s.wav
229,192,58200,1,0,0:0:0:62:C4S_s.wav
375,192,58400,1,0,0:0:0:62:F3S_s.wav
10,192,58600,1,0,0:0:0:62:C4S_s.wav
83,192,58800,1,0,0:0:0:62:F4S_s.wav
156,192,58800,1,0,0:0:0:62:E5S_s.wav
302,192,58800,1,0,0:0:0:62:E6S_s.wav
229,192,59000,1,0,0:0:0:62:C4S_s.wav
375,192,59000,1,0,0:0:0:62:F5S_s.wav
448,192,59000,1,0,0:0:0:62:F6S_s.wav
10,192,59200,1,0,0:0:0:62:F3S_s.wav
83,192,59200,1,0,0:0:0:62:F5S.wav
302,192,59200,1,0,0:0:0:62:F6S.wav
156,192,59400,1,0,0:0:0:62:C4S_s.wav
229,192,59600,1,0,0:0:0:62:F4S_s.wav
448,192,59800,1,0,0:0:0:62:C4S_s.wav
375,192,60000,1,0,0:0:0:62:F3S_s.wav
83,192,60200,1,0,0:0:0:62:C4S_s.wav
10,192,60400,1,0,0:0:0:62:F4S_s.wav
156,192,60400,1,0,0:0:0:62:E5S_s.wav
302,192,60400,1,0,0:0:0:62:E6S_s.wav
229,192,60600,1,0,0:0:0:62:C4S_s.wav
375,192,60600,1,0,0:0:0:62:F5S_s.wav
448,192,60600,1,0,0:0:0:62:F6S_s.wav
83,192,60800,1,0,0:0:0:62:A#3S_Bb3S_s.wav
156,192,60800,1,0,0:0:0:62:F5S.wav
302,192,60800,1,0,0:0:0:62:F6S.wav
10,192,61000,1,0,0:0:0:62:F4S_s.wav
375,192,61200,1,0,0:0:0:62:A#4S_Bb4S_s.wav
448,192,61400,1,0,0:0:0:62:F4S_s.wav
229,192,61600,1,0,0:0:0:62:A#3S_Bb3S_s.wav
302,192,61800,1,0,0:0:0:62:F4S_s.wav
10,192,62000,1,0,0:0:0:62:A#4S_Bb4S_s.wav
83,192,62000,1,0,0:0:0:62:E5S_s.wav
156,192,62000,1,0,0:0:0:62:E6S_s.wav
229,192,62200,1,0,0:0:0:62:F4S_s.wav
375,192,62200,1,0,0:0:0:62:F5S_s.wav
448,192,62200,1,0,0:0:0:62:F6S_s.wav
10,192,62400,1,0,0:0:0:62:C4S_s.wav
83,192,62400,1,0,0:0:0:62:F5S.wav
302,192,62400,1,0,0:0:0:62:F6S.wav
156,192,62600,1,0,0:0:0:62:G4S_s.wav
229,192,62800,1,0,0:0:0:62:C5S_s.wav
448,192,63000,1,0,0:0:0:62:G4S_s.wav
10,192,63200,1,0,0:0:0:62:C4S_s.wav
302,192,63200,1,0,0:0:0:62:G5S_s.wav
375,192,63200,1,0,0:0:0:62:G6S_s.wav
83,192,63400,1,0,0:0:0:62:G4S_s.wav
156,192,63600,1,0,0:0:0:62:C5S_s.wav
229,192,63600,1,0,0:0:0:62:E5S_s.wav
448,192,63600,1,0,0:0:0:62:E6S_s.wav
10,192,63800,1,0,0:0:0:62:G4S_s.wav
83,192,64000,1,0,0:0:0:62:F3S_s.wav
302,192,64000,1,0,0:0:0:62:F5S.wav
375,192,64000,1,0,0:0:0:62:F6S.wav
448,192,64200,1,0,0:0:0:62:C4S_s.wav
229,192,64400,1,0,0:0:0:62:F4S_s.wav
156,192,64600,1,0,0:0:0:62:C4S_s.wav
10,192,64800,1,0,0:0:0:62:F3S_s.wav
375,192,65000,1,0,0:0:0:62:C4S_s.wav
83,192,65200,1,0,0:0:0:62:F4S_s.wav
302,192,65200,1,0,0:0:0:62:C6S_s.wav
448,192,65400,1,0,0:0:0:62:C4S_s.wav
156,192,65600,1,0,0:0:0:62:F3S_s.wav
229,192,65600,1,0,0:0:0:62:A6S_s.wav
10,192,65800,1,0,0:0:0:62:C4S_s.wav
83,192,66000,1,0,0:0:0:62:F4S_s.wav
375,192,66000,1,0,0:0:0:62:A6S_s.wav
302,192,66200,1,0,0:0:0:62:C4S_s.wav
156,192,66400,1,0,0:0:0:62:F3S_s.wav
448,192,66400,1,0,0:0:0:62:G6S_s.wav
10,192,66600,1,0,0:0:0:62:C4S_s.wav
229,192,66600,1,0,0:0:0:62:A6S_s.wav
83,192,66800,1,0,0:0:0:62:F4S_s.wav
375,192,66800,1,0,0:0:0:62:G6S_s.wav
302,192,67000,1,0,0:0:0:62:C4S_s.wav
156,192,67200,1,0,0:0:0:62:A#3S_Bb3S_s.wav
448,192,67200,1,0,0:0:0:62:C6S.wav
229,192,67400,1,0,0:0:0:62:F4S_s.wav
10,192,67600,1,0,0:0:0:62:A#4S_Bb4S_s.wav
375,192,67800,1,0,0:0:0:62:F4S_s.wav
83,192,68000,1,0,0:0:0:62:A#3S_Bb3S_s.wav
302,192,68200,1,0,0:0:0:62:F4S_s.wav
156,192,68400,1,0,0:0:0:62:A#4S_Bb4S_s.wav
448,192,68400,1,0,0:0:0:62:C6S_s.wav
10,192,68600,1,0,0:0:0:62:F4S_s.wav
229,192,68600,1,0,0:0:0:62:E6S_s.wav
83,192,68800,1,0,0:0:0:62:C4S_s.wav
375,192,68800,1,0,0:0:0:62:F6S.wav
302,192,69000,1,0,0:0:0:62:G4S_s.wav
156,192,69200,1,0,0:0:0:62:C5S_s.wav
448,192,69400,1,0,0:0:0:62:G4S_s.wav
10,192,69600,1,0,0:0:0:62:C4S_s.wav
229,192,69600,1,0,0:0:0:62:G6S_s.wav
375,192,69800,1,0,0:0:0:62:G4S_s.wav
83,192,70000,1,0,0:0:0:62:C5S_s.wav
302,192,70000,1,0,0:0:0:62:E6S_s.wav
156,192,70200,1,0,0:0:0:62:G4S_s.wav
229,192,70400,1,0,0:0:0:62:F3S_s.wav
448,192,70400,1,0,0:0:0:62:F6S.wav
10,192,70600,1,0,0:0:0:62:C4S_s.wav
375,192,70800,1,0,0:0:0:62:F4S_s.wav
83,192,71000,1,0,0:0:0:62:C4S_s.wav
302,192,71200,1,0,0:0:0:62:F3S_s.wav
156,192,71400,1,0,0:0:0:62:C4S_s.wav
229,192,71600,1,0,0:0:0:62:F4S_s.wav
448,192,71600,1,0,0:0:0:62:C6S_s.wav
10,192,71800,1,0,0:0:0:62:C4S_s.wav
83,192,72000,1,0,0:0:0:62:F3S_s.wav
375,192,72000,1,0,0:0:0:62:A6S_s.wav
302,192,72200,1,0,0:0:0:62:C4S_s.wav
156,192,72400,1,0,0:0:0:62:F4S_s.wav
229,192,72400,1,0,0:0:0:62:A6S_s.wav
448,192,72600,1,0,0:0:0:62:C4S_s.wav
10,192,72800,1,0,0:0:0:62:F3S_s.wav
375,192,72800,1,0,0:0:0:62:G6S_s.wav
83,192,73000,1,0,0:0:0:62:C4S_s.wav
302,192,73000,1,0,0:0:0:62:A6S_s.wav
156,192,73200,1,0,0:0:0:62:F4S_s.wav
229,192,73200,1,0,0:0:0:62:A#6S_Bb6S_s.wav
448,192,73400,1,0,0:0:0:62:C4S_s.wav
10,192,73600,1,0,0:0:0:62:A#3S_Bb3S_s.wav
375,192,73600,1,0,0:0:0:62:C7S.wav
83,192,73800,1,0,0:0:0:62:F4S_s.wav
302,192,74000,1,0,0:0:0:62:A#4S_Bb4S_s.wav
229,192,74200,1,0,0:0:0:62:F4S_s.wav
156,192,74400,1,0,0:0:0:62:A#3S_Bb3S_s.wav
448,192,74600,1,0,0:0:0:62:F4S_s.wav
10,192,74800,1,0,0:0:0:62:A#4S_Bb4S_s.wav
375,192,74800,1,0,0:0:0:62:A6S_s.wav
83,192,75000,1,0,0:0:0:62:F4S_s.wav
302,192,75000,1,0,0:0:0:62:A#6S_Bb6S_s.wav
156,192,75200,1,0,0:0:0:62:C4S_s.wav
229,192,75200,1,0,0:0:0:62:C7S.wav
448,192,75400,1,0,0:0:0:62:G4S_s.wav
10,192,75600,1,0,0:0:0:62:C5S_s.wav
83,192,75800,1,0,0:0:0:62:G4S_s.wav
375,192,75800,1,0,0:0:0:62:C7S_s.wav
156,192,76000,1,0,0:0:0:62:C4S_s.wav
302,192,76000,1,0,0:0:0:62:C7S_s.wav
229,192,76200,1,0,0:0:0:62:G4S_s.wav
448,192,76200,1,0,0:0:0:62:D7S_s.wav
10,192,76400,1,0,0:0:0:62:C5S_s.wav
375,192,76400,1,0,0:0:0:62:E7S_s.wav
83,192,76600,1,0,0:0:0:62:G4S_s.wav
156,192,76800,1,0,0:0:0:62:F3S_s.wav
302,192,76800,1,0,0:0:0:62:F7S_s.wav
448,192,77000,1,0,0:0:0:62:C4S_s.wav
10,192,77200,1,0,0:0:0:62:F4S_s.wav
229,192,77200,1,0,0:0:0:62:C7S_s.wav
375,192,77400,1,0,0:0:0:62:C4S_s.wav
83,192,77600,1,0,0:0:0:62:F3S_s.wav
302,192,77600,1,0,0:0:0:62:F6S_s.wav
156,192,77800,1,0,0:0:0:62:C4S_s.wav
448,192,78000,1,0,0:0:0:62:F4S_s.wav
229,192,78200,1,0,0:0:0:62:C4S_s.wav
10,192,78309,1,0,0:0:0:62:G7S_s.wav
83,192,78400,1,0,0:0:0:62:F3S_s.wav
302,192,78400,1,0,0:0:0:62:C7S_s.wav
375,192,78400,1,0,0:0:0:62:A7S_s.wav
156,192,78600,1,0,0:0:0:62:C4S_s.wav
10,192,78800,1,0,0:0:0:62:F4S_s.wav
229,192,78800,1,0,0:0:0:62:C7S_s.wav
448,192,78800,1,0,0:0:0:62:G7S_s.wav
375,192,79000,1,0,0:0:0:62:C4S_s.wav
83,192,79200,1,0,0:0:0:62:F3S_s.wav
156,192,79200,1,0,0:0:0:62:C7S_s.wav
302,192,79200,1,0,0:0:0:62:F7S_s.wav
448,192,79400,1,0,0:0:0:62:C4S_s.wav
10,192,79600,1,0,0:0:0:62:F4S_s.wav
229,192,79800,1,0,0:0:0:62:C4S_s.wav
83,192,80000,1,0,0:0:0:62:F3S_s.wav
302,192,80000,1,0,0:0:0:62:C6S_s.wav
375,192,80000,1,0,0:0:0:62:F6S_s.wav
156,192,80200,1,0,0:0:0:62:C4S_s.wav
10,192,80267,1,0,0:0:0:62:C6S_s.wav
448,192,80267,1,0,0:0:0:62:F6S_s.wav
229,192,80400,1,0,0:0:0:62:F4S_s.wav
83,192,80533,1,0,0:0:0:62:C6S_s.wav
375,192,80533,1,0,0:0:0:62:F6S_s.wav
302,192,80600,1,0,0:0:0:62:C4S_s.wav
156,192,80800,1,0,0:0:0:62:F3S_s.wav
10,192,81000,1,0,0:0:0:62:C4S_s.wav
229,192,81000,1,0,0:0:0:62:C6S_s.wav
448,192,81000,1,0,0:0:0:62:F6S_s.wav
83,192,81200,1,0,0:0:0:62:F4S_s.wav
302,192,81200,1,0,0:0:0:62:C6S_s.wav
375,192,81200,1,0,0:0:0:62:E6S_s.wav
156,192,81400,1,0,0:0:0:62:C4S_s.wav
229,192,81400,1,0,0:0:0:62:C6S_s.wav
448,192,81400,1,0,0:0:0:62:F6S_s.wav
10,192,81600,1,0,0:0:0:62:A#3S_Bb3S_s.wav
83,192,81600,1,0,0:0:0:62:C6S_s.wav
302,192,81600,1,0,0:0:0:62:F6S_s.wav
375,192,81800,1,0,0:0:0:62:F4S_s.wav
156,192,81867,1,0,0:0:0:62:C6S_s.wav
448,192,81867,1,0,0:0:0:62:F6S_s.wav
229,192,82000,1,0,0:0:0:62:A#4S_Bb4S_s.wav
83,192,82133,1,0,0:0:0:62:C6S_s.wav
302,192,82133,1,0,0:0:0:62:F6S_s.wav
10,192,82200,1,0,0:0:0:62:F4S_s.wav
375,192,82400,1,0,0:0:0:62:A#3S_Bb3S_s.wav
156,192,82600,1,0,0:0:0:62:F4S_s.wav
229,192,82600,1,0,0:0:0:62:C6S_s.wav
448,192,82600,1,0,0:0:0:62:F6S_s.wav
10,192,82800,1,0,0:0:0:62:A#4S_Bb4S_s.wav
83,192,82800,1,0,0:0:0:62:C6S_s.wav
302,192,82800,1,0,0:0:0:62:E6S_s.wav
156,192,83000,1,0,0:0:0:62:F4S_s.wav
229,192,83000,1,0,0:0:0:62:C6S_s.wav
375,192,83000,1,0,0:0:0:62:F6S_s.wav
83,192,83200,1,0,0:0:0:62:C4S_s.wav
302,192,83200,1,0,0:0:0:62:C6S_s.wav
448,192,83200,1,0,0:0:0:62:F6S_s.wav
10,192,83400,1,0,0:0:0:62:G4S_s.wav
229,192,83467,1,0,0:0:0:62:C6S_s.wav
375,192,83467,1,0,0:0:0:62:F6S_s.wav
156,192,83600,1,0,0:0:0:62:C5S_s.wav
83,192,83733,1,0,0:0:0:62:C6S_s.wav
448,192,83733,1,0,0:0:0:62:F6S_s.wav
302,192,83800,1,0,0:0:0:62:G4S_s.wav
10,192,84000,1,0,0:0:0:62:C4S_s.wav
229,192,84000,1,0,0:0:0:62:C6S_s.wav
375,192,84000,1,0,0:0:0:62:G6S_s.wav
156,192,84200,1,0,0:0:0:62:G4S_s.wav
83,192,84400,1,0,0:0:0:62:C5S_s.wav
302,192,84400,1,0,0:0:0:62:C6S_s.wav
448,192,84400,1,0,0:0:0:62:E6S_s.wav
10,192,84600,1,0,0:0:0:62:G4S_s.wav
156,192,84800,1,0,0:0:0:62:F3S_s.wav
229,192,84800,1,0,0:0:0:62:C6S_s.wav
375,192,84800,1,0,0:0:0:62:F6S_s.wav
448,192,85000,1,0,0:0:0:62:C4S_s.wav
83,192,85067,1,0,0:0:0:62:C6S_s.wav
302,192,85067,1,0,0:0:0:62:F6S_s.wav
10,192,85200,1,0,0:0:0:62:F4S_s.wav
229,192,85333,1,0,0:0:0:62:C6S_s.wav
375,192,85333,1,0,0:0:0:62:F6S_s.wav
156,192,85400,1,0,0:0:0:62:C4S_s.wav
448,192,85600,1,0,0:0:0:62:F3S_s.wav
10,192,85800,1,0,0:0:0:62:C4S_s.wav
83,192,85800,1,0,0:0:0:62:C6S_s.wav
302,192,85800,1,0,0:0:0:62:F6S_s.wav
156,192,86000,1,0,0:0:0:62:F4S_s.wav
229,192,86000,1,0,0:0:0:62:C6S_s.wav
375,192,86000,1,0,0:0:0:62:E6S_s.wav
83,192,86200,1,0,0:0:0:62:C4S_s.wav
302,192,86200,1,0,0:0:0:62:C6S_s.wav
448,192,86200,1,0,0:0:0:62:F6S_s.wav
10,192,86400,1,0,0:0:0:62:F3S_s.wav
229,192,86400,1,0,0:0:0:62:C6S_s.wav
375,192,86400,1,0,0:0:0:62:F6S_s.wav
156,192,86600,1,0,0:0:0:62:C4S_s.wav
83,192,86667,1,0,0:0:0:62:C6S_s.wav
448,192,86667,1,0,0:0:0:62:F6S_s.wav
302,192,86800,1,0,0:0:0:62:F4S_s.wav
10,192,86933,1,0,0:0:0:62:C6S_s.wav
229,192,86933,1,0,0:0:0:62:F6S_s.wav
375,192,87000,1,0,0:0:0:62:C4S_s.wav
156,192,87200,1,0,0:0:0:62:F3S_s.wav
83,192,87400,1,0,0:0:0:62:C4S_s.wav
302,192,87400,1,0,0:0:0:62:C6S_s.wav
448,192,87400,1,0,0:0:0:62:F6S_s.wav
10,192,87600,1,0,0:0:0:62:F4S_s.wav
229,192,87600,1,0,0:0:0:62:C6S_s.wav
375,192,87600,1,0,0:0:0:62:E6S_s.wav
83,192,87800,1,0,0:0:0:62:C4S_s.wav
156,192,87800,1,0,0:0:0:62:C6S_s.wav
302,192,87800,1,0,0:0:0:62:F6S_s.wav
10,192,88000,1,0,0:0:0:62:A#3S_Bb3S_s.wav
229,192,88000,1,0,0:0:0:62:C6S_s.wav
448,192,88000,1,0,0:0:0:62:F6S_s.wav
375,192,88200,1,0,0:0:0:62:F4S_s.wav
156,192,88267,1,0,0:0:0:62:C6S_s.wav
302,192,88267,1,0,0:0:0:62:F6S_s.wav
83,192,88400,1,0,0:0:0:62:A#4S_Bb4S_s.wav
10,192,88533,1,0,0:0:0:62:C6S_s.wav
448,192,88533,1,0,0:0:0:62:F6S_s.wav
229,192,88600,1,0,0:0:0:62:F4S_s.wav
375,192,88800,1,0,0:0:0:62:A#3S_Bb3S_s.wav
83,192,89000,1,0,0:0:0:62:F4S_s.wav
156,192,89000,1,0,0:0:0:62:C6S_s.wav
302,192,89000,1,0,0:0:0:62:F6S_s.wav
10,192,89200,1,0,0:0:0:62:A#4S_Bb4S_s.wav
229,192,89200,1,0,0:0:0:62:C6S_s.wav
448,192,89200,1,0,0:0:0:62:E6S_s.wav
83,192,89400,1,0,0:0:0:62:F4S_s.wav
302,192,89400,1,0,0:0:0:62:C6S_s.wav
375,192,89400,1,0,0:0:0:62:F6S_s.wav
10,192,89600,1,0,0:0:0:62:C4S_s.wav
156,192,89600,1,0,0:0:0:62:C6S_s.wav
448,192,89600,1,0,0:0:0:62:F6S_s.wav
229,192,89800,1,0,0:0:0:62:G4S_s.wav
83,192,89867,1,0,0:0:0:62:C6S_s.wav
375,192,89867,1,0,0:0:0:62:F6S_s.wav
302,192,90000,1,0,0:0:0:62:C5S_s.wav
156,192,90133,1,0,0:0:0:62:C6S_s.wav
448,192,90133,1,0,0:0:0:62:F6S_s.wav
10,192,90200,1,0,0:0:0:62:G4S_s.wav
83,192,90400,1,0,0:0:0:62:C4S_s.wav
229,192,90400,1,0,0:0:0:62:C6S_s.wav
375,192,90400,1,0,0:0:0:62:G6S_s.wav
302,192,90600,1,0,0:0:0:62:G4S_s.wav
10,192,90800,1,0,0:0:0:62:C5S_s.wav
156,192,90800,1,0,0:0:0:62:C6S_s.wav
448,192,90800,1,0,0:0:0:62:E6S_s.wav
375,192,91000,1,0,0:0:0:62:G4S_s.wav
83,192,91200,1,0,0:0:0:62:F3S_s.wav
229,192,91200,1,0,0:0:0:62:C6S.wav
302,192,91200,1,0,0:0:0:62:F6S.wav
156,192,91400,1,0,0:0:0:62:C4S_s.wav
448,192,91600,1,0,0:0:0:62:F4S_s.wav
10,192,91800,1,0,0:0:0:62:C4S_s.wav
375,192,92000,1,0,0:0:0:62:F3S_s.wav
83,192,92200,1,0,0:0:0:62:C4S_s.wav
156,192,92400,1,0,0:0:0:62:F4S_s.wav
229,192,92400,1,0,0:0:0:62:E5S_s.wav
302,192,92400,1,0,0:0:0:62:E6S_s.wav
10,192,92600,1,0,0:0:0:62:C4S_s.wav
375,192,92600,1,0,0:0:0:62:F5S_s.wav
448,192,92600,1,0,0:0:0:62:F6S_s.wav
83,192,92800,1,0,0:0:0:62:F3S_s.wav
156,192,92800,1,0,0:0:0:62:F5S.wav
302,192,92800,1,0,0:0:0:62:F6S.wav
229,192,93000,1,0,0:0:0:62:C4S_s.wav
375,192,93200,1,0,0:0:0:62:F4S_s.wav
10,192,93400,1,0,0:0:0:62:C4S_s.wav
448,192,93600,1,0,0:0:0:62:F3S_s.wav
156,192,93800,1,0,0:0:0:62:C4S_s.wav
83,192,94000,1,0,0:0:0:62:F4S_s.wav
229,192,94000,1,0,0:0:0:62:E5S_s.wav
302,192,94000,1,0,0:0:0:62:E6S_s.wav
10,192,94200,1,0,0:0:0:62:C4S_s.wav
375,192,94200,1,0,0:0:0:62:F5S_s.wav
448,192,94200,1,0,0:0:0:62:F6S_s.wav
156,192,94400,1,0,0:0:0:62:A#3S_Bb3S_s.wav
229,192,94400,1,0,0:0:0:62:F5S.wav
302,192,94400,1,0,0:0:0:62:F6S.wav
83,192,94600,1,0,0:0:0:62:F4S_s.wav
448,192,94800,1,0,0:0:0:62:A#4S_Bb4S_s.wav
10,192,95000,1,0,0:0:0:62:F4S_s.wav
375,192,95200,1,0,0:0:0:62:A#3S_Bb3S_s.wav
156,192,95400,1,0,0:0:0:62:F4S_s.wav
83,192,95600,1,0,0:0:0:62:A#4S_Bb4S_s.wav
229,192,95600,1,0,0:0:0:62:E5S_s.wav
302,192,95600,1,0,0:0:0:62:E6S_s.wav
10,192,95800,1,0,0:0:0:62:F4S_s.wav
375,192,95800,1,0,0:0:0:62:F5S_s.wav
448,192,95800,1,0,0:0:0:62:F6S_s.wav
156,192,96000,1,0,0:0:0:62:C4S_s.wav
229,192,96000,1,0,0:0:0:62:F5S.wav
302,192,96000,1,0,0:0:0:62:F6S.wav
83,192,96200,1,0,0:0:0:62:G4S_s.wav
375,192,96400,1,0,0:0:0:62:C5S_s.wav
10,192,96600,1,0,0:0:0:62:G4S_s.wav
156,192,96800,1,0,0:0:0:62:C4S_s.wav
302,192,96800,1,0,0:0:0:62:G5S_s.wav
448,192,96800,1,0,0:0:0:62:G6S_s.wav
229,192,97000,1,0,0:0:0:62:G4S_s.wav
10,192,97200,1,0,0:0:0:62:C5S_s.wav
83,192,97200,1,0,0:0:0:62:E5S_s.wav
375,192,97200,1,0,0:0:0:62:E6S_s.wav
448,192,97400,1,0,0:0:0:62:G4S_s.wav
156,192,97600,1,0,0:0:0:62:F3S_s.wav
229,192,97600,1,0,0:0:0:62:F5S.wav
302,192,97600,1,0,0:0:0:62:F6S.wav
10,192,97800,1,0,0:0:0:62:C4S_s.wav
375,192,98000,1,0,0:0:0:62:F4S_s.wav
83,192,98200,1,0,0:0:0:62:C4S_s.wav
448,192,98400,1,0,0:0:0:62:F3S_s.wav
156,192,98600,1,0,0:0:0:62:C4S_s.wav
10,192,98800,1,0,0:0:0:62:F4S_s.wav
229,192,98800,1,0,0:0:0:62:E5S_s.wav
302,192,98800,1,0,0:0:0:62:E6S_s.wav
83,192,99000,1,0,0:0:0:62:C4S_s.wav
375,192,99000,1,0,0:0:0:62:F5S_s.wav
448,192,99000,1,0,0:0:0:62:F6S_s.wav
10,192,99200,1,0,0:0:0:62:F3S_s.wav
156,192,99200,1,0,0:0:0:62:F5S.wav
302,192,99200,1,0,0:0:0:62:F6S.wav
229,192,99400,1,0,0:0:0:62:C4S_s.wav
375,192,99600,1,0,0:0:0:62:F4S_s.wav
83,192,99800,1,0,0:0:0:62:C4S_s.wav
448,192,100000,1,0,0:0:0:62:F3S_s.wav
156,192,100200,1,0,0:0:0:62:C4S_s.wav
10,192,100400,1,0,0:0:0:62:F4S_s.wav
229,192,100400,1,0,0:0:0:62:E5S_s.wav
302,192,100400,1,0,0:0:0:62:E6S_s.wav
83,192,100600,1,0,0:0:0:62:C4S_s.wav
375,192,100600,1,0,0:0:0:62:F5S_s.wav
448,192,100600,1,0,0:0:0:62:F6S_s.wav
10,192,100800,1,0,0:0:0:62:A#3S_Bb3S_s.wav
156,192,100800,1,0,0:0:0:62:F5S.wav
302,192,100800,1,0,0:0:0:62:F6S.wav
229,192,101000,1,0,0:0:0:62:F4S_s.wav
375,192,101200,1,0,0:0:0:62:A#4S_Bb4S_s.wav
83,192,101400,1,0,0:0:0:62:F4S_s.wav
448,192,101600,1,0,0:0:0:62:A#3S_Bb3S_s.wav
10,192,101800,1,0,0:0:0:62:F4S_s.wav
156,192,102000,1,0,0:0:0:62:A#4S_Bb4S_s.wav
229,192,102000,1,0,0:0:0:62:E5S_s.wav
302,192,102000,1,0,0:0:0:62:E6S_s.wav
83,192,102200,1,0,0:0:0:62:F4S_s.wav
375,192,102200,1,0,0:0:0:62:F5S_s.wav
448,192,102200,1,0,0:0:0:62:F6S_s.wav
10,192,102400,1,0,0:0:0:62:C4S.wav
156,192,102400,1,0,0:0:0:62:G4S.wav
229,192,102400,1,0,0:0:0:62:C5S.wav
302,192,102400,1,0,0:0:0:62:F5S.wav
375,192,102400,1,0,0:0:0:62:F6S.wav
10,192,103200,1,0,0:0:0:62:C4S_s.wav
83,192,103200,1,0,0:0:0:62:G4S_s.wav
156,192,103200,1,0,0:0:0:62:C5S_s.wav
302,192,103200,1,0,0:0:0:62:G5S_s.wav
448,192,103200,1,0,0:0:0:62:G6S_s.wav
10,192,103600,1,0,0:0:0:62:C3S_s.wav
156,192,103600,1,0,0:0:0:62:G3S_s.wav
229,192,103600,1,0,0:0:0:62:C4S_s.wav
302,192,103600,1,0,0:0:0:62:E5S_s.wav
375,192,103600,1,0,0:0:0:62:E6S_s.wav
10,192,104000,1,0,0:0:0:62:F3S.wav
83,192,104000,1,0,0:0:0:62:C4S.wav
302,192,104000,1,0,0:0:0:62:F4S.wav
375,192,104000,1,0,0:0:0:62:F5S.wav
448,192,104000,1,0,0:0:0:62:F6S.wav
