osu file format v14

[General]
AudioFilename: audio.mp3
AudioLeadIn: 0
PreviewTime: 991
Countdown: 0
SampleSet: Soft
StackLeniency: 0.8
Mode: 0
LetterboxInBreaks: 0
WidescreenStoryboard: 1

[Editor]
DistanceSpacing: 1
BeatDivisor: 2
GridSize: 32
TimelineZoom: 2

[Metadata]
Title:Tokiwa e no Michi - Masara yori
TitleUnicode:トキワへの道-マサラより
Artist:Junichi Masuda
ArtistUnicode:増田順一
Creator:fieryrage
Version:squirrelp's Normal
Source:ポケットモンスター 赤・緑
Tags:pokemon pokémon red green blue yellow road to viridian city from pallet town nintendo the company game freak entire sounds collection cd soundtrack ost gameboy squirrelpascals fizz
BeatmapID:1413804
BeatmapSetID:667454

[Difficulty]
HPDrainRate:4
CircleSize:3
OverallDifficulty:4
ApproachRate:4.5
SliderMultiplier:1.2
SliderTickRate:1

[Events]
//Background and Video events
0,0,"Huh.jpg",0,0
//Break Periods
//Storyboard Layer 0 (Background)
//Storyboard Layer 1 (Fail)
//Storyboard Layer 2 (Pass)
//Storyboard Layer 3 (Foreground)
//Storyboard Sound Samples

[TimingPoints]
-560,477.326968973747,4,2,0,45,1,0
48127,-100,4,2,0,35,0,0
49081,-100,4,2,0,25,0,0
50036,-100,4,2,0,15,0,0
50991,-100,4,2,0,5,0,0

[Colours]
Combo1 : 240,217,145
Combo2 : 108,182,90
Combo3 : 162,116,74
Combo4 : 177,54,54

[HitObjects]
137,73,1110,5,0,0:0:0:0:
102,122,1349,2,0,L|37:112,2,60,0|2|2,0:0|0:0|0:0,0:0:0:0:
211,171,2303,2,0,L|276:161,2,60,0|2|2,0:0|0:0|0:0,0:0:0:0:
231,288,3258,6,0,P|257:316|293:327,1,60,0|2,0:0|0:0,0:0:0:0:
336,329,3735,1,2,0:0:0:0:
394,314,3974,1,0,0:0:0:0:
436,272,4212,2,0,L|507:283,2,60,0|2|2,0:0|0:0|0:0,0:0:0:0:
453,153,5167,6,0,L|464:82,2,60,0|2|2,0:0|0:0|0:0,0:0:0:0:
335,177,6122,2,0,L|324:248,2,60,0|2|2,0:0|0:0|0:0,0:0:0:0:
296,61,7076,6,0,L|210:74,1,60,0|2,0:0|0:0,0:0:0:0:
176,71,7554,1,2,0:0:0:0:
117,60,7792,1,0,0:0:0:0:
57,50,8031,1,2,0:3:0:0:
29,166,8508,1,2,0:0:0:0:
71,278,8986,6,0,P|80:308|79:339,2,60,0|2|2,0:0|0:0|0:0,0:0:0:0:
164,202,9940,2,0,P|155:172|156:141,2,60,0|2|2,0:0|0:0|0:0,0:0:0:0:
247,288,10895,6,0,P|274:302|295:325,1,60,0|2,0:0|0:0,0:0:0:0:
354,322,11372,2,0,P|374:300|401:286,1,60,2|0,0:0|0:0,0:0:0:0:
452,252,11850,1,0,0:0:0:0:
464,193,12088,1,2,0:0:0:0:
474,133,12327,1,2,0:0:0:0:
378,60,12804,6,0,L|318:65,1,60,0|2,0:0|0:0,0:0:0:0:
280,112,13282,2,0,L|288:195,1,60,2|0,0:0|0:0,0:0:0:0:
267,228,13759,2,0,L|259:311,2,60,0|2|2,0:0|0:0|0:0,0:0:0:0:
189,136,14714,6,0,P|148:119|64:126,1,120,6|2,0:0|0:3,0:0:0:0:
57,180,15430,1,2,0:3:0:0:
41,237,15668,2,0,L|37:309,2,60,2|0|0,0:0|0:0|0:0,0:0:0:0:
73,122,16623,6,0,L|1:135,2,60,2|2|2,0:0|0:0|0:0,0:0:0:0:
119,84,17339,1,2,0:3:0:0:
164,44,17578,2,0,L|243:61,1,60,2|2,0:0|0:0,0:0:0:0:
281,67,18055,2,0,L|339:54,1,60,2|2,0:0|0:0,0:0:0:0:
399,45,18532,6,0,P|424:102|424:172,1,120,2|2,0:0|0:0,0:0:0:0:
341,248,19487,2,0,P|259:222|194:287,1,180,2|0,0:0|0:0,0:0:0:0:
161,329,20442,6,0,P|126:314|93:317,1,60,2|2,0:0|0:0,0:0:0:0:
52,283,20919,2,0,P|50:253|37:226,1,60,2|2,0:3|0:0,0:0:0:0:
0,178,21396,2,0,L|3:100,2,60,2|2|2,0:0|0:0|0:0,0:0:0:0:
117,150,22351,6,0,B|158:148|158:148|182:162,1,60,2|2,0:3|0:0,0:0:0:0:
223,191,22828,2,0,B|239:200|239:200|280:198,1,60,2|2,0:0|0:0,0:0:0:0:
340,189,23306,2,0,L|355:112,2,60,2|0|0,0:0|0:0|0:0,0:0:0:0:
316,306,24260,6,0,L|239:321,2,60,0|2|2,0:0|0:0|0:0,0:0:0:0:
431,269,25215,2,0,L|508:284,2,60,0|2|2,0:0|0:0|0:0,0:0:0:0:
340,189,26170,6,0,P|316:179|264:170,1,60,0|2,0:0|0:0,0:0:0:0:
222,175,26647,1,2,0:0:0:0:
167,199,26885,1,0,0:0:0:0:
142,253,27124,2,0,L|149:338,2,60,0|2|2,0:0|0:0|0:0,0:0:0:0:
59,165,28079,6,0,L|-9:175,2,60,0|2|2,0:0|0:0|0:0,0:0:0:0:
142,79,29033,2,0,L|132:11,2,60,0|2|2,0:0|0:0|0:0,0:0:0:0:
235,155,29988,6,0,L|245:223,1,60,0|2,0:0|0:0,0:0:0:0:
303,223,30465,1,2,0:0:0:0:
362,232,30704,1,0,0:0:0:0:
421,242,30943,1,0,0:0:0:0:
403,360,31420,1,2,0:0:0:0:
284,340,31897,6,0,L|195:327,2,60,0|2|2,0:0|0:0|0:0,0:0:0:0:
303,223,32852,2,0,L|392:210,2,60,0|2|2,0:0|0:0|0:0,0:0:0:0:
183,232,33807,6,0,P|177:191|148:144,1,60,0|2,0:0|0:0,0:0:0:0:
153,116,34284,2,0,P|155:86|166:58,1,60,2|0,0:0|0:0,0:0:0:0:
220,32,34761,1,0,0:0:0:0:
279,35,35000,1,2,0:0:0:0:
339,37,35239,1,2,0:0:0:0:
441,99,35716,6,0,L|453:188,1,60,0|2,0:0|0:0,0:0:0:0:
433,216,36193,2,0,L|421:305,1,60,2|0,0:0|0:0,0:0:0:0:
462,322,36671,2,0,L|474:411,2,60,0|2|2,0:0|0:0|0:0,0:0:0:0:
343,300,37625,6,0,B|275:323|289:264|215:294,1,120,6|2,0:0|0:3,0:0:0:0:
168,298,38341,1,2,0:3:0:0:
109,313,38580,2,0,P|72:318|28:305,2,60,2|0|0,0:0|0:0|0:0,0:0:0:0:
112,186,39535,6,0,L|99:106,2,60,2|2|2,0:0|0:0|0:0,0:0:0:0:
170,200,40251,1,2,0:3:0:0:
229,208,40489,2,0,L|310:196,1,60,2|2,0:0|0:0,0:0:0:0:
342,172,40967,2,0,L|401:180,1,60,2|2,0:0|0:0,0:0:0:0:
457,158,41444,6,0,B|466:78|466:78|444:29,1,120,2|2,0:0|0:0,0:0:0:0:
334,76,42399,2,0,B|246:94|246:94|164:55,1,180,2|0,0:0|0:0,0:0:0:0:
105,66,43353,6,0,B|29:81,1,60,2|2,0:0|0:0,0:0:0:0:
8,125,43831,2,0,B|23:200,1,60,2|2,0:3|0:0,0:0:0:0:
31,242,44308,2,0,B|15:317,2,60,2|2|2,0:0|0:0|0:0,0:0:0:0:
143,198,45263,6,0,P|181:206|202:222,1,60,2|2,0:3|0:0,0:0:0:0:
257,217,45740,2,0,P|282:201|311:197,1,60,2|2,0:0|0:0,0:0:0:0:
371,200,46217,1,0,0:0:0:0:
425,225,46456,1,2,0:0:0:0:
455,276,46695,1,2,0:0:0:0:
359,348,47172,5,4,0:0:0:0:
256,192,47411,12,0,50991,0:0:0:0:
