osu file format v14

[General]
AudioFilename: audio.mp3
AudioLeadIn: 0
PreviewTime: 991
Countdown: 0
SampleSet: Soft
StackLeniency: 0.5
Mode: 0
LetterboxInBreaks: 0
WidescreenStoryboard: 0

[Editor]
DistanceSpacing: 0.5
BeatDivisor: 4
GridSize: 4
TimelineZoom: 1

[Metadata]
Title:Tokiwa e no Michi - Masara yori
TitleUnicode:トキワへの道-マサラより
Artist:Junichi Masuda
ArtistUnicode:増田順一
Creator:fieryrage
Version:Route 1
Source:ポケットモンスター 赤・緑
Tags:pokemon pokémon red green blue yellow road to viridian city from pallet town nintendo the company game freak entire sounds collection cd soundtrack ost gameboy squirrelpascals fizz
BeatmapID:1412291
BeatmapSetID:667454

[Difficulty]
HPDrainRate:5.2
CircleSize:3.8
OverallDifficulty:7.8
ApproachRate:8.2
SliderMultiplier:2
SliderTickRate:1

[Events]
//Background and Video events
0,0,"Huh.jpg",0,0
//Break Periods
//Storyboard Layer 0 (Background)
//Storyboard Layer 1 (Fail)
//Storyboard Layer 2 (Pass)
//Storyboard Layer 3 (Foreground)
//Storyboard Sound Samples

[TimingPoints]
-560,477.326968973747,4,2,0,45,1,0
48127,-100,4,2,0,35,0,0
49081,-100,4,2,0,25,0,0
50036,-100,4,2,0,15,0,0
50991,-100,4,2,0,5,0,0

[Colours]
Combo1 : 240,217,145
Combo2 : 108,182,90
Combo3 : 162,116,74
Combo4 : 177,54,54

[HitObjects]
96,116,1110,5,0,0:0:0:0:
96,116,1229,1,0,0:0:0:0:
96,116,1349,2,0,P|140:103|203:110,1,100,0|2,0:0|0:0,0:0:0:0:
349,204,1826,2,0,P|299:208|251:195,1,100,2|0,0:0|0:0,0:0:0:0:
251,195,2184,1,0,0:0:0:0:
251,195,2303,5,0,0:0:0:0:
193,12,2542,1,2,0:0:0:0:
399,40,2780,1,2,0:0:0:0:
193,107,3019,1,0,0:0:0:0:
193,107,3138,1,0,0:0:0:0:
193,107,3258,6,0,P|140:112|93:100,1,100,0|2,0:0|0:0,0:0:0:0:
18,240,3735,2,0,L|21:185,1,50,2|2,0:0|0:3,0:0:0:0:
118,279,3974,2,0,L|115:224,1,50,0|2,0:0|0:0,0:0:0:0:
33,343,4212,1,2,0:3:0:0:
262,299,4451,5,0,0:0:0:0:
262,299,4690,1,0,0:0:0:0:
115,229,4928,5,0,0:0:0:0:
115,229,5048,1,0,0:0:0:0:
115,229,5167,2,0,P|104:172|111:128,1,100,0|2,0:0|0:0,0:0:0:0:
265,200,5644,2,0,P|270:249|260:297,1,100,2|0,0:0|0:0,0:0:0:0:
261,298,6002,1,0,0:0:0:0:
261,298,6122,5,0,0:0:0:0:
110,131,6360,1,2,0:0:0:0:
343,79,6599,1,2,0:0:0:0:
152,256,6838,1,0,0:0:0:0:
152,256,6957,1,0,0:0:0:0:
152,256,7076,5,0,0:0:0:0:
201,42,7315,1,2,0:0:0:0:
357,191,7554,2,0,L|398:233,3,50,2|2|0|2,0:0|0:3|0:0|0:0,0:0:0:0:
286,261,8031,5,2,0:3:0:0:
264,166,8270,1,0,0:0:0:0:
468,257,8508,1,2,0:0:0:0:
277,374,8747,5,0,0:0:0:0:
277,374,8866,1,0,0:0:0:0:
277,374,8986,2,0,L|169:372,1,100,0|2,0:0|0:0,0:0:0:0:
286,261,9463,2,0,L|394:259,1,100,2|0,0:0|0:0,0:0:0:0:
385,259,9821,1,0,0:0:0:0:
385,259,9940,5,0,0:0:0:0:
227,154,10179,1,2,0:0:0:0:
486,115,10418,1,2,0:0:0:0:
277,257,10656,1,0,0:0:0:0:
277,257,10776,1,0,0:0:0:0:
277,257,10895,6,0,P|223:269|169:255,1,100,0|2,0:0|0:0,0:0:0:0:
224,104,11372,2,0,L|227:168,1,50,2|2,0:0|0:3,0:0:0:0:
132,65,11611,2,0,L|129:129,1,50,0|2,0:0|0:0,0:0:0:0:
210,7,11850,1,2,0:3:0:0:
0,114,12088,5,0,0:0:0:0:
0,114,12327,1,0,0:0:0:0:
179,260,12566,5,0,0:0:0:0:
179,260,12685,1,0,0:0:0:0:
179,260,12804,1,0,0:0:0:0:
133,46,13043,1,2,0:0:0:0:
295,192,13282,1,2,0:0:0:0:
78,169,13520,1,0,0:0:0:0:
267,60,13759,5,0,0:0:0:0:
179,260,13998,1,2,0:0:0:0:
133,46,14236,1,2,0:0:0:0:
184,281,14475,1,0,0:0:0:0:
279,41,14714,5,6,0:0:0:0:
279,41,15191,2,0,L|280:77,1,25,2|0,0:3|0:0,0:0:0:0:
303,34,15310,1,0,0:0:0:0:
327,32,15429,1,2,0:3:0:0:
351,34,15548,1,0,0:0:0:0:
375,41,15668,1,2,0:0:0:0:
510,152,15907,2,0,P|463:152|412:127,1,100,0|0,0:0|0:0,0:0:0:0:
324,294,16384,5,0,0:0:0:0:
324,294,16504,1,0,0:0:0:0:
324,294,16623,1,2,0:0:0:0:
305,121,16862,1,2,0:0:0:0:
434,302,17100,1,2,0:0:0:0:
415,129,17339,1,2,0:3:0:0:
221,236,17578,5,2,0:0:0:0:
512,172,17816,1,2,0:0:0:0:
205,115,18055,1,2,0:0:0:0:
434,302,18294,1,2,0:0:0:0:
455,9,18532,5,2,0:0:0:0:
205,115,18771,1,2,0:0:0:0:
495,85,19010,2,0,P|442:89|388:67,1,100,2|0,0:0|0:0,0:0:0:0:
325,113,19368,1,2,0:0:0:0:
301,103,19487,2,0,P|248:99|194:121,1,100,2|0,0:0|0:0,0:0:0:0:
102,260,19964,1,0,0:0:0:0:
80,28,20203,5,0,0:0:0:0:
80,28,20322,1,0,0:0:0:0:
80,28,20442,1,2,0:0:0:0:
301,103,20681,1,2,0:0:0:0:
65,137,20919,1,2,0:3:0:0:
247,7,21158,1,2,0:0:0:0:
266,229,21396,5,2,0:0:0:0:
65,137,21635,1,2,0:0:0:0:
389,43,21874,2,0,P|407:99|402:143,1,100,2|0,0:0|0:0,0:0:0:0:
281,210,22232,1,2,0:0:0:0:
266,229,22351,6,0,P|248:285|253:329,1,100,2|2,0:3|0:0,0:0:0:0:
403,139,22828,1,2,0:0:0:0:
147,41,23067,1,2,0:0:0:0:
251,325,23306,1,2,0:0:0:0:
301,103,23544,5,0,0:0:0:0:
301,103,23783,1,0,0:0:0:0:
416,268,24022,5,0,0:0:0:0:
416,268,24141,1,0,0:0:0:0:
416,268,24261,2,0,P|372:281|309:274,1,100,0|2,0:0|0:0,0:0:0:0:
163,180,24738,2,0,P|213:176|261:189,1,100,2|0,0:0|0:0,0:0:0:0:
261,189,25096,1,0,0:0:0:0:
261,189,25215,5,0,0:0:0:0:
319,372,25454,1,2,0:0:0:0:
113,344,25692,1,2,0:0:0:0:
319,277,25931,1,0,0:0:0:0:
319,277,26050,1,0,0:0:0:0:
319,277,26170,6,0,L|435:274,1,100,0|2,0:0|0:0,0:0:0:0:
366,86,26647,2,0,P|359:127|363:150,1,50,2|2,0:0|0:3,0:0:0:0:
471,184,26886,2,0,P|471:159|464:134,1,50,0|2,0:0|0:0,0:0:0:0:
423,14,27124,1,2,0:3:0:0:
260,188,27363,5,0,0:0:0:0:
260,188,27602,1,0,0:0:0:0:
110,33,27840,5,0,0:0:0:0:
110,33,27960,1,0,0:0:0:0:
110,33,28079,2,0,L|-2:36,1,100,0|2,0:0|0:0,0:0:0:0:
160,185,28556,2,0,L|272:188,1,100,2|0,0:0|0:0,0:0:0:0:
259,187,28914,1,0,0:0:0:0:
259,187,29034,5,0,0:0:0:0:
77,333,29272,1,2,0:0:0:0:
124,86,29511,1,2,0:0:0:0:
229,318,29750,1,0,0:0:0:0:
229,318,29869,1,0,0:0:0:0:
229,318,29988,5,0,0:0:0:0:
36,190,30227,1,2,0:0:0:0:
270,132,30466,2,0,L|342:116,3,50,2|2|0|2,0:0|0:3|0:0|0:0,0:0:0:0:
207,190,30943,5,2,0:3:0:0:
182,105,31182,1,0,0:0:0:0:
419,186,31420,1,2,0:0:0:0:
199,284,31659,5,0,0:0:0:0:
199,284,31778,1,0,0:0:0:0:
199,284,31898,2,0,L|87:283,1,100,0|2,0:0|0:0,0:0:0:0:
270,132,32375,2,0,L|382:131,1,100,2|0,0:0|0:0,0:0:0:0:
369,131,32733,1,0,0:0:0:0:
369,131,32852,5,0,0:0:0:0:
412,363,33091,1,2,0:0:0:0:
199,284,33330,1,2,0:0:0:0:
456,200,33568,1,0,0:0:0:0:
456,200,33688,1,0,0:0:0:0:
456,200,33807,6,0,P|471:150|465:99,1,100,0|2,0:0|0:0,0:0:0:0:
268,82,34284,2,0,L|270:142,1,50,2|2,0:0|0:3,0:0:0:0:
374,24,34523,2,0,L|372:84,1,50,0|2,0:0|0:0,0:0:0:0:
369,173,34762,1,2,0:3:0:0:
173,124,35000,5,0,0:0:0:0:
173,124,35239,1,0,0:0:0:0:
374,24,35478,5,0,0:0:0:0:
374,24,35597,1,0,0:0:0:0:
374,24,35716,1,0,0:0:0:0:
393,261,35955,1,2,0:0:0:0:
236,36,36194,1,2,0:0:0:0:
255,273,36433,1,0,0:0:0:0:
374,24,36671,5,0,0:0:0:0:
183,189,36910,1,2,0:0:0:0:
455,164,37148,1,2,0:0:0:0:
236,36,37387,1,0,0:0:0:0:
393,261,37626,5,6,0:0:0:0:
393,261,38103,2,0,L|392:225,1,25,2|0,0:3|0:0,0:0:0:0:
369,268,38222,1,0,0:0:0:0:
345,270,38341,1,2,0:3:0:0:
321,268,38460,1,0,0:0:0:0:
297,261,38580,1,2,0:0:0:0:
140,174,38819,2,0,P|196:165|241:177,1,100,0|0,0:0|0:0,0:0:0:0:
376,56,39296,5,0,0:0:0:0:
376,56,39416,1,0,0:0:0:0:
376,56,39535,1,2,0:0:0:0:
392,236,39774,1,2,0:0:0:0:
245,68,40012,1,2,0:0:0:0:
261,248,40251,1,2,0:3:0:0:
464,102,40490,5,2,0:0:0:0:
184,188,40728,1,2,0:0:0:0:
467,247,40967,1,2,0:0:0:0:
245,68,41206,1,2,0:0:0:0:
320,307,41444,5,2,0:0:0:0:
464,102,41683,1,2,0:0:0:0:
184,188,41922,2,0,L|291:186,1,100,2|0,0:0|0:0,0:0:0:0:
450,228,42280,1,2,0:0:0:0:
467,247,42399,2,0,L|360:245,1,100,2|0,0:0|0:0,0:0:0:0:
227,329,42876,1,0,0:0:0:0:
264,73,43115,5,0,0:0:0:0:
264,73,43234,1,0,0:0:0:0:
264,73,43354,1,2,0:0:0:0:
367,245,43592,1,2,0:0:0:0:
353,41,43831,1,2,0:0:0:0:
270,233,44070,1,2,0:0:0:0:
453,76,44308,5,2,0:0:0:0:
197,152,44547,1,2,0:0:0:0:
461,256,44786,2,0,P|471:304|459:359,1,100,2|0,0:0|0:0,0:0:0:0:
367,158,45144,1,2,0:0:0:0:
352,138,45263,6,0,P|342:89|352:40,1,100,2|2,0:0|0:0,0:0:0:0:
512,198,45740,1,2,0:0:0:0:
270,314,45979,1,2,0:0:0:0:
352,40,46218,1,2,0:0:0:0:
420,247,46456,5,0,0:0:0:0:
420,247,46695,1,0,0:0:0:0:
216,192,46934,5,0,0:0:0:0:
216,192,47053,1,0,0:0:0:0:
216,192,47172,1,0,0:0:0:0:
256,192,47291,12,0,50991,0:0:0:0:
