osu file format v14

[General]
AudioFilename: audio.mp3
AudioLeadIn: 0
PreviewTime: -1
Countdown: 0
SampleSet: None
StackLeniency: 0.7
Mode: 3
LetterboxInBreaks: 0
SpecialStyle: 0
WidescreenStoryboard: 0

[Editor]
DistanceSpacing: 1.2
BeatDivisor: 4
GridSize: 4
TimelineZoom: 1

[Metadata]
Title:Song Of Pikachu
TitleUnicode:皮卡丘之歌
Artist:Junichi Masuda
ArtistUnicode:Junichi Masuda
Creator:pikechu
Version:Song Of Pikachu
Source:Pokemon
Tags:
BeatmapID:1577116
BeatmapSetID:748653

[Difficulty]
HPDrainRate:8
CircleSize:7
OverallDifficulty:8
ApproachRate:5
SliderMultiplier:1.4
SliderTickRate:1

[Events]
//Background and Video events
0,0,"background.jpg",0,0
//Break Periods
//Storyboard Layer 0 (Background)
//Storyboard Layer 1 (Fail)
//Storyboard Layer 2 (Pass)
//Storyboard Layer 3 (Foreground)
//Storyboard Sound Samples

[TimingPoints]
0,625,4,1,1,100,1,0
625,461.538,4,1,1,100,1,0

[HitObjects]
10,192,0,5,0,0:0:0:62:D#3S_Eb3S.wav
375,192,0,1,0,0:0:0:62:A#3S_Bb3S.wav
448,192,0,1,0,0:0:0:62:D#5S_Eb5S_s.wav
83,192,625,1,0,0:0:0:62:D#5S_Eb5S_s.wav
302,192,779,1,0,0:0:0:62:A#4S_Bb4S_s.wav
229,192,933,1,0,0:0:0:62:D#5S_Eb5S_s.wav
156,192,1087,1,0,0:0:0:62:F5S_s.wav
448,192,1548,1,0,0:0:0:62:F5S_s.wav
10,192,1702,1,0,0:0:0:62:A#4S_Bb4S_s.wav
375,192,1856,1,0,0:0:0:62:F5S_s.wav
83,192,2010,1,0,0:0:0:62:D#3S_Eb3S.wav
229,192,2010,1,0,0:0:0:62:A#3S_Bb3S.wav
302,192,2010,1,0,0:0:0:62:G5S_s.wav
156,192,2471,1,0,0:0:0:62:G5S_s.wav
448,192,2625,1,0,0:0:0:62:A#5S_Bb5S_s.wav
10,192,2779,1,0,0:0:0:62:G#5S_Ab5S_s.wav
375,192,2933,1,0,0:0:0:62:G5S_s.wav
83,192,3087,1,0,0:0:0:62:F5S_s.wav
229,192,3240,1,0,0:0:0:62:D#5S_Eb5S_s.wav
302,192,3394,1,0,0:0:0:62:A#4S_Bb4S_s.wav
156,192,3548,1,0,0:0:0:62:C5S_s.wav
448,192,3702,1,0,0:0:0:62:D5S_s.wav
10,192,3856,1,0,0:0:0:62:A#3S_Bb3S.wav
83,192,3856,1,0,0:0:0:62:D#4S_Eb4S.wav
375,192,3856,1,0,0:0:0:62:D#5S_Eb5S_s.wav
229,192,4317,1,0,0:0:0:62:D#5S_Eb5S_s.wav
302,192,4625,1,0,0:0:0:62:F5S_s.wav
10,192,4779,1,0,0:0:0:62:A#3S_Bb3S.wav
156,192,4779,1,0,0:0:0:62:D#4S_Eb4S.wav
448,192,4779,1,0,0:0:0:62:G5S_s.wav
375,192,5240,1,0,0:0:0:62:D#5S_Eb5S_s.wav
83,192,5548,1,0,0:0:0:62:A#4S_Bb4S_s.wav
10,192,5702,1,0,0:0:0:62:A#3S_Bb3S.wav
229,192,5702,1,0,0:0:0:62:D#4S_Eb4S.wav
302,192,5702,1,0,0:0:0:62:D#5S_Eb5S_s.wav
448,192,6163,1,0,0:0:0:62:D#5S_Eb5S_s.wav
83,192,6625,1,0,0:0:0:62:D#3S_Eb3S.wav
156,192,6625,1,0,0:0:0:62:A#3S_Bb3S.wav
375,192,6625,1,0,0:0:0:62:G5S.wav
10,192,7548,1,0,0:0:0:62:D#3S_Eb3S.wav
229,192,7548,1,0,0:0:0:62:A#3S_Bb3S.wav
302,192,7548,1,0,0:0:0:62:D#5S_Eb5S_s.wav
448,192,8010,1,0,0:0:0:62:D#5S_Eb5S_s.wav
83,192,8317,1,0,0:0:0:62:F5S_s.wav
375,192,8471,1,0,0:0:0:62:G5S_s.wav
156,192,8933,1,0,0:0:0:62:D#5S_Eb5S_s.wav
302,192,9240,1,0,0:0:0:62:A#4S_Bb4S_s.wav
10,192,9394,1,0,0:0:0:62:D#3S_Eb3S.wav
229,192,9394,1,0,0:0:0:62:A#3S_Bb3S.wav
448,192,9394,1,0,0:0:0:62:D#5S_Eb5S_s.wav
83,192,9856,1,0,0:0:0:62:D#5S_Eb5S_s.wav
156,192,10317,1,0,0:0:0:62:D#3S_Eb3S.wav
302,192,10317,1,0,0:0:0:62:A#3S_Bb3S.wav
375,192,10317,1,0,0:0:0:62:G5S.wav
10,192,11240,1,0,0:0:0:62:D#4S_Eb4S.wav
229,192,11240,1,0,0:0:0:62:A#4S_Bb4S.wav
448,192,11240,1,0,0:0:0:62:D#5S_Eb5S_s.wav
83,192,11702,1,0,0:0:0:62:D#5S_Eb5S_s.wav
375,192,12010,1,0,0:0:0:62:F5S_s.wav
10,192,12163,1,0,0:0:0:62:D#4S_Eb4S.wav
156,192,12163,1,0,0:0:0:62:A#4S_Bb4S.wav
302,192,12163,1,0,0:0:0:62:G5S_s.wav
229,192,12625,1,0,0:0:0:62:D#5S_Eb5S_s.wav
448,192,12933,1,0,0:0:0:62:A#4S_Bb4S_s.wav
83,192,13087,1,0,0:0:0:62:D#4S_Eb4S.wav
156,192,13087,1,0,0:0:0:62:A#4S_Bb4S.wav
375,192,13087,1,0,0:0:0:62:D#5S_Eb5S_s.wav
302,192,13548,1,0,0:0:0:62:D#5S_Eb5S_s.wav
10,192,14010,1,0,0:0:0:62:A#3S_Bb3S.wav
229,192,14010,1,0,0:0:0:62:D#4S_Eb4S.wav
448,192,14010,1,0,0:0:0:62:G4S.wav
83,192,14933,1,0,0:0:0:62:D#3S_Eb3S.wav
156,192,14933,1,0,0:0:0:62:A#3S_Bb3S.wav
375,192,14933,1,0,0:0:0:62:D#5S_Eb5S_s.wav
302,192,15394,1,0,0:0:0:62:D#5S_Eb5S_s.wav
10,192,15702,1,0,0:0:0:62:F5S_s.wav
448,192,15856,1,0,0:0:0:62:G5S_s.wav
229,192,16317,1,0,0:0:0:62:D#5S_Eb5S_s.wav
375,192,16625,1,0,0:0:0:62:A#4S_Bb4S_s.wav
83,192,16779,1,0,0:0:0:62:D#3S_Eb3S.wav
156,192,16779,1,0,0:0:0:62:A#3S_Bb3S.wav
302,192,16779,1,0,0:0:0:62:D#5S_Eb5S_s.wav
10,192,17240,1,0,0:0:0:62:D#5S_Eb5S_s.wav
229,192,17702,1,0,0:0:0:62:D#3S_Eb3S.wav
375,192,17702,1,0,0:0:0:62:A#3S_Bb3S.wav
448,192,17702,1,0,0:0:0:62:G4S.wav
83,192,18625,1,0,0:0:0:62:D#3S_Eb3S.wav
156,192,18625,1,0,0:0:0:62:A#3S_Bb3S.wav
302,192,18625,1,0,0:0:0:62:D#5S_Eb5S_s.wav
10,192,18933,1,0,0:0:0:62:F5S_s.wav
448,192,19087,1,0,0:0:0:62:G5S_s.wav
375,192,19394,1,0,0:0:0:62:G#5S_Ab5S_s.wav
229,192,19548,1,0,0:0:0:62:A#5S_Bb5S_s.wav
83,192,19856,1,0,0:0:0:62:C6S_s.wav
302,192,20010,1,0,0:0:0:62:F6S_s.wav
156,192,20317,1,0,0:0:0:62:D#6S_Eb6S_s.wav
10,192,20471,1,0,0:0:0:62:A#3S_Bb3S_s.wav
375,192,20471,1,0,0:0:0:62:D#4S_Eb4S_s.wav
448,192,20471,1,0,0:0:0:62:D#5S_Eb5S_s.wav
229,192,20779,1,0,0:0:0:62:F5S_s.wav
83,192,20933,1,0,0:0:0:62:A#3S_Bb3S_s.wav
156,192,20933,1,0,0:0:0:62:D#4S_Eb4S_s.wav
302,192,20933,1,0,0:0:0:62:G5S_s.wav
375,192,21240,1,0,0:0:0:62:G#5S_Ab5S_s.wav
10,192,21394,1,0,0:0:0:62:A#3S_Bb3S.wav
229,192,21394,1,0,0:0:0:62:D#4S_Eb4S.wav
448,192,21394,1,0,0:0:0:62:A#5S_Bb5S_s.wav
302,192,21702,1,0,0:0:0:62:C6S_s.wav
156,192,21856,1,0,0:0:0:62:F6S_s.wav
83,192,22163,1,0,0:0:0:62:D#6S_Eb6S_s.wav
10,192,22317,1,0,0:0:0:62:D#3S_Eb3S.wav
375,192,22317,1,0,0:0:0:62:A#3S_Bb3S.wav
448,192,22317,1,0,0:0:0:62:D#5S_Eb5S_s.wav
229,192,22625,1,0,0:0:0:62:F5S_s.wav
302,192,22779,1,0,0:0:0:62:G5S_s.wav
156,192,23087,1,0,0:0:0:62:G#5S_Ab5S_s.wav
83,192,23240,1,0,0:0:0:62:A#5S_Bb5S_s.wav
375,192,23548,1,0,0:0:0:62:C6S_s.wav
10,192,23702,1,0,0:0:0:62:F6S_s.wav
448,192,24010,1,0,0:0:0:62:D#6S_Eb6S_s.wav
156,192,24163,1,0,0:0:0:62:A#3S_Bb3S_s.wav
229,192,24163,1,0,0:0:0:62:D#4S_Eb4S_s.wav
302,192,24163,1,0,0:0:0:62:D#5S_Eb5S_s.wav
83,192,24471,1,0,0:0:0:62:F5S_s.wav
10,192,24625,1,0,0:0:0:62:A#3S_Bb3S_s.wav
375,192,24625,1,0,0:0:0:62:D#4S_Eb4S_s.wav
448,192,24625,1,0,0:0:0:62:G5S_s.wav
156,192,24933,1,0,0:0:0:62:G#5S_Ab5S_s.wav
83,192,25087,1,0,0:0:0:62:A#3S_Bb3S.wav
229,192,25087,1,0,0:0:0:62:D#4S_Eb4S.wav
302,192,25087,1,0,0:0:0:62:A#5S_Bb5S_s.wav
448,192,25394,1,0,0:0:0:62:C6S_s.wav
10,192,25548,1,0,0:0:0:62:F6S_s.wav
375,192,25856,1,0,0:0:0:62:D#6S_Eb6S_s.wav
83,192,26010,1,0,0:0:0:62:D#3S_Eb3S.wav
156,192,26010,1,0,0:0:0:62:A#3S_Bb3S.wav
302,192,26010,1,0,0:0:0:62:G5S_s.wav
229,192,26317,1,0,0:0:0:62:D#5S_Eb5S_s.wav
448,192,26471,1,0,0:0:0:62:G5S_s.wav
10,192,26779,1,0,0:0:0:62:D#5S_Eb5S_s.wav
156,192,26933,1,0,0:0:0:62:D#4S_Eb4S.wav
302,192,26933,1,0,0:0:0:62:A#4S_Bb4S.wav
375,192,26933,1,0,0:0:0:62:G6S_s.wav
83,192,27240,1,0,0:0:0:62:D#6S_Eb6S_s.wav
229,192,27394,1,0,0:0:0:62:G6S_s.wav
448,192,27702,1,0,0:0:0:62:D#6S_Eb6S_s.wav
10,192,27856,1,0,0:0:0:62:D#3S_Eb3S.wav
156,192,27856,1,0,0:0:0:62:A#3S_Bb3S.wav
302,192,27856,1,0,0:0:0:62:G5S_s.wav
375,192,28163,1,0,0:0:0:62:D#5S_Eb5S_s.wav
83,192,28317,1,0,0:0:0:62:G5S_s.wav
229,192,28625,1,0,0:0:0:62:D#5S_Eb5S_s.wav
156,192,28779,1,0,0:0:0:62:D#4S_Eb4S.wav
302,192,28779,1,0,0:0:0:62:A#4S_Bb4S.wav
448,192,28779,1,0,0:0:0:62:G6S_s.wav
10,192,29087,1,0,0:0:0:62:D#6S_Eb6S_s.wav
375,192,29240,1,0,0:0:0:62:G6S_s.wav
83,192,29548,1,0,0:0:0:62:D#6S_Eb6S_s.wav
156,192,29702,1,0,0:0:0:62:D#3S_Eb3S.wav
229,192,29702,1,0,0:0:0:62:A#3S_Bb3S.wav
302,192,29702,1,0,0:0:0:62:G5S_s.wav
448,192,30010,1,0,0:0:0:62:D#5S_Eb5S_s.wav
10,192,30163,1,0,0:0:0:62:G6S_s.wav
375,192,30471,1,0,0:0:0:62:D#6S_Eb6S_s.wav
83,192,30625,1,0,0:0:0:62:D#3S_Eb3S.wav
156,192,30625,1,0,0:0:0:62:A#3S_Bb3S.wav
302,192,30625,1,0,0:0:0:62:G5S_s.wav
229,192,30933,1,0,0:0:0:62:D#5S_Eb5S_s.wav
448,192,31087,1,0,0:0:0:62:G6S_s.wav
10,192,31394,1,0,0:0:0:62:D#6S_Eb6S_s.wav
83,192,31548,1,0,0:0:0:62:D#3S_Eb3S.wav
302,192,31548,1,0,0:0:0:62:A#3S_Bb3S.wav
375,192,31548,1,0,0:0:0:62:D#5S_Eb5S_s.wav
156,192,32010,1,0,0:0:0:62:G5S_s.wav
10,192,32471,1,0,0:0:0:62:D#3S_Eb3S.wav
229,192,32471,1,0,0:0:0:62:A#3S_Bb3S.wav
375,192,32471,1,0,0:0:0:62:D#4S_Eb4S.wav
448,192,32471,1,0,0:0:0:62:D#5S_Eb5S.wav
83,192,33394,1,0,0:0:0:62:D#4S_Eb4S.wav
302,192,33394,1,0,0:0:0:62:D#5S_Eb5S_s.wav
156,192,33856,1,0,0:0:0:62:D#5S_Eb5S_s.wav
375,192,34163,1,0,0:0:0:62:F5S_s.wav
10,192,34317,1,0,0:0:0:62:D#4S_Eb4S.wav
229,192,34317,1,0,0:0:0:62:G5S_s.wav
448,192,34779,1,0,0:0:0:62:D#5S_Eb5S_s.wav
83,192,35087,1,0,0:0:0:62:A#4S_Bb4S_s.wav
156,192,35240,1,0,0:0:0:62:D#4S_Eb4S.wav
302,192,35240,1,0,0:0:0:62:D#5S_Eb5S_s.wav
375,192,35702,1,0,0:0:0:62:D#5S_Eb5S_s.wav
10,192,36163,1,0,0:0:0:62:A#3S_Bb3S.wav
229,192,36163,1,0,0:0:0:62:G5S.wav
83,192,37087,1,0,0:0:0:62:D#4S_Eb4S.wav
448,192,37087,1,0,0:0:0:62:D#5S_Eb5S_s.wav
302,192,37548,1,0,0:0:0:62:D#5S_Eb5S_s.wav
156,192,37856,1,0,0:0:0:62:F5S_s.wav
10,192,38010,1,0,0:0:0:62:G4S.wav
375,192,38010,1,0,0:0:0:62:G5S_s.wav
229,192,38471,1,0,0:0:0:62:F5S_s.wav
448,192,38779,1,0,0:0:0:62:D#5S_Eb5S_s.wav
83,192,38933,1,0,0:0:0:62:F4S_s.wav
302,192,38933,1,0,0:0:0:62:F5S.wav
156,192,39394,1,0,0:0:0:62:F4S_s.wav
375,192,39856,1,0,0:0:0:62:F4S.wav
10,192,40779,1,0,0:0:0:62:D#4S_Eb4S.wav
229,192,40779,1,0,0:0:0:62:D#5S_Eb5S_s.wav
448,192,41240,1,0,0:0:0:62:D#5S_Eb5S_s.wav
83,192,41548,1,0,0:0:0:62:F5S_s.wav
156,192,41702,1,0,0:0:0:62:D#4S_Eb4S.wav
302,192,41702,1,0,0:0:0:62:G5S_s.wav
375,192,42163,1,0,0:0:0:62:D#5S_Eb5S_s.wav
10,192,42471,1,0,0:0:0:62:A#4S_Bb4S_s.wav
229,192,42625,1,0,0:0:0:62:G#3S_Ab3S_s.wav
448,192,42625,1,0,0:0:0:62:D#5S_Eb5S_s.wav
83,192,42933,1,0,0:0:0:62:D#5S_Eb5S_s.wav
156,192,43086,1,0,0:0:0:62:G#3S_Ab3S_s.wav
302,192,43086,1,0,0:0:0:62:F5S_s.wav
375,192,43394,1,0,0:0:0:62:D#5S_Eb5S_s.wav
10,192,43548,1,0,0:0:0:62:G#3S_Ab3S.wav
229,192,44471,1,0,0:0:0:62:D#4S_Eb4S.wav
448,192,44471,1,0,0:0:0:62:D#5S_Eb5S_s.wav
83,192,44933,1,0,0:0:0:62:D#5S_Eb5S_s.wav
302,192,45240,1,0,0:0:0:62:F5S_s.wav
156,192,45394,1,0,0:0:0:62:A#4S_Bb4S.wav
375,192,45394,1,0,0:0:0:62:G5S_s.wav
10,192,45856,1,0,0:0:0:62:F5S_s.wav
448,192,46163,1,0,0:0:0:62:F5S_s.wav
83,192,46317,1,0,0:0:0:62:D#4S_Eb4S_s.wav
229,192,46317,1,0,0:0:0:62:D#5S_Eb5S.wav
302,192,46779,1,0,0:0:0:62:D#4S_Eb4S_s.wav
156,192,47240,1,0,0:0:0:62:D#3S_Eb3S.wav
10,192,48163,1,0,0:0:0:62:D#3S_Eb3S.wav
375,192,48163,1,0,0:0:0:62:A#3S_Bb3S.wav
448,192,48163,1,0,0:0:0:62:A#4S_Bb4S_s.wav
229,192,48625,1,0,0:0:0:62:C5S_s.wav
83,192,49086,1,0,0:0:0:62:D#3S_Eb3S.wav
156,192,49086,1,0,0:0:0:62:A#3S_Bb3S.wav
302,192,49086,1,0,0:0:0:62:D5S_s.wav
375,192,49548,1,0,0:0:0:62:D#5S_Eb5S_s.wav
10,192,50010,1,0,0:0:0:62:D#4S_Eb4S_s.wav
229,192,50010,1,0,0:0:0:62:A#4S_Bb4S_s.wav
448,192,50010,1,0,0:0:0:62:A#5S_Bb5S_s.wav
83,192,50471,1,0,0:0:0:62:D#4S_Eb4S_s.wav
156,192,50471,1,0,0:0:0:62:A#4S_Bb4S_s.wav
302,192,50471,1,0,0:0:0:62:C6S_s.wav
10,192,50933,1,0,0:0:0:62:D#4S_Eb4S.wav
229,192,50933,1,0,0:0:0:62:A#4S_Bb4S.wav
375,192,50933,1,0,0:0:0:62:D6S_s.wav
448,192,51394,1,0,0:0:0:62:D#6S_Eb6S_s.wav
83,192,51856,1,0,0:0:0:62:D#3S_Eb3S.wav
156,192,51856,1,0,0:0:0:62:A#3S_Bb3S.wav
302,192,51856,1,0,0:0:0:62:A#4S_Bb4S_s.wav
375,192,52317,1,0,0:0:0:62:C5S_s.wav
10,192,52779,1,0,0:0:0:62:D#3S_Eb3S.wav
229,192,52779,1,0,0:0:0:62:A#3S_Bb3S.wav
448,192,52779,1,0,0:0:0:62:D5S_s.wav
156,192,53240,1,0,0:0:0:62:D#5S_Eb5S_s.wav
83,192,53702,1,0,0:0:0:62:D#4S_Eb4S_s.wav
302,192,53702,1,0,0:0:0:62:A#4S_Bb4S_s.wav
375,192,53702,1,0,0:0:0:62:A#5S_Bb5S_s.wav
10,192,54163,1,0,0:0:0:62:D#4S_Eb4S_s.wav
229,192,54163,1,0,0:0:0:62:A#4S_Bb4S_s.wav
448,192,54163,1,0,0:0:0:62:C6S_s.wav
83,192,54625,1,0,0:0:0:62:D#4S_Eb4S.wav
156,192,54625,1,0,0:0:0:62:A#4S_Bb4S.wav
302,192,54625,1,0,0:0:0:62:D6S_s.wav
375,192,55086,1,0,0:0:0:62:D#6S_Eb6S.wav
10,192,57394,1,0,0:0:0:62:D#4S_Eb4S_s.wav
448,192,57394,1,0,0:0:0:62:G5S_s.wav
83,192,57856,1,0,0:0:0:62:D#4S_Eb4S_s.wav
229,192,57856,1,0,0:0:0:62:G5S_s.wav
156,192,58317,1,0,0:0:0:62:D4S_s.wav
302,192,58317,1,0,0:0:0:62:F5S_s.wav
10,192,58779,1,0,0:0:0:62:D4S_s.wav
375,192,58779,1,0,0:0:0:62:G5S_s.wav
448,192,59086,1,0,0:0:0:62:F5S_s.wav
83,192,59240,1,0,0:0:0:62:C4S_s.wav
229,192,59240,1,0,0:0:0:62:D#5S_Eb5S.wav
302,192,59702,1,0,0:0:0:62:C4S_s.wav
156,192,60163,1,0,0:0:0:62:A#3S_Bb3S_s.wav
375,192,60625,1,0,0:0:0:62:A#3S_Bb3S_s.wav
10,192,61086,1,0,0:0:0:62:G#3S_Ab3S_s.wav
448,192,61086,1,0,0:0:0:62:G#5S_Ab5S_s.wav
83,192,61317,1,0,0:0:0:62:G#5S_Ab5S_s.wav
229,192,61548,1,0,0:0:0:62:G#3S_Ab3S_s.wav
302,192,61548,1,0,0:0:0:62:G#5S_Ab5S_s.wav
156,192,62010,1,0,0:0:0:62:G3S_s.wav
375,192,62010,1,0,0:0:0:62:G5S_s.wav
10,192,62471,1,0,0:0:0:62:G3S_s.wav
448,192,62471,1,0,0:0:0:62:G#5S_Ab5S_s.wav
83,192,62779,1,0,0:0:0:62:G5S_s.wav
229,192,62933,1,0,0:0:0:62:F3S_s.wav
302,192,62933,1,0,0:0:0:62:F5S.wav
156,192,63394,1,0,0:0:0:62:F3S_s.wav
375,192,63856,1,0,0:0:0:62:A#3S_Bb3S_s.wav
10,192,64317,1,0,0:0:0:62:A#3S_Bb3S_s.wav
83,192,64779,1,0,0:0:0:62:D#4S_Eb4S_s.wav
448,192,64779,1,0,0:0:0:62:G5S_s.wav
302,192,65010,1,0,0:0:0:62:G5S_s.wav
156,192,65240,1,0,0:0:0:62:D#4S_Eb4S_s.wav
229,192,65240,1,0,0:0:0:62:G5S_s.wav
10,192,65702,1,0,0:0:0:62:D4S_s.wav
375,192,65702,1,0,0:0:0:62:F5S_s.wav
83,192,66163,1,0,0:0:0:62:D4S_s.wav
448,192,66163,1,0,0:0:0:62:G5S_s.wav
302,192,66471,1,0,0:0:0:62:F5S_s.wav
156,192,66625,1,0,0:0:0:62:C4S_s.wav
229,192,66625,1,0,0:0:0:62:D#5S_Eb5S.wav
375,192,67086,1,0,0:0:0:62:C4S_s.wav
10,192,67548,1,0,0:0:0:62:A#3S_Bb3S_s.wav
448,192,68010,1,0,0:0:0:62:A#3S_Bb3S_s.wav
83,192,68471,1,0,0:0:0:62:G#3S_Ab3S_s.wav
302,192,68471,1,0,0:0:0:62:G#5S_Ab5S_s.wav
156,192,68702,1,0,0:0:0:62:G#5S_Ab5S_s.wav
229,192,68933,1,0,0:0:0:62:G#3S_Ab3S_s.wav
375,192,68933,1,0,0:0:0:62:G#5S_Ab5S_s.wav
10,192,69394,1,0,0:0:0:62:G3S_s.wav
448,192,69394,1,0,0:0:0:62:G5S_s.wav
83,192,69856,1,0,0:0:0:62:G3S_s.wav
302,192,69856,1,0,0:0:0:62:G#5S_Ab5S_s.wav
156,192,70163,1,0,0:0:0:62:G5S_s.wav
375,192,70317,1,0,0:0:0:62:F3S_s.wav
229,192,70548,1,0,0:0:0:62:F5S_s.wav
10,192,70779,1,0,0:0:0:62:F3S_s.wav
448,192,71010,1,0,0:0:0:62:G5S_s.wav
83,192,71240,1,0,0:0:0:62:A#3S_Bb3S_s.wav
302,192,71471,1,0,0:0:0:62:F5S.wav
156,192,71702,1,0,0:0:0:62:A#3S_Bb3S_s.wav
229,192,72163,1,0,0:0:0:62:D#3S_Eb3S_s.wav
375,192,72163,1,0,0:0:0:62:D#5S_Eb5S_s.wav
10,192,72279,1,0,0:0:0:62:F5S_s.wav
83,192,72394,1,0,0:0:0:62:A#3S_Bb3S_s.wav
448,192,72394,1,0,0:0:0:62:G5S_s.wav
302,192,72510,1,0,0:0:0:62:G#5S_Ab5S_s.wav
156,192,72625,1,0,0:0:0:62:D#3S_Eb3S_s.wav
229,192,72625,1,0,0:0:0:62:A#5S_Bb5S_s.wav
375,192,72740,1,0,0:0:0:62:C6S_s.wav
10,192,72856,1,0,0:0:0:62:A#3S_Bb3S_s.wav
448,192,72856,1,0,0:0:0:62:F6S_s.wav
83,192,72971,1,0,0:0:0:62:D#6S_Eb6S_s.wav
156,192,73086,1,0,0:0:0:62:D#3S_Eb3S_s.wav
302,192,73086,1,0,0:0:0:62:D#5S_Eb5S_s.wav
229,192,73202,1,0,0:0:0:62:F5S_s.wav
10,192,73317,1,0,0:0:0:62:A#3S_Bb3S_s.wav
375,192,73317,1,0,0:0:0:62:G5S_s.wav
448,192,73433,1,0,0:0:0:62:G#5S_Ab5S_s.wav
83,192,73548,1,0,0:0:0:62:D#3S_Eb3S_s.wav
302,192,73548,1,0,0:0:0:62:A#5S_Bb5S_s.wav
156,192,73663,1,0,0:0:0:62:C6S_s.wav
10,192,73779,1,0,0:0:0:62:A#3S_Bb3S_s.wav
229,192,73779,1,0,0:0:0:62:F6S_s.wav
375,192,73894,1,0,0:0:0:62:D#6S_Eb6S_s.wav
83,192,74010,1,0,0:0:0:62:D#3S_Eb3S_s.wav
448,192,74010,1,0,0:0:0:62:D#5S_Eb5S_s.wav
302,192,74125,1,0,0:0:0:62:F5S_s.wav
10,192,74240,1,0,0:0:0:62:A#3S_Bb3S_s.wav
156,192,74240,1,0,0:0:0:62:G5S_s.wav
229,192,74356,1,0,0:0:0:62:G#5S_Ab5S_s.wav
83,192,74471,1,0,0:0:0:62:D#3S_Eb3S_s.wav
375,192,74471,1,0,0:0:0:62:A#5S_Bb5S_s.wav
448,192,74586,1,0,0:0:0:62:C6S_s.wav
156,192,74702,1,0,0:0:0:62:A#3S_Bb3S_s.wav
302,192,74702,1,0,0:0:0:62:F6S_s.wav
10,192,74817,1,0,0:0:0:62:D#6S_Eb6S_s.wav
83,192,74933,1,0,0:0:0:62:D#3S_Eb3S_s.wav
229,192,74933,1,0,0:0:0:62:D#5S_Eb5S_s.wav
375,192,75048,1,0,0:0:0:62:F5S_s.wav
156,192,75163,1,0,0:0:0:62:A#3S_Bb3S_s.wav
448,192,75163,1,0,0:0:0:62:G5S_s.wav
302,192,75279,1,0,0:0:0:62:G#5S_Ab5S_s.wav
10,192,75394,1,0,0:0:0:62:D#3S_Eb3S_s.wav
83,192,75394,1,0,0:0:0:62:A#5S_Bb5S_s.wav
229,192,75510,1,0,0:0:0:62:C6S_s.wav
156,192,75625,1,0,0:0:0:62:A#3S_Bb3S_s.wav
375,192,75625,1,0,0:0:0:62:D6S_s.wav
448,192,75740,1,0,0:0:0:62:D#6S_Eb6S_s.wav
10,192,75856,1,0,0:0:0:62:D#3S_Eb3S.wav
302,192,75856,1,0,0:0:0:62:A#3S_Bb3S.wav
