osu file format v14

[General]
AudioFilename: audio.mp3
AudioLeadIn: 0
PreviewTime: 13802
Countdown: 0
SampleSet: Soft
StackLeniency: 0.7
Mode: 2
LetterboxInBreaks: 0
WidescreenStoryboard: 0

[Editor]
Bookmarks: 12642,37670,45625
DistanceSpacing: 1.1
BeatDivisor: 4
GridSize: 4
TimelineZoom: 2.6

[Metadata]
Title:Sentou! Mew
TitleUnicode:戦闘!ミュウ
Artist:Junichi Masuda
ArtistUnicode:増田順一
Creator:Jusenkyo
Version:Nely's Rain
Source:ポケットモンスター エメラルド
Tags:Pokémon Pokemon Emerald Pocket Monsters Nintendo Game Freak Go Ichinose Mewtwo Legendary ポケモン Xinely
BeatmapID:1178901
BeatmapSetID:549036

[Difficulty]
HPDrainRate:6
CircleSize:3.8
OverallDifficulty:9
ApproachRate:9
SliderMultiplier:1.4
SliderTickRate:1

[Events]
//Background and Video events
0,0,"bg.jpg",0,0
//Break Periods
//Storyboard Layer 0 (Background)
//Storyboard Layer 1 (Fail)
//Storyboard Layer 2 (Pass)
//Storyboard Layer 3 (Foreground)
//Storyboard Sound Samples

[TimingPoints]
522,335.195530726257,4,2,0,60,1,0
2533,-76.9230769230769,4,2,0,60,0,0
3203,331.491712707182,4,2,0,55,1,0
3203,-76.9230769230769,4,2,0,55,0,0
29722,-66.6666666666667,4,2,0,65,0,1
40330,-76.9230769230769,4,2,0,55,0,0

[Colours]
Combo1 : 95,90,115
Combo2 : 153,90,116
Combo3 : 179,91,117
Combo4 : 212,112,138
Combo5 : 250,132,162

[HitObjects]
64,160,522,5,4,0:0:0:0:
24,160,605,1,0,0:0:0:0:
64,160,689,2,0,L|128:160,1,35
304,160,857,1,2,0:2:0:0:
336,160,940,1,0,0:0:0:0:
368,164,1024,2,0,L|304:164,1,35
140,88,1192,5,4,0:0:0:0:
100,88,1276,1,0,0:0:0:0:
100,120,1359,1,0,0:0:0:0:
140,128,1443,1,0,0:0:0:0:
336,88,1527,1,2,0:2:0:0:
372,124,1610,1,0,0:0:0:0:
371,174,1694,1,0,0:0:0:0:
336,208,1778,1,0,0:0:0:0:
144,184,1862,5,4,0:0:0:0:
104,184,1946,1,0,0:0:0:0:
96,236,2030,1,0,0:0:0:0:
144,240,2114,1,0,0:0:0:0:
308,240,2197,1,6,0:0:0:0:
356,240,2281,1,0,0:0:0:0:
356,188,2365,1,0,0:0:0:0:
304,188,2449,1,0,0:0:0:0:
124,244,2533,6,0,L|148:172,1,45.4999979171754,4|0,0:0|0:0,0:0:0:0:
208,244,2700,2,0,L|188:172,1,45.4999979171754
39,260,2868,2,0,L|-16:260,1,45.4999979171754,6|0,0:0|0:0,0:0:0:0:
56,260,3035,2,0,L|124:252,1,45.4999979171754,0|0,0:0|0:0,0:0:0:0:
360,124,3203,6,0,B|452:144|452:144|356:124,1,181.999991668702,6|0,0:0|0:0,0:0:0:0:
80,156,3700,2,0,L|188:160,1,90.9999958343508,2|0,0:0|0:0,0:0:0:0:
296,152,4031,1,0,0:0:0:0:
64,100,4197,2,0,P|28:144|32:184,1,90.9999958343508,2|0,0:0|0:0,0:0:0:0:
304,228,4528,6,0,P|232:236|168:144,1,181.999991668702,2|0,3:2|0:0,0:0:0:0:
308,112,5026,2,0,L|384:112,1,45.4999979171754,0|0,0:0|0:0,0:0:0:0:
184,96,5191,2,0,L|72:88,1,90.9999958343508,2|2,3:2|3:0,0:0:0:0:
232,160,5523,2,0,L|356:164,1,90.9999958343508,2|0,0:0|0:0,0:0:0:0:
52,184,5854,6,0,L|152:188,2,90.9999958343508,0|2|0,0:0|3:0|0:0,0:0:0:0:
284,108,6352,2,0,P|216:68|128:120,1,181.999991668702,2|0,0:0|0:0,0:0:0:0:
244,168,6849,2,0,L|352:176,1,90.9999958343508,2|0,0:0|0:0,0:0:0:0:
44,68,7180,6,0,P|24:124|28:176,1,90.9999958343508,2|0,0:0|0:0,0:0:0:0:
156,196,7512,1,2,3:0:0:0:
28,212,7678,2,0,P|80:208|216:256,1,181.999991668702,2|0,0:0|0:0,0:0:0:0:
356,254,8175,1,4,0:0:0:0:
202,246,8341,1,0,0:0:0:0:
488,140,8506,6,0,L|272:140,1,181.999991668702,4|0,0:0|0:0,0:0:0:0:
60,108,9004,2,0,L|172:112,1,90.9999958343508,2|0,0:0|0:0,0:0:0:0:
264,120,9335,1,0,0:0:0:0:
28,160,9501,2,0,L|160:148,1,90.9999958343508,2|0,0:0|0:0,0:0:0:0:
268,140,9832,6,0,L|396:140,2,90.9999958343508,2|0|0,0:0|0:0|0:0,0:0:0:0:
112,152,10330,2,0,L|44:148,1,45.4999979171754
257,208,10495,2,0,P|269:164|257:104,1,90.9999958343508,2|2,0:0|3:0,0:0:0:0:
124,120,10827,2,0,P|118:164|130:208,1,90.9999958343508,0|0,0:0|3:0,0:0:0:0:
368,252,11158,6,0,P|412:248|468:264,2,90.9999958343508,0|2|0,0:0|3:0|0:0,0:0:0:0:
136,256,11656,2,0,B|12:252|12:252|100:224,1,181.999991668702,2|0,0:0|0:0,0:0:0:0:
192,188,12153,2,0,L|88:192,1,90.9999958343508,2|0,0:0|0:0,0:0:0:0:
236,136,12484,6,0,L|296:136,1,45.4999979171754,2|0,0:0|0:0,0:0:0:0:
340,160,12650,2,0,L|292:160,1,45.4999979171754,0|0,0:0|0:0,0:0:0:0:
224,148,12816,2,0,L|133:151,1,90.9999958343508,2|2,0:0|0:0,0:0:0:0:
404,92,13147,1,0,1:0:0:0:
448,112,13230,1,0,0:0:0:0:
452,156,13313,1,0,0:0:0:0:
412,172,13396,1,0,0:0:0:0:
188,160,13479,2,0,P|136:152|76:160,1,90.9999958343508,0|0,1:0|0:0,0:0:0:0:
56,160,13727,1,0,0:0:0:0:
216,216,13810,6,0,P|296:216|336:208,1,90.9999958343508,6|0,0:0|0:0,0:0:0:0:
432,192,14142,1,2,3:0:0:0:
208,136,14307,2,0,P|140:124|84:148,1,90.9999958343508,2|0,0:0|0:0,0:0:0:0:
16,152,14639,1,2,3:0:0:0:
280,208,14805,2,0,L|408:212,1,90.9999958343508,0|0,0:0|0:0,0:0:0:0:
104,192,15136,6,0,P|64:172|36:124,2,90.9999958343508,2|0|0,0:0|0:0|3:0,0:0:0:0:
364,156,15633,2,0,L|264:160,1,90.9999958343508,2|0,3:2|0:0,0:0:0:0:
144,164,15965,1,0,0:0:0:0:
392,272,16131,2,0,L|504:268,1,90.9999958343508,2|2,3:2|3:2,0:0:0:0:
196,276,16462,6,0,L|0:280,2,181.999991668702,2|2|2,3:2|3:2|3:0,0:0:0:0:
300,272,17291,1,0,0:0:0:0:
56,196,17457,2,0,L|160:204,1,90.9999958343508,2|0,0:0|0:0,0:0:0:0:
384,200,17788,5,0,0:2:0:0:
128,192,17954,2,0,P|80:144|148:64,1,181.999991668702,2|0,0:0|0:0,0:0:0:0:
384,92,18451,2,0,L|293:98,1,90.9999958343508,2|0,0:0|3:0,0:0:0:0:
240,104,18700,1,0,3:0:0:0:
200,120,18783,2,0,P|194:155|200:184,1,45.4999979171754,2|0,3:0|3:0,0:0:0:0:
254,168,18948,2,0,L|326:168,1,45.4999979171754,2|0,3:0|0:0,0:0:0:0:
492,284,19114,6,0,L|300:280,1,181.999991668702,4|0,0:0|1:2,0:0:0:0:
56,228,19611,2,0,L|272:232,1,181.999991668702,2|0,0:0|0:0,0:0:0:0:
384,212,20109,2,0,L|276:208,1,90.9999958343508,2|0,1:2|0:0,0:0:0:0:
44,180,20440,6,0,P|16:100|88:24,1,181.999991668702,2|0,0:0|1:0,0:0:0:0:
296,116,20937,2,0,L|92:112,1,181.999991668702,2|0,0:0|0:0,0:0:0:0:
244,40,21435,2,0,L|352:36,1,90.9999958343508,2|0,1:2|0:0,0:0:0:0:
72,80,21766,6,0,P|20:176|80:236,1,181.999991668702,2|0,0:0|1:0,0:0:0:0:
332,76,22263,2,0,P|380:160|328:240,1,181.999991668702,2|0,0:0|0:0,0:0:0:0:
220,280,22761,2,0,L|104:280,1,90.9999958343508,2|0,1:2|0:0,0:0:0:0:
384,164,23092,6,0,P|436:168|488:208,1,90.9999958343508,2|0,0:0|0:0,0:0:0:0:
308,168,23423,2,0,L|184:172,1,90.9999958343508,2|0,0:0|0:0,0:0:0:0:
372,132,23755,2,0,P|360:196|316:244,1,90.9999958343508,2|0,0:0|0:0,0:0:0:0:
300,224,24004,1,0,0:0:0:0:
140,216,24086,2,0,L|68:216,1,45.4999979171754,2|0,1:2|0:0,0:0:0:0:
60,168,24252,2,0,L|120:168,1,45.4999979171754,0|0,1:2|0:0,0:0:0:0:
293,164,24418,6,0,L|385:164,2,90.9999958343508,4|2|0,0:0|0:0|1:0,0:0:0:0:
56,144,24915,2,0,L|268:144,1,181.999991668702
356,140,25412,1,0,1:0:0:0:
244,144,25578,1,0,0:0:0:0:
480,152,25744,6,0,P|424:188|400:208,2,90.9999958343508,0|0|0,1:0|0:0|0:0,0:0:0:0:
252,100,26241,2,0,L|132:100,2,90.9999958343508,0|0|0,1:0|0:0|0:0,0:0:0:0:
364,100,26738,2,0,L|456:96,1,90.9999958343508,0|0,1:0|0:0,0:0:0:0:
196,176,27070,6,0,L|84:188,1,90.9999958343508,2|0,0:0|0:0,0:0:0:0:
224,256,27401,2,0,L|328:248,1,90.9999958343508,0|0,0:0|0:0,0:0:0:0:
440,220,27733,2,0,P|436:156|420:120,1,90.9999958343508,0|0,0:0|0:0,0:0:0:0:
280,148,28064,2,0,L|392:144,1,90.9999958343508,0|0,0:0|0:0,0:0:0:0:
116,56,28396,6,0,L|120:168,1,90.9999958343508,0|0,1:0|0:0,0:0:0:0:
264,56,28727,2,0,L|268:176,1,90.9999958343508,0|2,1:0|0:0,0:0:0:0:
88,264,29059,1,2,3:0:0:0:
48,248,29142,1,0,3:0:0:0:
40,200,29225,1,0,3:0:0:0:
84,176,29307,1,0,3:0:0:0:
280,260,29390,1,2,3:0:0:0:
320,244,29473,1,0,0:0:0:0:
328,196,29556,1,0,0:0:0:0:
284,172,29638,1,0,0:0:0:0:
64,172,29722,6,0,P|52:108|76:64,1,105.000004005432,6|0,0:0|0:0,0:0:0:0:
196,72,30053,1,2,3:0:0:0:
156,68,30136,1,0,0:0:0:0:
120,68,30219,1,0,0:0:0:0:
448,172,30385,6,0,P|460:108|436:64,1,105.000004005432,2|0,0:0|0:0,0:0:0:0:
316,72,30716,1,2,3:0:0:0:
356,68,30799,1,0,0:0:0:0:
392,68,30882,1,0,0:0:0:0:
144,92,31048,6,0,L|40:40,2,105.000004005432,2|0|2,0:0|0:0|3:0,0:0:0:0:
292,172,31545,2,0,L|348:176,1,52.5000020027161,0|0,0:0|0:0,0:0:0:0:
180,224,31711,2,0,B|92:200|92:200|192:136,1,210.000008010865,2|0,0:0|0:0,0:0:0:0:
304,140,32208,1,0,0:0:0:0:
44,120,32374,6,0,P|20:168|48:228,1,105.000004005432,4|0,0:0|0:0,0:0:0:0:
164,220,32705,2,0,L|48:224,1,105.000004005432
124,200,32954,1,0,0:0:0:0:
168,172,33037,2,0,L|280:188,1,105.000004005432,2|0,3:0|0:0,0:0:0:0:
420,200,33368,2,0,L|284:228,1,105.000004005432,0|2,0:0|0:0,0:0:0:0:
176,224,33700,6,0,P|168:168|208:116,1,105.000004005432,0|0,0:0|3:0,0:0:0:0:
224,104,33948,1,0,3:0:0:0:
188,80,34031,1,2,3:0:0:0:
44,96,34197,1,0,0:0:0:0:
184,132,34363,2,0,L|324:132,1,105.000004005432,2|0,3:0|0:0,0:0:0:0:
424,52,34694,2,0,L|396:192,1,105.000004005432,2|0,3:0|0:0,0:0:0:0:
64,168,35026,6,0,P|52:104|76:60,1,105.000004005432,6|0,0:0|0:0,0:0:0:0:
212,72,35357,1,2,3:0:0:0:
172,68,35440,1,0,0:0:0:0:
136,68,35523,1,0,0:0:0:0:
448,172,35689,6,0,P|460:108|436:64,1,105.000004005432,2|0,0:0|0:0,0:0:0:0:
316,72,36020,1,2,3:0:0:0:
356,68,36103,1,0,0:0:0:0:
392,68,36186,1,0,0:0:0:0:
144,96,36352,6,0,L|20:84,2,105.000004005432,2|0|2,0:0|0:0|3:0,0:0:0:0:
292,172,36849,2,0,L|348:176,1,52.5000020027161,0|0,0:0|0:0,0:0:0:0:
180,224,37015,2,0,B|92:200|92:200|192:136,1,210.000008010865,2|2,0:0|3:0,0:0:0:0:
304,140,37512,1,0,0:0:0:0:
44,120,37678,6,0,P|32:184|52:264,1,105.000004005432,0|0,0:0|0:0,0:0:0:0:
172,212,38009,2,0,L|56:216,1,105.000004005432,2|0,0:0|0:0,0:0:0:0:
248,152,38341,2,0,L|360:168,1,105.000004005432,2|0,3:0|0:0,0:0:0:0:
212,168,38672,2,0,L|196:36,1,105.000004005432,2|0,0:0|0:0,0:0:0:0:
432,104,39004,5,0,0:0:0:0:
320,116,39169,2,0,L|268:112,2,52.5000020027161,0|0|4,0:0|0:0|3:0,0:0:0:0:
428,144,39501,1,4,3:0:0:0:
240,172,39667,1,0,0:0:0:0:
200,172,39749,1,0,0:0:0:0:
192,120,39832,1,0,0:0:0:0:
240,116,39915,1,0,0:0:0:0:
416,168,39998,1,0,3:0:0:0:
456,168,40080,1,0,0:0:0:0:
464,116,40163,1,0,0:0:0:0:
416,112,40246,1,0,0:0:0:0:
232,112,40330,6,0,P|172:100|60:172,1,181.999991668702,4|0,0:0|1:0,0:0:0:0:
244,200,40827,2,0,L|368:208,2,90.9999958343508,2|0|0,0:0|0:0|0:0,0:0:0:0:
104,224,41324,2,0,L|4:188,1,90.9999958343508,2|0,1:2|0:0,0:0:0:0:
288,208,41656,5,2,0:0:0:0:
36,112,41821,2,0,L|260:112,1,181.999991668702,2|0,0:0|0:0,0:0:0:0:
360,108,42319,1,2,0:0:0:0:
400,128,42401,1,0,0:0:0:0:
404,176,42484,1,0,0:0:0:0:
372,208,42567,1,0,0:0:0:0:
212,224,42650,1,0,1:2:0:0:
172,224,42733,1,0,0:0:0:0:
172,248,42816,1,0,0:0:0:0:
208,252,42899,1,0,0:0:0:0:
360,312,42982,6,0,P|416:272|332:208,1,181.999991668702,2|0,0:0|1:2,0:0:0:0:
232,192,43479,2,0,L|141:186,2,90.9999958343508,0|2|0,0:0|0:0|0:0,0:0:0:0:
368,196,43976,2,0,L|453:226,1,90.9999958343508,2|0,1:2|0:0,0:0:0:0:
220,240,44308,5,2,0:0:0:0:
488,124,44473,2,0,L|306:124,1,181.999991668702,2|0,0:0|0:0,0:0:0:0:
168,124,44970,2,0,L|112:128,2,45.4999979171754,2|0|0,0:0|0:0|0:0,0:0:0:0:
396,128,45302,1,0,1:0:0:0:
432,136,45385,1,0,0:0:0:0:
396,144,45468,1,0,0:0:0:0:
344,152,45551,1,0,0:0:0:0:
132,152,45633,5,4,3:2:0:0:
