osu file format v14

[General]
AudioFilename: audio.mp3
AudioLeadIn: 0
PreviewTime: 13802
Countdown: 0
SampleSet: Soft
StackLeniency: 0.7
Mode: 2
LetterboxInBreaks: 0
WidescreenStoryboard: 0

[Editor]
Bookmarks: 45625
DistanceSpacing: 1.1
BeatDivisor: 2
GridSize: 4
TimelineZoom: 1.7

[Metadata]
Title:Sentou! Mew
TitleUnicode:戦闘!ミュウ
Artist:Junichi Masuda
ArtistUnicode:増田順一
Creator:Jusenkyo
Version:Cup
Source:ポケットモンスター エメラルド
Tags:Pokémon Pokemon Emerald Pocket Monsters Nintendo Game Freak Go Ichinose Mewtwo Legendary ポケモン Xinely
BeatmapID:1162697
BeatmapSetID:549036

[Difficulty]
HPDrainRate:4
CircleSize:2
OverallDifficulty:6
ApproachRate:6
SliderMultiplier:1
SliderTickRate:1

[Events]
//Background and Video events
0,0,"bg.jpg",0,0
//Break Periods
//Storyboard Layer 0 (Background)
//Storyboard Layer 1 (Fail)
//Storyboard Layer 2 (Pass)
//Storyboard Layer 3 (Foreground)
//Storyboard Sound Samples

[TimingPoints]
522,335.195530726257,4,2,1,60,1,0
3203,331.491712707182,4,2,1,55,1,0
29722,-100,4,2,1,65,0,1
40330,-100,4,2,1,55,0,0

[Colours]
Combo1 : 95,90,115
Combo2 : 153,90,116
Combo3 : 179,91,117
Combo4 : 212,112,138
Combo5 : 250,132,162

[HitObjects]
256,192,522,12,4,3203,0:0:0:0:
344,200,3700,6,0,P|408:136|408:72,1,150,2|2,0:0|0:0,0:0:0:0:
291,203,4528,1,2,3:2:0:0:
108,272,5191,2,0,L|24:196,1,100,2|2,3:2|0:0,0:0:0:0:
181,279,5854,5,0,0:0:0:0:
360,128,6352,2,0,P|412:176|400:264,1,150,2|2,0:0|0:0,0:0:0:0:
280,168,7180,2,0,L|198:255,1,100,2|2,0:0|3:0,0:0:0:0:
332,244,7843,2,0,L|392:328,1,100,0|4,0:0|0:0,0:0:0:0:
228,291,8506,5,4,0:0:0:0:
416,288,9004,2,0,L|468:172,1,100,2|0,0:0|0:0,0:0:0:0:
368,136,9501,1,2,0:0:0:0:
208,197,9832,1,2,0:0:0:0:
376,256,10495,2,0,L|480:192,1,100,2|0,0:0|0:0,0:0:0:0:
306,256,11158,5,0,0:0:0:0:
103,230,11656,2,0,L|254:230,1,150,2|2,0:0|0:0,0:0:0:0:
376,296,12484,6,0,L|276:296,1,100,2|2,0:0|0:0,0:0:0:0:
216,232,12982,2,0,P|296:200|280:136,1,150,2|0,0:0|1:0,0:0:0:0:
142,207,13810,6,0,L|-2:260,2,150,6|2|0,0:0|0:0|0:0,0:0:0:0:
282,205,15136,2,0,L|442:264,2,150,2|2|2,0:0|3:2|3:2,0:0:0:0:
120,197,16462,6,0,P|51:293|188:317,1,300,2|2,3:2|0:0,0:0:0:0:
344,264,17788,2,0,L|248:264,1,50,0|2,0:2|0:0,0:0:0:0:
96,264,18451,1,2,0:0:0:0:
196,264,18782,1,2,3:0:0:0:
353,283,19114,6,0,L|481:200,2,150,4|2|2,0:0|0:0|1:2,0:0:0:0:
213,287,20440,2,0,L|73:221,2,150,2|2|2,0:0|0:0|1:2,0:0:0:0:
368,296,21766,5,2,0:0:0:0:
180,300,22263,1,2,0:0:0:0:
368,296,22761,1,2,1:2:0:0:
211,246,23092,6,0,L|102:245,1,100,2|2,0:0|0:0,0:0:0:0:
241,190,23755,2,0,L|133:190,1,100,2|2,0:0|1:2,0:0:0:0:
281,139,24418,6,0,L|433:139,2,150,4|0|0,0:0|0:0|1:0,0:0:0:0:
140,136,25744,2,0,L|140:212,1,50,0|0,1:0|0:0,0:0:0:0:
280,312,26241,2,0,L|280:240,1,50,0|0,1:0|0:0,0:0:0:0:
140,200,26738,1,0,1:0:0:0:
280,196,27070,6,0,P|196:280|120:128,1,300,2|0,0:0|0:0,0:0:0:0:
236,216,28396,6,0,L|336:305,2,100,0|0|2,1:0|1:0|3:0,0:0:0:0:
96,208,29390,1,2,3:0:0:0:
236,276,29722,6,0,L|336:276,1,100,6|2,0:0|3:0,0:0:0:0:
476,208,30385,2,0,L|376:208,1,100,2|2,0:0|3:0,0:0:0:0:
246,152,31048,6,0,L|137:151,1,100,2|2,0:0|3:0,0:0:0:0:
296,216,31711,2,0,L|170:216,1,100,2|0,0:0|0:0,0:0:0:0:
346,217,32374,6,0,P|338:269|303:162,1,400,4|0,0:0|0:0,0:0:0:0:
171,96,34031,2,0,L|63:95,1,100,2|2,3:0|3:0,0:0:0:0:
201,176,34694,1,2,3:0:0:0:
351,134,35026,6,0,L|251:134,1,100,6|2,0:0|3:0,0:0:0:0:
121,243,35689,2,0,L|232:242,1,100,2|2,0:0|3:0,0:0:0:0:
371,170,36352,6,0,L|255:171,1,100,2|2,0:0|3:0,0:0:0:0:
421,305,37015,2,0,L|321:305,1,100,2|2,0:0|3:0,0:0:0:0:
256,192,37678,12,0,40330,0:0:0:0:
312,256,40827,6,0,P|234:248|240:151,1,150,2|2,0:0|1:2,0:0:0:0:
336,184,41656,2,0,L|396:184,1,50,2|2,0:0|0:0,0:0:0:0:
200,192,42319,2,0,L|136:284,1,100,2|0,0:0|1:2,0:0:0:0:
284,268,42982,6,0,P|316:212|218:165,1,200,2|0,0:0|0:0,0:0:0:0:
380,130,43976,1,2,1:2:0:0:
228,196,44307,6,0,L|228:260,1,50,2|2,0:0|0:0,0:0:0:0:
113,256,44970,2,0,L|21:219,1,100,2|0,0:0|1:0,0:0:0:0:
160,179,45633,5,4,3:2:0:0:
