osu file format v14

[General]
AudioFilename: audio.mp3
AudioLeadIn: 0
PreviewTime: 13802
Countdown: 0
SampleSet: Soft
StackLeniency: 0.7
Mode: 2
LetterboxInBreaks: 0
WidescreenStoryboard: 0

[Editor]
Bookmarks: 45625
DistanceSpacing: 1.1
BeatDivisor: 4
GridSize: 32
TimelineZoom: 1.7

[Metadata]
Title:Sentou! Mew
TitleUnicode:戦闘!ミュウ
Artist:Junichi Masuda
ArtistUnicode:増田順一
Creator:Jusenkyo
Version:Salad
Source:ポケットモンスター エメラルド
Tags:Pokémon Pokemon Emerald Pocket Monsters Nintendo Game Freak Go Ichinose Mewtwo Legendary ポケモン Xinely
BeatmapID:1162699
BeatmapSetID:549036

[Difficulty]
HPDrainRate:5
CircleSize:3
OverallDifficulty:7
ApproachRate:7
SliderMultiplier:1.2
SliderTickRate:1

[Events]
//Background and Video events
0,0,"bg.jpg",0,0
//Break Periods
//Storyboard Layer 0 (Background)
//Storyboard Layer 1 (Fail)
//Storyboard Layer 2 (Pass)
//Storyboard Layer 3 (Foreground)
//Storyboard Sound Samples

[TimingPoints]
522,335.195530726257,4,2,0,60,1,0
3203,331.491712707182,4,2,0,55,1,0
29722,-100,4,2,0,65,0,1
40330,-100,4,2,0,55,0,0

[Colours]
Combo1 : 95,90,115
Combo2 : 153,90,116
Combo3 : 179,91,117
Combo4 : 212,112,138
Combo5 : 250,132,162

[HitObjects]
376,265,522,6,0,L|448:165,1,120,4|2,0:0|0:2,0:0:0:0:
278,187,1192,2,0,L|206:87,1,120,4|2,0:0|0:2,0:0:0:0:
40,301,1862,6,0,L|131:219,1,120,4|6,0:0|0:0,0:0:0:0:
297,210,2533,2,0,L|195:133,1,120,4|6,0:0|0:0,0:0:0:0:
460,133,3203,5,6,0:0:0:0:
216,192,3700,2,0,P|151:191|89:237,1,120,2|0,0:0|0:0,0:0:0:0:
156,255,4197,1,2,0:0:0:0:
216,255,4362,1,0,0:0:0:0:
320,256,4528,5,2,3:2:0:0:
126,192,5026,2,0,L|51:192,2,60,0|2|2,0:0|3:2|3:0,0:0:0:0:
198,238,5523,2,0,L|256:256,1,60,2|0,0:0|0:0,0:0:0:0:
160,192,5854,5,0,0:0:0:0:
300,194,6186,1,0,0:0:0:0:
224,160,6352,2,0,P|160:192|192:288,1,180,2|2,0:0|0:0,0:0:0:0:
384,96,7180,6,0,L|416:160,1,60,2|0,0:0|0:0,0:0:0:0:
320,192,7512,2,0,L|288:256,1,60,2|2,3:0|0:0,0:0:0:0:
384,288,7843,2,0,L|448:352,1,60,0|0,0:0|0:0,0:0:0:0:
334,256,8175,1,4,0:0:0:0:
76,191,8506,6,0,L|203:191,1,120,4|0,0:0|0:0,0:0:0:0:
268,257,9004,2,0,L|148:257,1,120,2|0,0:0|0:0,0:0:0:0:
238,209,9501,1,2,0:0:0:0:
298,209,9666,1,0,0:0:0:0:
402,207,9832,5,2,0:0:0:0:
256,192,10164,2,0,L|224:288,1,60,0|0,0:0|0:0,0:0:0:0:
160,256,10495,2,0,L|128:320,1,60,2|2,0:0|3:0,0:0:0:0:
224,256,10827,2,0,L|288:192,1,60,0|0,0:0|3:0,0:0:0:0:
353,259,11158,6,0,L|417:259,2,60,0|2|0,0:0|3:0|0:0,0:0:0:0:
256,224,11656,1,2,0:0:0:0:
316,224,11821,1,0,0:0:0:0:
376,224,11987,1,0,0:0:0:0:
288,224,12153,6,0,L|192:256,1,60,2|0,0:0|0:0,0:0:0:0:
128,256,12484,2,0,P|64:224|64:160,1,120,2|2,0:0|0:0,0:0:0:0:
164,159,12982,2,0,P|164:87|74:36,1,180,2|0,0:0|1:0,0:0:0:0:
389,230,13810,6,0,P|451:192|443:142,1,120,6|2,0:0|3:0,0:0:0:0:
362,178,14307,2,0,P|310:142|310:86,1,120,2|2,0:0|3:0,0:0:0:0:
399,189,14805,1,0,0:0:0:0:
192,128,15136,6,0,P|128:160|128:256,1,120,2|0,0:0|3:0,0:0:0:0:
199,209,15633,2,0,P|255:256|255:320,1,120,2|0,3:2|0:0,0:0:0:0:
170,297,16131,1,2,3:2:0:0:
448,288,16462,6,0,P|480:160|288:128,1,360,2|2,3:2|0:0,0:0:0:0:
192,232,17788,2,0,L|132:232,1,60,0|2,0:2|0:0,0:0:0:0:
360,236,18451,2,0,L|433:236,2,60,2|0|2,0:0|3:0|3:0,0:0:0:0:
83,232,19114,6,0,L|21:123,1,120,4|0,0:0|1:2,0:0:0:0:
111,101,19611,2,0,L|174:223,1,120,2|0,0:0|0:0,0:0:0:0:
257,202,20109,1,2,1:2:0:0:
451,325,20440,6,0,L|379:215,1,120,2|0,0:0|1:0,0:0:0:0:
298,243,20937,2,0,L|372:348,1,120,2|0,0:0|0:0,0:0:0:0:
276,335,21435,1,2,1:2:0:0:
30,195,21766,6,0,L|117:92,1,120,2|0,0:0|1:0,0:0:0:0:
198,136,22263,2,0,L|101:246,1,120,2|0,0:0|0:0,0:0:0:0:
22,228,22761,1,2,1:2:0:0:
208,243,23092,6,0,L|330:243,1,120,2|2,0:0|0:0,0:0:0:0:
178,296,23755,2,0,L|50:296,1,120,2|2,0:0|1:2,0:0:0:0:
324,226,24418,6,0,L|397:184,2,60,4|2|0,0:0|0:0|1:0,0:0:0:0:
162,223,24915,2,0,P|113:177|191:100,1,180,0|0,0:0|1:0,0:0:0:0:
323,192,25744,5,0,1:0:0:0:
260,192,25909,1,0,0:0:0:0:
192,192,26075,1,0,0:0:0:0:
288,256,26241,2,0,L|352:256,2,60,0|0|0,1:0|0:0|0:0,0:0:0:0:
177,195,26738,2,0,L|243:217,1,60,0|0,1:0|0:0,0:0:0:0:
396,147,27070,6,0,P|272:204|337:84,1,360,2|0,0:0|0:0,0:0:0:0:
162,196,28396,6,0,L|89:198,1,60,0|0,1:0|0:0,0:0:0:0:
210,270,28727,2,0,L|286:268,1,60,0|2,1:0|0:0,0:0:0:0:
379,222,29059,2,0,L|310:222,1,60,2|0,3:0|3:0,0:0:0:0:
211,180,29390,2,0,L|281:180,1,60,2|0,3:0|0:0,0:0:0:0:
454,183,29722,6,0,L|378:85,1,120,6|2,0:0|3:0,0:0:0:0:
185,195,30385,2,0,P|150:173|157:83,1,120,2|2,0:0|3:0,0:0:0:0:
466,103,31048,6,0,L|378:216,1,120,2|2,0:0|3:0,0:0:0:0:
212,210,31711,2,0,P|220:180|304:135,1,120,2|0,0:0|0:0,0:0:0:0:
496,194,32374,6,0,P|464:258|400:290,1,120,4|0,0:0|0:0,0:0:0:0:
256,256,33037,2,0,L|384:256,1,120,2|0,3:0|0:0,0:0:0:0:
212,256,33700,5,0,0:0:0:0:
352,256,34031,2,0,L|224:256,2,120,2|2|2,3:0|3:0|3:0,0:0:0:0:
90,192,35026,6,0,L|182:78,1,120,6|2,0:0|3:0,0:0:0:0:
358,115,35689,2,0,L|275:232,1,120,2|2,0:0|3:0,0:0:0:0:
84,326,36352,6,0,L|145:213,1,120,2|2,0:0|3:0,0:0:0:0:
430,230,37015,2,0,L|358:340,1,120,2|2,0:0|3:0,0:0:0:0:
256,192,37678,12,0,39004,0:0:0:0:
384,192,39335,6,0,L|352:256,1,60,4|4,3:0|3:0,0:0:0:0:
262,192,39666,1,0,0:0:0:0:
142,192,39997,1,0,3:0:0:0:
419,188,40330,6,0,L|475:72,1,120,4|0,0:0|1:0,0:0:0:0:
381,67,40827,2,0,L|309:178,1,120,2|0,0:0|0:0,0:0:0:0:
219,164,41324,1,2,1:2:0:0:
480,288,41656,6,0,L|398:288,1,60,2|2,0:0|0:0,0:0:0:0:
366,247,41987,2,0,L|437:136,1,120,0|2,0:0|0:0,0:0:0:0:
239,144,42650,1,0,1:2:0:0:
458,188,42982,6,0,L|386:88,1,120,2|0,0:0|1:2,0:0:0:0:
298,104,43479,2,0,L|377:213,1,120,0|0,0:0|0:0,0:0:0:0:
464,195,43976,1,2,1:2:0:0:
206,253,44307,6,0,L|110:221,1,60,2|2,0:0|0:0,0:0:0:0:
46,189,44639,2,0,L|174:221,1,120,0|2,0:0|0:0,0:0:0:0:
334,253,45302,1,0,1:0:0:0:
60,256,45633,5,4,3:2:0:0:
