osu file format v14

[General]
AudioFilename: audio.mp3
AudioLeadIn: 0
PreviewTime: 13802
Countdown: 0
SampleSet: Soft
StackLeniency: 0.7
Mode: 2
LetterboxInBreaks: 0
WidescreenStoryboard: 0

[Editor]
DistanceSpacing: 1.1
BeatDivisor: 4
GridSize: 32
TimelineZoom: 2.6

[Metadata]
Title:Sentou! Mew
TitleUnicode:戦闘!ミュウ
Artist:Junichi Masuda
ArtistUnicode:増田順一
Creator:Jusenkyo
Version:Platter
Source:ポケットモンスター エメラルド
Tags:Pokémon Pokemon Emerald Pocket Monsters Nintendo Game Freak Go Ichinose Mewtwo Legendary ポケモン Xinely
BeatmapID:1162698
BeatmapSetID:549036

[Difficulty]
HPDrainRate:5
CircleSize:3.8
OverallDifficulty:8
ApproachRate:8
SliderMultiplier:1.4
SliderTickRate:2

[Events]
//Background and Video events
0,0,"bg.jpg",0,0
//Break Periods
//Storyboard Layer 0 (Background)
//Storyboard Layer 1 (Fail)
//Storyboard Layer 2 (Pass)
//Storyboard Layer 3 (Foreground)
//Storyboard Sound Samples

[TimingPoints]
522,335.195530726257,4,2,0,60,1,0
3203,331.491712707182,4,2,0,55,1,0
29722,-100,4,2,0,65,0,1
40330,-100,4,2,0,55,0,0

[Colours]
Combo1 : 95,90,115
Combo2 : 153,90,116
Combo3 : 179,91,117
Combo4 : 212,112,138
Combo5 : 250,132,162

[HitObjects]
80,186,522,6,0,L|32:141,2,35,4|0|0,0:0|0:0|0:0,0:0:0:0:
192,160,857,2,0,L|161:128,2,35,2|0|0,0:2|0:0|0:0,0:0:0:0:
304,228,1192,6,0,L|338:201,2,35,4|0|0,0:0|0:0|0:0,0:0:0:0:
416,304,1527,2,0,L|456:271,2,35,2|0|0,0:2|0:0|0:0,0:0:0:0:
134,308,1862,5,4,0:0:0:0:
102,294,1945,1,0,0:0:0:0:
76,270,2029,1,0,0:0:0:0:
61,238,2113,1,0,0:0:0:0:
57,204,2197,1,6,0:0:0:0:
66,170,2280,1,0,0:0:0:0:
85,141,2364,1,0,0:0:0:0:
114,121,2448,1,0,0:0:0:0:
144,206,2533,5,4,0:0:0:0:
178,207,2616,1,0,0:0:0:0:
207,190,2700,1,0,0:0:0:0:
222,158,2784,1,0,0:0:0:0:
216,124,2868,1,6,0:0:0:0:
192,100,2951,1,0,0:0:0:0:
158,92,3035,1,0,0:0:0:0:
416,96,3203,5,6,0:0:0:0:
288,192,3534,1,0,0:0:0:0:
203,187,3700,2,0,L|297:67,1,140,2|0,0:0|0:0,0:0:0:0:
174,148,4197,2,0,L|238:84,1,70,2|0,0:0|0:0,0:0:0:0:
83,192,4528,1,2,3:2:0:0:
224,256,4860,5,0,0:0:0:0:
309,230,5026,1,0,0:0:0:0:
343,224,5108,1,0,0:0:0:0:
377,218,5191,2,0,L|314:176,1,70,2|2,3:2|3:0,0:0:0:0:
167,207,5523,2,0,L|235:152,1,70,2|0,0:0|0:0,0:0:0:0:
390,93,5854,6,0,L|294:93,1,70,0|2,0:0|3:0,0:0:0:0:
214,97,6186,1,0,0:0:0:0:
457,192,6352,2,0,P|481:230|361:273,1,210,2|2,0:0|0:0,0:0:0:0:
258,222,7015,2,0,L|172:222,1,70,0|2,0:0|0:0,0:0:0:0:
321,160,7346,5,0,0:0:0:0:
356,160,7428,1,0,0:0:0:0:
391,160,7511,1,2,3:0:0:0:
248,219,7678,1,2,0:0:0:0:
282,218,7760,1,0,0:0:0:0:
317,218,7843,1,0,0:0:0:0:
444,168,8009,5,0,0:0:0:0:
409,168,8091,1,0,0:0:0:0:
374,168,8174,1,4,0:0:0:0:
275,167,8341,1,0,0:0:0:0:
40,160,8506,6,0,P|19:202|83:258,1,140,4|0,0:0|0:0,0:0:0:0:
191,256,9004,2,0,L|90:144,1,140,2|0,0:0|0:0,0:0:0:0:
203,106,9501,2,0,L|281:106,1,70,2|0,0:0|0:0,0:0:0:0:
436,111,9832,6,0,L|476:198,1,70,2|0,0:0|0:0,0:0:0:0:
358,246,10164,2,0,L|312:181,1,70,0|0,0:0|0:0,0:0:0:0:
211,167,10495,2,0,L|261:99,1,70,2|2,0:0|3:0,0:0:0:0:
146,136,10827,2,0,L|76:100,1,70,0|0,0:0|3:0,0:0:0:0:
380,233,11158,6,0,L|436:167,1,70,0|2,0:0|3:0,0:0:0:0:
319,143,11490,2,0,L|263:79,1,70,0|2,0:0|0:0,0:0:0:0:
167,186,11821,2,0,L|224:131,1,70,0|0,0:0|0:0,0:0:0:0:
110,241,12153,2,0,L|55:292,1,70,2|0,0:0|0:0,0:0:0:0:
325,288,12484,5,2,0:0:0:0:
323,211,12650,1,0,0:0:0:0:
288,203,12732,1,0,0:0:0:0:
256,197,12815,1,2,0:0:0:0:
128,180,12982,1,2,0:0:0:0:
161,169,13064,1,0,0:0:0:0:
194,158,13147,1,0,1:0:0:0:
320,160,13313,5,0,0:0:0:0:
351,144,13395,1,0,0:0:0:0:
382,128,13478,1,0,1:0:0:0:
282,146,13644,1,0,0:0:0:0:
42,149,13810,6,0,P|16:190|70:264,1,140,6|2,0:0|3:0,0:0:0:0:
171,259,14307,2,0,L|78:143,1,140,2|2,0:0|3:0,0:0:0:0:
196,120,14805,2,0,L|250:183,1,70,0|0,0:0|0:0,0:0:0:0:
471,263,15136,6,0,P|506:201|456:143,1,140,2|0,0:0|3:0,0:0:0:0:
360,154,15633,2,0,L|444:275,1,140,2|0,3:2|0:0,0:0:0:0:
335,273,16131,2,0,L|283:208,1,70,2|2,3:2|3:2,0:0:0:0:
40,181,16462,6,0,P|64:128|160:128,1,140,2|2,3:2|3:2,0:0:0:0:
256,192,16959,2,0,L|192:256,1,70,0|2,0:0|3:0,0:0:0:0:
64,256,17457,1,2,0:0:0:0:
329,190,17788,5,0,0:2:0:0:
399,190,17953,1,2,0:0:0:0:
104,193,18451,1,2,0:0:0:0:
53,149,18616,1,0,3:0:0:0:
68,84,18782,1,2,3:0:0:0:
132,67,18948,1,2,3:0:0:0:
377,80,19114,6,0,L|471:191,1,140,4|0,0:0|1:2,0:0:0:0:
355,208,19611,2,0,L|261:99,1,140,2|0,0:0|0:0,0:0:0:0:
376,80,20109,2,0,L|431:145,1,70,2|0,1:2|0:0,0:0:0:0:
176,323,20440,6,0,L|74:204,1,140,2|0,0:0|1:0,0:0:0:0:
197,193,20937,2,0,L|296:308,1,140,2|0,0:0|0:0,0:0:0:0:
394,292,21435,2,0,L|341:230,1,70,2|0,1:2|0:0,0:0:0:0:
103,83,21766,6,0,P|41:122|41:214,1,140,2|0,0:0|1:0,0:0:0:0:
192,191,22263,2,0,P|250:238|250:327,1,140,2|0,0:0|0:0,0:0:0:0:
103,302,22761,2,0,L|49:247,1,70,2|0,1:2|0:0,0:0:0:0:
306,243,23092,6,0,L|444:200,1,140,2|2,0:0|0:0,0:0:0:0:
160,183,23755,2,0,L|20:121,1,140,2|2,0:0|1:2,0:0:0:0:
428,198,24418,6,0,L|530:198,2,70,4|2|0,0:0|0:0|1:0,0:0:0:0:
188,207,24915,2,0,P|120:196|162:82,1,210,0|0,0:0|1:0,0:0:0:0:
410,107,25744,6,0,L|321:127,1,70,0|0,1:0|0:0,0:0:0:0:
254,190,26075,1,0,0:0:0:0:
74,303,26241,2,0,L|145:282,1,70,0|0,1:0|0:0,0:0:0:0:
229,290,26573,1,0,0:0:0:0:
407,160,26738,2,0,L|334:193,1,70,0|0,1:0|0:0,0:0:0:0:
96,288,27070,6,0,P|46:238|181:153,1,280,2|0,0:0|0:0,0:0:0:0:
253,207,27899,2,0,L|156:208,2,70,0|0|0,0:0|0:0|0:0,0:0:0:0:
393,206,28396,1,0,1:0:0:0:
424,146,28561,1,0,0:0:0:0:
399,83,28727,1,0,1:0:0:0:
334,62,28893,1,2,0:0:0:0:
132,189,29059,5,2,3:0:0:0:
98,179,29141,1,0,3:0:0:0:
73,155,29224,1,0,3:0:0:0:
61,122,29307,1,0,3:0:0:0:
64,88,29390,1,2,3:0:0:0:
83,59,29473,1,0,0:0:0:0:
113,41,29556,1,0,0:0:0:0:
365,57,29722,6,0,L|431:123,1,70,6|0,0:0|0:0,0:0:0:0:
302,182,30053,2,0,L|288:96,1,70,2|0,3:0|0:0,0:0:0:0:
32,192,30385,2,0,L|64:96,1,70,2|0,0:0|0:0,0:0:0:0:
170,151,30716,2,0,L|118:233,1,70,2|0,3:0|0:0,0:0:0:0:
381,244,31048,6,0,L|439:185,1,70,2|0,0:0|0:0,0:0:0:0:
318,190,31379,2,0,L|288:256,1,70,2|0,3:0|0:0,0:0:0:0:
32,288,31711,2,0,L|64:224,1,70,2|0,0:0|0:0,0:0:0:0:
170,257,32042,2,0,L|134:321,1,70,0|0,0:0|0:0,0:0:0:0:
402,308,32374,6,0,L|438:246,1,70,4|0,0:0|0:0,0:0:0:0:
318,226,32705,2,0,L|277:149,1,70,0|0,0:0|0:0,0:0:0:0:
412,133,33037,1,2,3:0:0:0:
443,118,33119,1,0,0:0:0:0:
475,104,33202,1,0,0:0:0:0:
352,96,33368,2,0,L|283:30,1,70,0|2,0:0|0:0,0:0:0:0:
128,32,33700,6,0,L|32:32,1,70,0|0,0:0|3:0,0:0:0:0:
160,160,34031,2,0,L|256:160,2,70,2|0|2,3:0|0:0|3:0,0:0:0:0:
288,288,34528,2,0,L|192:288,1,70,0|2,0:0|3:0,0:0:0:0:
324,352,34860,1,0,0:0:0:0:
96,320,35026,6,0,L|46:258,1,70,6|0,0:0|0:0,0:0:0:0:
164,269,35357,2,0,L|196:173,1,70,2|0,3:0|0:0,0:0:0:0:
480,192,35689,2,0,L|456:266,1,70,2|0,0:0|0:0,0:0:0:0:
346,328,36020,2,0,L|338:245,1,70,2|0,3:0|0:0,0:0:0:0:
43,323,36352,6,0,L|64:224,1,70,2|0,0:0|0:0,0:0:0:0:
189,256,36683,2,0,L|124:201,1,70,2|0,3:0|0:0,0:0:0:0:
368,217,37015,2,0,L|422:148,1,70,2|0,0:0|0:0,0:0:0:0:
299,157,37346,2,0,L|245:95,1,70,2|0,3:0|0:0,0:0:0:0:
256,192,37678,12,0,39004,0:0:0:0:
192,193,39169,6,0,L|128:208,2,35,0|0|4,0:0|0:0|3:0,0:0:0:0:
280,186,39501,1,4,3:0:0:0:
406,190,39667,5,0,0:0:0:0:
436,205,39749,1,0,0:0:0:0:
455,234,39832,1,0,0:0:0:0:
457,269,39915,1,0,0:0:0:0:
440,299,39998,1,0,3:0:0:0:
411,317,40081,1,0,0:0:0:0:
376,318,40164,1,0,0:0:0:0:
130,323,40330,6,0,L|61:265,1,70,4|0,0:0|0:0,0:0:0:0:
189,251,40661,2,0,L|262:308,1,70,0|2,1:0|0:0,0:0:0:0:
357,284,40993,2,0,L|296:233,1,70,0|0,0:0|0:0,0:0:0:0:
192,224,41324,2,0,L|160:288,1,70,2|0,1:2|0:0,0:0:0:0:
352,160,41656,6,0,L|384:224,1,70,2|2,0:0|0:0,0:0:0:0:
288,192,41987,1,0,0:0:0:0:
192,192,42153,1,0,0:0:0:0:
17,178,42319,5,2,0:0:0:0:
12,212,42401,1,0,0:0:0:0:
19,246,42484,1,0,0:0:0:0:
37,276,42567,1,0,0:0:0:0:
64,299,42650,1,0,1:2:0:0:
96,311,42733,1,0,0:0:0:0:
131,312,42816,1,0,0:0:0:0:
383,314,42982,6,0,L|441:240,1,70,2|0,0:0|0:0,0:0:0:0:
313,237,43313,2,0,L|261:176,1,70,0|0,1:2|0:0,0:0:0:0:
149,185,43644,2,0,L|192:116,1,70,2|0,0:0|0:0,0:0:0:0:
313,353,43976,2,0,L|223:321,1,70,2|0,1:2|0:0,0:0:0:0:
480,192,44307,6,0,L|499:122,1,70,2|2,0:0|0:0,0:0:0:0:
339,104,44639,1,0,0:0:0:0:
304,103,44721,1,0,0:0:0:0:
269,102,44804,1,0,0:0:0:0:
125,199,44970,6,0,L|206:200,1,70,2|0,0:0|0:0,0:0:0:0:
314,271,45302,1,0,1:0:0:0:
279,271,45384,1,0,0:0:0:0:
244,272,45467,1,0,0:0:0:0:
489,207,45633,5,4,3:2:0:0:
