osu file format v14

[General]
AudioFilename: audio.mp3
AudioLeadIn: 0
PreviewTime: 10529
Countdown: 0
SampleSet: Soft
StackLeniency: 0.7
Mode: 0
LetterboxInBreaks: 0
WidescreenStoryboard: 0

[Editor]
Bookmarks: 47502,55286,89016
DistanceSpacing: 1
BeatDivisor: 4
GridSize: 8
TimelineZoom: 1

[Metadata]
Title:Sentou! Champion
TitleUnicode:戦闘!チャンピオン
Artist:Junichi Masuda
ArtistUnicode:増田順一
Creator:Sotarks
Version:Challenge!
Source:ポケットモンスター X・Y
Tags:akitoshi corinn hydrocannon13 pocket monster carne pokemon pokémon x y league elite 4 four kalos xerneas yveltal grand duchess game freak company shota kageyama xy diantha
BeatmapID:1121245
BeatmapSetID:528048

[Difficulty]
HPDrainRate:6.2
CircleSize:4.2
OverallDifficulty:8.8
ApproachRate:9.2
SliderMultiplier:1.82
SliderTickRate:1

[Events]
//Background and Video events
0,0,"BG.jpg",0,0
//Break Periods
2,47702,54716
//Storyboard Layer 0 (Background)
//Storyboard Layer 1 (Fail)
//Storyboard Layer 2 (Pass)
//Storyboard Layer 3 (Foreground)
//Storyboard Sound Samples

[TimingPoints]
800,324.324324324324,4,3,0,52,1,0
800,-98.0392156862745,4,3,0,52,0,0
6637,-89.2857142857143,4,3,0,52,0,0
8583,-98.0392156862745,4,3,0,52,0,0
11178,-89.2857142857143,4,3,22,62,0,0
12070,-89.2857142857143,4,3,22,5,0,0
12151,-89.2857142857143,4,3,22,62,0,0
13043,-89.2857142857143,4,3,22,5,0,0
13124,-89.2857142857143,4,3,22,42,0,0
13772,-89.2857142857143,4,3,22,62,0,0
14664,-89.2857142857143,4,3,22,5,0,0
14745,-89.2857142857143,4,3,22,62,0,0
15637,-89.2857142857143,4,3,22,5,0,0
15718,-89.2857142857143,4,3,22,42,0,0
16367,-89.2857142857143,4,3,22,62,0,0
17259,-89.2857142857143,4,3,22,5,0,0
17340,-89.2857142857143,4,3,22,62,0,0
18232,-89.2857142857143,4,3,22,5,0,0
18313,-89.2857142857143,4,3,22,62,0,0
19854,-89.2857142857143,4,3,22,5,0,0
19935,-89.2857142857143,4,3,22,62,0,0
20259,-138.888888888889,4,3,22,62,0,0
20583,-108.695652173913,4,3,22,62,0,0
21556,-121.951219512195,4,2,22,62,0,0
26745,-81.967213114754,4,2,2,82,0,1
27556,-81.967213114754,4,2,2,82,0,0
27718,-81.967213114754,4,2,2,82,0,1
28529,-81.967213114754,4,2,2,82,0,0
28691,-81.967213114754,4,2,2,82,0,1
29178,-81.967213114754,4,2,2,82,0,0
29340,-81.967213114754,4,2,2,82,0,1
30151,-81.967213114754,4,2,2,82,0,0
30313,-81.967213114754,4,2,2,82,0,1
31124,-81.967213114754,4,2,2,82,0,0
31286,-81.967213114754,4,2,2,82,0,1
31772,-81.967213114754,4,2,2,82,0,0
31935,-121.951219512195,4,2,22,62,0,0
37124,-81.967213114754,4,2,2,82,0,1
37935,-81.967213114754,4,2,2,82,0,0
38097,-81.967213114754,4,2,2,82,0,1
38908,-81.967213114754,4,2,2,82,0,0
39070,-81.967213114754,4,2,2,82,0,1
39556,-81.967213114754,4,2,2,82,0,0
39718,-81.967213114754,4,2,2,82,0,1
40529,-81.967213114754,4,2,2,82,0,0
40691,-81.967213114754,4,2,2,82,0,1
41502,-121.951219512195,4,2,2,82,0,0
41664,-81.967213114754,4,2,2,82,0,1
42151,-81.967213114754,4,2,2,82,0,0
42313,-121.951219512195,4,2,22,62,0,0
57232,-121.951219512195,4,3,22,62,0,0
57881,-121.951219512195,4,2,22,62,0,0
68259,-108.695652173913,4,2,22,62,0,0
78637,-98.0392156862745,4,2,22,72,0,0
89016,-161.290322580645,4,2,22,52,0,0
90313,-161.290322580645,4,2,22,42,0,0
90962,-161.290322580645,4,2,22,32,0,0
94205,-161.290322580645,4,2,22,22,0,0

[Colours]
Combo1 : 167,111,217
Combo2 : 173,238,157
Combo3 : 66,96,217
Combo4 : 236,194,132

[HitObjects]
341,66,800,6,0,L|365:261,2,185.640001133057,4|8|0,0:0|0:0|0:0,0:0:0:0:
428,191,1610,1,0,0:0:0:0:
272,105,1772,2,0,L|286:213,1,92.8200005665283,8|0,0:0|0:0,0:0:0:0:
211,276,2016,1,0,0:0:0:0:
192,249,2097,6,0,L|203:156,1,92.8200005665283,4|0,0:0|0:0,0:0:0:0:
448,206,2421,2,0,P|377:238|274:182,1,185.640001133057,8|0,0:0|0:0,0:0:0:0:
373,164,2908,1,4,0:0:0:0:
403,307,3070,2,0,P|350:310|297:291,1,92.8200005665283,8|0,0:0|0:0,0:0:0:0:
311,95,3394,6,0,B|365:74|365:74|513:133,2,185.640001133057,4|8|0,0:0|0:0|0:0,0:0:0:0:
439,18,4205,1,4,0:0:0:0:
360,160,4367,2,0,B|312:175|312:175|251:159,1,92.8200005665283,8|0,0:0|0:0,0:0:0:0:
200,91,4610,1,0,0:0:0:0:
222,67,4691,6,0,B|270:52|270:52|331:68,1,92.8200005665283,4|0,0:0|0:0,0:0:0:0:
315,256,5016,2,0,B|305:300|305:300|267:151,1,185.640001133057,8|0,0:0|0:0,0:0:0:0:
384,293,5502,1,0,0:0:0:0:
223,268,5664,2,0,L|198:168,1,92.8200005665283,8|0,0:0|0:0,0:0:0:0:
355,102,5989,5,4,0:0:0:0:
320,248,6151,1,0,0:0:0:0:
240,9,6313,5,8,0:0:0:0:
275,155,6475,1,0,0:0:0:0:
400,81,6637,6,0,B|427:81|427:81|341:105,1,101.920001244141,6|0,0:0|0:0,0:0:0:0:
229,134,6962,2,0,B|202:134|202:134|288:158,1,101.920001244141,10|0,0:0|0:0,0:0:0:0:
405,236,7286,6,0,B|396:159|396:159|378:186,1,101.920001244141,6|0,0:0|0:0,0:0:0:0:
221,284,7610,2,0,B|230:207|230:207|243:227,1,101.920001244141,10|0,0:0|0:0,0:0:0:0:
482,159,7935,6,0,L|365:182,1,101.920001244141,6|4,0:0|0:0,0:0:0:0:
143,207,8259,2,0,L|260:230,1,101.920001244141,10|0,0:0|0:0,0:0:0:0:
412,102,8583,5,4,0:0:0:0:
222,149,8745,1,0,0:0:0:0:
443,248,8908,5,8,0:0:0:0:
243,226,9070,1,0,0:0:0:0:
479,168,9232,5,6,0:0:0:0:
296,170,9394,1,4,0:0:0:0:
398,11,9556,2,0,B|415:68|415:68|406:145,1,92.8200005665283,10|0,0:0|0:0,0:0:0:0:
248,227,9881,5,6,3:0:0:0:
224,192,9962,1,0,2:0:0:0:
224,151,10043,1,0,2:0:0:0:
246,117,10124,1,0,2:0:0:0:
283,98,10205,1,8,3:0:0:0:
324,104,10286,1,0,2:0:0:0:
353,133,10367,1,0,2:0:0:0:
386,159,10448,1,0,2:0:0:0:
423,174,10529,5,4,3:0:0:0:
292,13,10691,1,8,3:0:0:0:
293,171,10854,1,8,3:0:0:0:
428,14,11016,1,8,3:0:0:0:
367,259,11178,5,6,0:0:0:0:
364,66,11340,1,2,0:0:0:0:
252,227,11502,1,10,0:0:0:0:
481,235,11664,1,2,0:0:0:0:
209,158,11827,2,0,B|275:124|299:198|391:133,1,152.880001866211,4|0,0:0|0:0,0:0:0:0:
388,125,12151,5,14,0:0:0:0:
146,198,12313,1,2,0:0:0:0:
319,88,12475,1,2,0:0:0:0:
245,243,12637,1,2,0:0:0:0:
94,83,12799,2,0,P|76:163|75:254,1,152.880001866211,12|0,0:0|0:0,0:0:0:0:
81,273,13124,5,6,0:0:0:0:
149,172,13286,1,2,0:0:0:0:
205,273,13448,1,10,0:0:0:0:
274,171,13610,1,2,0:0:0:0:
35,330,13772,5,6,0:0:0:0:
185,108,13935,1,2,0:0:0:0:
152,335,14097,1,10,0:0:0:0:
320,108,14259,1,2,0:0:0:0:
62,225,14421,2,0,P|184:214|263:218,1,152.880001866211,4|0,0:0|0:0,0:0:0:0:
245,234,14745,5,14,0:0:0:0:
144,139,14908,1,2,0:0:0:0:
97,314,15070,1,2,0:0:0:0:
230,129,15232,1,2,0:0:0:0:
306,331,15394,2,0,L|326:150,1,152.880001866211,4|0,0:0|0:0,0:0:0:0:
326,137,15718,5,6,0:0:0:0:
303,360,15881,1,2,0:0:0:0:
247,213,16043,1,10,0:0:0:0:
381,277,16205,1,2,0:0:0:0:
186,282,16367,5,6,0:0:0:0:
437,211,16529,1,2,0:0:0:0:
180,171,16691,1,10,0:0:0:0:
450,318,16854,1,2,0:0:0:0:
318,99,17016,2,0,B|324:151|324:151|312:201|312:201|321:282,1,152.880001866211,4|0,0:0|0:0,0:0:0:0:
331,289,17340,5,10,0:0:0:0:
252,143,17502,1,2,0:0:0:0:
380,207,17664,1,2,0:0:0:0:
221,242,17827,1,2,0:0:0:0:
461,117,17989,2,0,P|382:120|318:163,1,152.880001866211,12|0,0:0|0:0,0:0:0:0:
306,194,18313,5,6,0:0:0:0:
244,109,18475,1,2,0:0:0:0:
165,166,18637,1,10,0:0:0:0:
226,251,18799,1,2,0:0:0:0:
378,209,18962,5,6,0:0:0:0:
256,35,19124,1,2,0:0:0:0:
93,148,19286,1,10,0:0:0:0:
215,324,19448,1,2,0:0:0:0:
422,124,19610,2,0,P|352:120|251:128,1,152.880001866211,4|0,0:0|0:0,0:0:0:0:
239,154,19935,5,14,0:0:0:0:
350,38,20097,1,2,0:0:0:0:
332,239,20259,1,2,0:0:0:0:
261,55,20421,1,2,0:0:0:0:
246,256,20583,6,0,P|239:220|226:189,1,41.8599985947876,12|0,0:0|0:0,0:0:0:0:
178,66,20745,2,0,P|185:100|195:126,1,41.8599985947876
328,187,20908,5,4,0:0:0:0:
287,187,20989,1,4,0:0:0:0:
245,188,21070,1,4,0:0:0:0:
203,189,21151,1,4,0:0:0:0:
161,190,21232,5,4,0:0:0:0:
119,191,21313,1,4,0:0:0:0:
156,200,21394,1,4,0:0:0:0:
197,208,21475,1,4,0:0:0:0:
238,216,21556,6,0,P|239:157|270:57,2,149.240002277222,4|8|0,1:0|0:0|1:0,0:0:0:0:
315,126,22367,1,0,0:0:0:0:
170,142,22529,2,0,P|165:192|170:231,1,74.6200011386109,10|0,0:0|0:0,0:0:0:0:
244,171,22854,5,0,1:0:0:0:
91,221,23016,2,0,P|110:267|132:299,1,74.6200011386109,2|8,0:0|0:0,0:0:0:0:
314,193,23340,1,0,0:0:0:0:
314,193,23502,2,0,L|147:219,1,149.240002277222,0|10,1:0|0:0,0:0:0:0:
269,125,23989,1,0,0:0:0:0:
366,255,24151,5,0,1:0:0:0:
221,276,24313,2,0,L|310:262,1,74.6200011386109,2|8,0:0|0:0,0:0:0:0:
145,289,24637,1,2,0:0:0:0:
243,194,24799,1,0,1:0:0:0:
292,341,24962,1,0,0:0:0:0:
166,203,25124,1,8,0:0:0:0:
106,354,25286,1,0,3:0:0:0:
106,354,25367,1,0,3:0:0:0:
106,354,25448,5,0,1:0:0:0:
219,273,25610,1,0,0:0:0:0:
57,291,25772,2,0,P|123:280|157:287,1,74.6200011386109,8|0,0:0|0:0,0:0:0:0:
283,358,26097,2,0,L|289:302,1,37.3100005693054,0|0,3:0|3:0,3:0:0:0:
278,222,26259,2,0,L|272:166,1,37.3100005693054,0|0,3:0|3:0,3:0:0:0:
356,86,26421,5,8,0:0:0:0:
354,123,26502,1,8,0:0:0:0:
352,160,26583,1,8,0:0:0:0:
351,197,26664,1,8,0:0:0:0:
349,235,26745,5,4,1:0:0:0:
360,14,26908,1,0,0:0:0:0:
426,147,27070,1,8,0:0:0:0:
207,150,27232,2,0,B|277:144|277:144|353:160|353:160|440:145,1,222.039990852234,4|0,1:0|1:0,0:0:0:0:
184,51,27718,5,4,1:0:0:0:
158,236,27881,1,0,0:0:0:0:
357,90,28043,1,8,0:0:0:0:
105,136,28205,2,0,P|203:150|262:274,1,222.039990852234,4|0,1:0|1:0,0:0:0:0:
272,46,28691,5,0,1:0:0:0:
241,319,28854,1,0,1:0:0:0:
345,31,29016,2,0,P|328:99|305:134,1,111.019995426117,12|0,0:0|0:0,0:0:0:0:
97,245,29340,5,4,1:0:0:0:
295,218,29502,1,0,0:0:0:0:
164,40,29664,1,8,0:0:0:0:
229,270,29827,2,0,B|197:216|235:159|235:159|263:104|228:23,1,222.039990852234,4|0,1:0|1:0,0:0:0:0:
299,225,30313,5,4,1:0:0:0:
167,115,30475,1,0,0:0:0:0:
427,169,30637,1,8,0:0:0:0:
199,203,30799,2,0,B|250:154|250:154|415:139,1,222.039990852234,4|0,1:0|0:0,0:0:0:0:
115,176,31286,5,4,1:0:0:0:
373,223,31448,1,0,1:0:0:0:
228,53,31610,2,0,L|250:179,1,111.019995426117,8|0,0:0|0:0,0:0:0:0:
377,282,31935,6,0,B|373:222|373:222|425:131,2,149.240002277222,4|8|0,1:0|0:0|1:0,0:0:0:0:
447,241,32746,1,0,0:0:0:0:
323,165,32908,2,0,B|301:210|301:210|306:249,1,74.6200011386109,10|0,0:0|0:0,0:0:0:0:
384,291,33233,5,0,1:0:0:0:
233,237,33394,2,0,B|229:261|229:261|251:306,1,74.6200011386109,0|8,0:0|0:0,0:0:0:0:
451,204,33719,1,0,0:0:0:0:
451,204,33881,2,0,B|383:194|381:257|284:230,1,149.240002277222,0|10,1:0|0:0,0:0:0:0:
442,277,34368,1,0,0:0:0:0:
334,167,34529,5,0,1:0:0:0:
442,277,34691,2,0,P|448:242|449:176,1,74.6200011386109,2|8,0:0|0:0,0:0:0:0:
376,93,35015,1,2,0:0:0:0:
365,240,35177,1,0,1:0:0:0:
457,129,35340,1,0,0:0:0:0:
293,91,35502,1,8,0:0:0:0:
376,165,35664,1,0,3:0:0:0:
376,165,35745,1,0,3:0:0:0:
376,165,35827,5,0,1:0:0:0:
448,40,35989,1,0,0:0:0:0:
376,165,36151,2,0,P|368:128|368:91,1,74.6200011386109,8|0,0:0|0:0,0:0:0:0:
443,276,36476,2,0,P|447:253|449:220,1,37.3100005693054,0|0,3:0|3:0,3:0:0:0:
452,163,36638,2,0,P|449:137|446:107,1,37.3100005693054,0|0,3:0|3:0,3:0:0:0:
333,187,36799,5,8,0:0:0:0:
319,219,36880,1,8,0:0:0:0:
342,247,36961,1,8,0:0:0:0:
376,240,37042,1,8,0:0:0:0:
387,206,37123,5,4,1:0:0:0:
284,53,37286,1,0,0:0:0:0:
246,281,37448,1,8,0:0:0:0:
148,120,37610,2,0,B|199:106|237:111|280:132|280:132|323:117|323:117|377:126,1,222.039990852234,4|0,1:0|1:0,0:0:0:0:
213,185,38097,5,4,1:0:0:0:
387,302,38260,1,0,0:0:0:0:
354,55,38422,1,8,0:0:0:0:
204,261,38583,2,0,B|264:250|264:250|369:115,1,222.039990852234,4|0,1:0|1:0,0:0:0:0:
237,347,39070,5,0,1:0:0:0:
268,74,39233,1,0,1:0:0:0:
164,362,39395,2,0,P|181:294|204:259,1,111.019995426117,12|0,0:0|0:0,0:0:0:0:
347,67,39718,5,4,1:0:0:0:
152,96,39880,1,0,0:0:0:0:
276,272,40042,1,8,0:0:0:0:
213,46,40205,2,0,B|246:101|207:158|207:158|179:212|205:292,1,222.039990852234,4|0,1:0|1:0,0:0:0:0:
152,96,40691,5,4,1:0:0:0:
272,204,40853,1,0,0:0:0:0:
24,152,41015,1,8,0:0:0:0:
236,110,41177,2,0,B|205:163|205:163|159:189|95:198|21:151,1,222.039990852234,4|0,1:0|0:0,0:0:0:0:
345,55,41664,5,4,1:0:0:0:
151,105,41826,1,0,1:0:0:0:
347,247,41988,2,0,B|350:208|350:208|325:121,1,111.019995426117,8|0,0:0|0:0,0:0:0:0:
328,331,42313,6,0,B|384:323|384:323|417:285|439:222,2,149.240002277222,4|8|0,1:0|0:0|1:0,0:0:0:0:
202,222,43124,1,0,0:0:0:0:
348,255,43286,2,0,B|313:226|269:219,1,74.6200011386109,10|0,0:0|0:0,0:0:0:0:
201,150,43611,5,0,1:0:0:0:
377,183,43772,2,0,B|360:164|309:149,1,74.6200011386109,0|8,0:0|0:0,0:0:0:0:
303,10,44097,1,0,0:0:0:0:
303,10,44259,2,0,B|295:57|295:57|311:101|311:101|295:181,1,149.240002277222,0|10,1:0|0:0,0:0:0:0:
373,41,44746,1,0,0:0:0:0:
236,115,44908,5,0,1:0:0:0:
369,195,45070,2,0,B|386:95,1,74.6200011386109,2|8,0:0|0:0,0:0:0:0:
221,106,45394,1,2,0:0:0:0:
365,214,45556,1,0,1:0:0:0:
309,81,45719,1,0,0:0:0:0:
250,265,45881,1,8,0:0:0:0:
288,158,46043,1,0,3:0:0:0:
288,158,46124,1,0,3:0:0:0:
288,158,46206,5,0,1:0:0:0:
333,297,46368,1,0,0:0:0:0:
385,136,46530,2,0,P|392:172|392:209,1,74.6200011386109,8|0,0:0|0:0,0:0:0:0:
218,201,46854,6,0,L|213:254,1,37.3100005693054,0|0,3:0|3:0,3:0:0:0:
307,167,47016,2,0,L|312:220,1,37.3100005693054,0|0,3:0|3:0,3:0:0:0:
226,101,47178,1,4,1:1:0:0:
340,43,47340,1,0,1:1:0:0:
283,279,47502,5,4,0:0:0:0:
256,192,55286,12,4,56583,0:0:0:0:
307,239,57232,5,4,0:0:0:0:
333,89,57394,1,8,0:0:0:0:
369,332,57556,1,8,0:0:0:0:
343,158,57718,1,8,0:0:0:0:
159,254,57881,6,0,P|219:240|315:240,1,149.240002277222,4|8,1:0|0:0,0:0:0:0:
226,317,58367,1,0,0:0:0:0:
191,171,58529,2,0,P|182:123|177:78,1,74.6200011386109,0|0,1:0|1:0,0:0:0:0:
154,258,58854,1,8,0:0:0:0:
267,194,59016,1,0,3:0:0:0:
267,194,59097,1,0,3:0:0:0:
267,194,59178,5,0,1:0:0:0:
116,142,59340,1,0,3:0:0:0:
323,128,59502,2,0,P|272:116|237:111,1,74.6200011386109,8|0,0:0|0:0,0:0:0:0:
92,226,59827,2,0,P|128:219|164:210,1,74.6200011386109,0|0,1:0|1:0,0:0:0:0:
203,55,60151,1,8,0:0:0:0:
240,188,60313,1,0,3:0:0:0:
240,188,60394,1,0,3:0:0:0:
240,188,60475,5,0,1:0:0:0:
120,129,60637,1,0,3:0:0:0:
257,102,60799,1,8,0:0:0:0:
168,238,60962,1,0,3:0:0:0:
175,57,61124,2,0,P|185:104|238:201,1,149.240002277222,0|8,1:0|0:0,0:0:0:0:
255,76,61610,2,0,P|243:42|239:25,1,37.3100005693054,0|0,3:0|3:0,3:0:0:0:
289,141,61772,6,0,P|314:183|340:207,1,74.6200011386109,0|0,1:0|3:0,0:0:0:0:
311,29,62097,2,0,P|336:56|354:88,1,74.6200011386109,8|0,0:0|0:0,0:0:0:0:
332,200,62421,1,0,1:0:0:0:
289,141,62583,1,0,3:0:0:0:
311,29,62745,1,8,0:0:0:0:
354,88,62908,1,0,3:0:0:0:
225,268,63070,6,0,L|209:107,1,149.240002277222,4|8,1:0|0:0,0:0:0:0:
148,228,63556,1,0,0:0:0:0:
289,186,63718,2,0,L|278:95,1,74.6200011386109,0|0,1:0|1:0,0:0:0:0:
223,279,64043,1,8,0:0:0:0:
150,154,64205,1,0,3:0:0:0:
150,154,64286,1,0,3:0:0:0:
150,154,64367,5,0,1:0:0:0:
294,189,64529,1,0,3:0:0:0:
130,228,64691,2,0,P|188:220|222:208,1,74.6200011386109,8|0,0:0|0:0,0:0:0:0:
323,113,65016,2,0,P|265:121|231:133,1,74.6200011386109,0|0,1:0|1:0,0:0:0:0:
125,241,65340,2,0,P|183:233|217:221,1,74.6200011386109,8|0,0:0|0:0,0:0:0:0:
85,141,65664,5,0,1:0:0:0:
57,229,65827,1,0,3:0:0:0:
165,65,65989,1,8,0:0:0:0:
193,153,66151,1,0,3:0:0:0:
44,34,66313,2,0,L|-5:192,1,149.240002277222,0|8,1:0|0:0,0:0:0:0:
181,78,66799,1,0,3:0:0:0:
181,78,66881,1,0,3:0:0:0:
182,77,66962,6,0,P|124:90|86:120,1,74.6200011386109,0|0,1:0|0:0,0:0:0:0:
212,224,67286,2,0,P|270:211|308:181,1,74.6200011386109,8|0,0:0|0:0,0:0:0:0:
117,181,67610,1,0,1:0:0:0:
235,135,67772,1,0,3:0:0:0:
95,269,67935,1,8,0:0:0:0:
219,219,68097,1,0,3:0:0:0:
12,117,68259,6,0,P|82:98|170:131,2,167.439994379151,4|10|0,1:0|0:0|1:0,0:0:0:0:
96,27,69070,1,0,1:0:0:0:
88,173,69232,2,0,P|94:227|110:266,1,83.7199971895753,8|0,0:0|3:0,0:0:0:0:
173,303,69475,1,0,3:0:0:0:
193,280,69556,6,0,P|203:244|205:193,1,83.7199971895753,0|0,1:0|3:0,0:0:0:0:
76,160,69881,2,0,P|82:214|100:258,1,83.7199971895753,8|0,0:0|3:0,0:0:0:0:
286,317,70205,2,0,L|295:213,1,83.7199971895753,0|0,1:0|0:0,1:0:0:0:
148,53,70529,2,0,L|155:136,1,83.7199971895753,8|0,0:0|0:0,1:0:0:0:
365,182,70854,6,0,P|323:153|209:203,1,167.439994379151,0|8,1:0|0:0,0:0:0:0:
372,94,71340,1,0,0:0:0:0:
183,121,71502,2,0,P|235:89|268:80,1,83.7199971895753,0|0,1:0|1:0,0:0:0:0:
408,120,71827,2,0,P|356:88|323:79,1,83.7199971895753,8|0,0:0|3:0,0:0:0:0:
291,172,72070,1,0,3:0:0:0:
284,198,72151,6,0,L|291:287,1,83.7199971895753,0|0,1:0|0:0,0:0:0:0:
183,158,72475,2,0,L|189:74,1,83.7199971895753,8|0,0:0|0:0,0:0:0:0:
373,273,72799,5,0,1:0:0:0:
213,285,72962,1,0,3:0:0:0:
268,69,73124,1,8,0:0:0:0:
108,81,73287,1,0,3:0:0:0:
371,169,73448,6,0,P|312:179|194:166,2,167.439994379151,4|8|0,1:0|0:0|1:0,0:0:0:0:
258,91,74259,1,0,1:0:0:0:
219,253,74421,2,0,P|186:297|147:330,1,83.7199971895753,8|0,0:0|0:0,0:0:0:0:
152,108,74745,5,0,1:0:0:0:
134,235,74908,1,0,3:0:0:0:
269,170,75070,1,8,0:0:0:0:
107,115,75232,1,0,3:0:0:0:
291,37,75394,5,0,1:0:0:0:
240,208,75556,1,0,3:0:0:0:
185,1,75718,1,8,0:0:0:0:
342,119,75881,1,0,3:0:0:0:
84,141,76043,6,0,B|142:127|142:127|200:129|200:129|283:107,1,167.439994379151,4|8,1:0|0:0,0:0:0:0:
142,212,76529,1,0,0:0:0:0:
193,55,76691,2,0,L|283:32,1,83.7199971895753,0|0,1:0|1:0,0:0:0:0:
311,179,77016,2,0,L|229:199,1,83.7199971895753,8|0,0:0|0:0,0:0:0:0:
367,100,77340,6,0,B|399:136|399:136|403:204|371:280,1,167.439994379151,0|8,1:0|0:0,0:0:0:0:
319,174,77827,1,0,0:0:0:0:
469,56,77989,5,4,3:0:0:0:
362,325,78151,1,8,3:0:0:0:
364,81,78313,1,8,3:0:0:0:
257,356,78475,1,8,3:0:0:0:
480,179,78637,6,0,B|426:169|426:169|371:171,1,92.8200005665283,4|0,1:0|0:0,0:0:0:0:
197,257,78962,1,8,0:0:0:0:
420,244,79124,1,0,0:0:0:0:
216,144,79286,2,0,L|244:343,1,185.640001133057,0|8,1:0|0:0,0:0:0:0:
300,178,79772,1,0,3:0:0:0:
300,144,79854,1,0,3:0:0:0:
299,114,79935,5,0,1:0:0:0:
142,174,80097,1,0,1:0:0:0:
379,192,80259,2,0,L|375:65,1,92.8200005665283,8|0,0:0|0:0,0:0:0:0:
205,87,80583,1,0,1:0:0:0:
224,244,80745,1,0,0:0:0:0:
137,144,80908,1,8,0:0:0:0:
118,301,81070,1,0,0:0:0:0:
213,41,81232,5,4,1:0:0:0:
234,288,81394,1,0,0:0:0:0:
140,117,81556,1,8,0:0:0:0:
110,326,81718,1,0,0:0:0:0:
290,203,81881,2,0,B|212:172|177:246|95:195,1,185.640001133057,0|8,1:0|0:0,0:0:0:0:
268,118,82367,1,0,3:0:0:0:
309,120,82448,1,0,3:0:0:0:
345,140,82529,5,0,1:0:0:0:
157,136,82691,1,0,1:0:0:0:
407,234,82854,2,0,P|338:228|291:252,1,92.8200005665283,8|0,0:0|0:0,0:0:0:0:
351,51,83178,2,0,L|354:177,2,92.8200005665283,0|0|8,1:0|0:0|0:0,0:0:0:0:
434,90,83664,1,0,0:0:0:0:
285,194,83827,5,4,1:0:0:0:
440,183,83989,1,0,0:0:0:0:
276,101,84151,1,8,0:0:0:0:
363,236,84313,1,0,0:0:0:0:
351,51,84475,2,0,L|364:246,1,185.640001133057,0|8,1:0|0:0,0:0:0:0:
276,101,84962,1,0,3:0:0:0:
235,92,85043,1,0,3:0:0:0:
193,88,85124,6,0,L|87:98,1,92.8200005665283,0|0,1:0|0:0,0:0:0:0:
148,264,85448,2,0,B|177:217|177:217|196:66,1,185.640001133057,8|0,0:0|1:0,0:0:0:0:
98,195,85935,1,0,0:0:0:0:
285,152,86097,1,8,0:0:0:0:
137,275,86259,1,0,0:0:0:0:
359,115,86421,5,4,1:0:0:0:
85,201,86583,1,0,0:0:0:0:
275,157,86745,1,8,0:0:0:0:
120,288,86908,1,0,0:0:0:0:
224,93,87070,2,0,B|272:74|272:74|358:93|388:154,1,185.640001133057,0|8,1:0|0:0,0:0:0:0:
289,240,87556,1,0,3:0:0:0:
280,199,87637,1,0,3:0:0:0:
275,157,87718,5,0,1:0:0:0:
386,35,87881,1,0,0:0:0:0:
428,220,88043,6,0,P|370:210|357:207,1,46.4100002832642,4|0,3:0|3:0,3:0:0:0:
233,103,88205,2,0,P|291:113|304:116,1,46.4100002832642,0|0,3:0|3:0,3:0:0:0:
220,217,88367,6,0,P|278:207|291:204,1,46.4100002832642,4|0,3:0|3:0,3:0:0:0:
415,100,88529,2,0,P|357:110|344:113,1,46.4100002832642,8|0,3:0|3:0,3:0:0:0:
320,306,88691,6,0,L|325:258,1,46.4100002832642,8|0,3:0|3:0,3:0:0:0:
317,2,88854,2,0,L|321:48,1,46.4100002832642,8|0,3:0|3:0,3:0:0:0:
326,167,89016,6,0,L|207:172,1,112.839995523316,6|0,0:0|3:0,0:0:0:0:
77,273,89502,1,2,0:0:0:0:
156,308,89664,2,0,L|282:300,1,112.839995523316,0|0,1:0|3:0,0:0:0:0:
408,234,90151,1,0,0:0:0:0:
408,234,90232,1,0,0:0:0:0:
408,234,90313,6,0,L|332:226,1,56.4199977616578,2|2,0:0|0:0,0:0:0:0:
464,81,90637,2,0,P|479:144|487:213,1,112.839995523316,0|2,3:0|0:0,0:0:0:0:
300,94,91124,1,2,0:0:0:0:
366,32,91286,2,0,P|379:78|382:107,1,56.4199977616578,0|0,3:0|0:0,0:0:0:0:
277,270,91610,5,6,0:0:0:0:
256,192,91691,12,0,94205,0:0:0:0:
