osu file format v14

[General]
AudioFilename: audio.mp3
AudioLeadIn: 0
PreviewTime: 29282
Countdown: 0
SampleSet: Soft
StackLeniency: 0.7
Mode: 0
LetterboxInBreaks: 0
WidescreenStoryboard: 1

[Editor]
Bookmarks: 206,13129,27898,29744,40821,42667,57436,59282,66667
DistanceSpacing: 1.1
BeatDivisor: 2
GridSize: 32
TimelineZoom: 1

[Metadata]
Title:Ryuu no Ana
TitleUnicode:りゅうのあな
Artist:Junichi Masuda
ArtistUnicode:増田順一
Creator:Imakuri
Version:Normal
Source:ポケットモンスター ハートゴールド・ソウルシルバー
Tags:pokemon OST blackthorn city johto heart gold soul silver game freak dragon's den
BeatmapID:1011635
BeatmapSetID:473289

[Difficulty]
HPDrainRate:4
CircleSize:3
OverallDifficulty:5
ApproachRate:4
SliderMultiplier:1.3
SliderTickRate:1

[Events]
//Background and Video events
0,0,"bg.png",0,0
//Break Periods
//Storyboard Layer 0 (Background)
//Storyboard Layer 1 (Fail)
//Storyboard Layer 2 (Pass)
//Storyboard Layer 3 (Foreground)
//Storyboard Sound Samples

[TimingPoints]
206,461.538461538462,4,2,0,100,1,0
29744,-100,4,2,0,100,0,1
40821,-100,4,2,0,100,0,0
59282,-100,4,2,0,90,0,0
60206,-100,4,2,0,70,0,0
61129,-100,4,2,0,55,0,0
62052,-100,4,2,0,40,0,0
62975,-100,4,2,0,30,0,0
63898,-100,4,2,0,20,0,0
66667,-100,4,2,0,9,0,0

[Colours]
Combo1 : 128,128,192
Combo2 : 0,128,192
Combo3 : 255,62,62
Combo4 : 255,128,64

[HitObjects]
160,105,206,6,0,P|93:83|24:118,2,130,8|0|2,0:0|0:0|0:0,0:0:0:0:
254,195,1590,1,0,0:0:0:0:
348,285,2052,2,0,P|412:305|485:270,2,130,8|0|2,0:0|0:0|0:0,0:0:0:0:
408,172,3436,1,0,0:0:0:0:
505,86,3898,6,0,P|443:47|370:44,1,130,8|0,0:0|0:0,0:0:0:0:
303,140,4821,2,0,P|235:165|180:137,1,130,2|0,0:0|0:0,0:0:0:0:
58,128,5744,2,0,P|28:192|145:328,1,260,8|2,0:0|0:0,0:0:0:0:
256,293,7129,1,0,0:0:0:0:
383,327,7590,6,0,P|456:287|444:112,1,260,8|2,0:0|0:0,0:0:0:0:
340,74,8975,1,0,0:0:0:0:
257,174,9436,1,8,0:0:0:0:
175,73,9898,1,0,0:0:0:0:
175,204,10359,2,0,P|228:253|308:245,1,130,2|0,0:0|0:0,0:0:0:0:
401,200,11282,5,4,0:0:0:0:
256,192,11513,12,4,13129,0:0:0:0:
79,60,14052,6,0,L|86:212,1,130,2|0,0:0|0:0,0:0:0:0:
208,147,14975,2,0,L|216:322,1,130,0|0,0:0|0:0,0:0:0:0:
323,347,15898,1,2,0:0:0:0:
450,321,16359,1,0,0:0:0:0:
477,262,16590,1,0,0:0:0:0:
476,198,16821,6,0,P|487:133|474:68,1,130,4|0,0:0|0:0,0:0:0:0:
346,52,17744,1,2,0:0:0:0:
217,69,18206,1,0,0:0:0:0:
166,188,18667,2,0,P|111:147|88:88,2,130,0|0|2,0:0|0:0|0:0,0:0:0:0:
286,239,20052,1,0,0:0:0:0:
299,301,20282,1,0,0:0:0:0:
315,362,20513,6,0,B|380:381|464:358,1,130,4|0,0:0|0:0,0:0:0:0:
493,243,21436,2,0,B|431:222|351:243,1,130,2|0,0:0|0:0,0:0:0:0:
246,190,22359,2,0,P|257:123|249:53,1,130,0|0,0:0|0:0,0:0:0:0:
122,42,23282,2,0,B|58:42|58:42|21:108,1,130,2|0,0:0|0:0,0:0:0:0:
26,166,23975,1,0,0:0:0:0:
26,231,24206,6,0,B|58:288|58:288|122:288,1,130,4|0,0:0|0:0,0:0:0:0:
236,225,25129,1,2,0:0:0:0:
348,291,25590,1,0,0:0:0:0:
460,226,26052,2,0,P|464:156|456:92,1,130,0|0,0:0|0:0,0:0:0:0:
340,41,26975,5,2,0:0:0:0:
217,79,27436,1,0,0:0:0:0:
152,80,27667,1,0,0:0:0:0:
87,80,27898,1,4,0:0:0:0:
256,192,28129,12,4,29744,0:0:0:0:
65,336,30667,6,0,L|78:191,1,130,2|2,0:0|0:0,0:0:0:0:
189,275,31590,2,0,L|198:141,1,130,2|2,0:0|0:0,0:0:0:0:
260,31,32513,1,2,0:0:0:0:
390,33,32975,1,2,0:0:0:0:
410,161,33436,6,0,P|502:247|418:352,1,260,2|2,0:0|0:0,0:0:0:0:
317,312,34821,1,2,0:0:0:0:
199,365,35282,2,0,P|135:342|184:181,1,260,2|2,0:0|0:0,0:0:0:0:
253,92,36667,1,2,0:0:0:0:
317,79,36898,1,0,0:0:0:0:
381,66,37129,6,0,L|517:44,2,130,4|2|2,0:0|0:0|0:0,0:0:0:0:
317,179,38513,1,2,0:0:0:0:
255,294,38975,2,0,L|107:320,2,130,2|2|2,0:0|0:0|0:0,0:0:0:0:
317,179,40359,1,2,0:0:0:0:
252,187,40590,1,0,0:0:0:0:
187,194,40821,1,4,0:0:0:0:
256,192,41052,12,4,42667,0:0:0:0:
31,74,43590,6,0,P|73:49|171:70,1,130,2|2,0:0|0:0,0:0:0:0:
199,101,44282,1,0,0:0:0:0:
250,141,44513,2,0,P|296:155|379:123,1,130,2|2,0:0|0:0,0:0:0:0:
296,24,45436,1,2,0:0:0:0:
426,25,45898,1,2,0:0:0:0:
482,142,46359,6,0,L|474:288,1,130,4|2,0:0|0:0,0:0:0:0:
364,339,47282,2,0,P|331:346|274:333,1,65,2|0,0:0|0:0,0:0:0:0:
259,291,47744,2,0,P|227:284|195:286,1,65,2|0,0:0|0:0,0:0:0:0:
156,339,48206,2,0,P|105:360|20:328,1,130,2|2,0:0|0:0,0:0:0:0:
3,215,49129,2,0,L|3:83,1,130,2|2,0:0|0:0,0:0:0:0:
120,26,50052,6,0,P|209:15|274:35,1,130,4|2,0:0|0:0,0:0:0:0:
191,144,50975,1,2,0:0:0:0:
256,138,51206,1,0,0:0:0:0:
321,133,51436,2,0,B|386:132|386:132|435:86,2,130,2|2|2,0:0|0:0|0:0,0:0:0:0:
241,236,52821,1,2,0:0:0:0:
369,260,53282,1,2,0:0:0:0:
275,350,53744,6,0,L|131:356,1,130,4|2,0:0|0:0,0:0:0:0:
25,303,54667,2,0,L|37:231,1,65,2|0,0:0|0:0,0:0:0:0:
54,176,55129,2,0,L|45:111,1,65,2|0,0:0|0:0,0:0:0:0:
63,49,55590,2,0,B|129:31|129:31|217:51,1,130,2|2,0:0|0:0,0:0:0:0:
302,110,56513,6,0,L|280:199,1,65,2|0,0:0|0:0,0:0:0:0:
291,238,56975,2,0,L|311:311,1,65,2|0,0:0|0:0,0:0:0:0:
330,362,57436,1,4,0:0:0:0:
29,56,59282,6,0,L|210:66,1,130,8|0,0:0|0:0,0:0:0:0:
255,152,60206,1,2,0:0:0:0:
359,75,60667,1,0,0:0:0:0:
463,153,61129,2,0,P|476:236|456:309,1,130,8|0,0:0|0:0,0:0:0:0:
360,354,62052,1,2,0:0:0:0:
245,294,62513,1,0,0:0:0:0:
120,333,62975,6,0,P|126:253|168:190,2,130,8|0|2,0:0|0:0|0:0,0:0:0:0:
245,294,64359,1,0,0:0:0:0:
256,192,64821,12,4,66667,0:0:0:0:
