osu file format v14

[General]
AudioFilename: audio.mp3
AudioLeadIn: 0
PreviewTime: 29282
Countdown: 0
SampleSet: Soft
StackLeniency: 0.7
Mode: 0
LetterboxInBreaks: 0
WidescreenStoryboard: 1

[Editor]
Bookmarks: 206,13129,27898,29744,40821,42667,57436,59282,66667
DistanceSpacing: 1.1
BeatDivisor: 4
GridSize: 8
TimelineZoom: 1

[Metadata]
Title:Ryuu no Ana
TitleUnicode:りゅうのあな
Artist:Junichi Masuda
ArtistUnicode:増田順一
Creator:Imakuri
Version:Hard
Source:ポケットモンスター ハートゴールド・ソウルシルバー
Tags:pokemon OST blackthorn city johto heart gold soul silver game freak dragon's den
BeatmapID:1011634
BeatmapSetID:473289

[Difficulty]
HPDrainRate:6
CircleSize:4
OverallDifficulty:7
ApproachRate:7
SliderMultiplier:1.7
SliderTickRate:1

[Events]
//Background and Video events
0,0,"bg.png",0,0
//Break Periods
//Storyboard Layer 0 (Background)
//Storyboard Layer 1 (Fail)
//Storyboard Layer 2 (Pass)
//Storyboard Layer 3 (Foreground)
//Storyboard Sound Samples

[TimingPoints]
206,461.538461538462,4,2,0,100,1,0
29282,-100,4,3,0,100,0,0
29744,-100,4,2,0,100,0,1
40821,-100,4,2,0,100,0,0
59282,-100,4,2,0,90,0,0
60206,-100,4,2,0,70,0,0
61129,-100,4,2,0,55,0,0
62052,-100,4,2,0,40,0,0
62975,-100,4,2,0,30,0,0
63898,-100,4,2,0,20,0,0
66667,-100,4,2,0,9,0,0

[Colours]
Combo1 : 128,128,192
Combo2 : 0,128,192
Combo3 : 255,62,62
Combo4 : 255,128,64

[HitObjects]
74,68,206,6,0,P|61:124|76:234,1,170,8|0,0:0|0:0,0:0:0:0:
170,293,898,1,0,0:0:0:0:
265,237,1129,2,0,L|366:244,1,85,2|0,0:0|0:0,0:0:0:0:
396,343,1590,2,0,L|301:336,1,85,0|0,0:0|0:0,0:0:0:0:
265,237,2052,6,0,P|248:154|262:70,1,170,8|0,0:0|0:0,0:0:0:0:
353,7,2744,1,0,0:0:0:0:
447,66,2975,1,2,0:0:0:0:
355,129,3206,1,0,0:0:0:0:
261,70,3436,2,0,P|213:78|168:69,1,85,0|0,0:0|0:0,0:0:0:0:
74,31,3898,6,0,B|48:78|48:78|53:212,1,170,8|0,0:0|0:0,0:0:0:0:
62,305,4590,1,0,0:0:0:0:
169,276,4821,2,0,P|212:277|262:251,1,85,2|0,0:0|0:0,0:0:0:0:
338,191,5282,1,0,0:0:0:0:
234,153,5513,1,0,0:0:0:0:
250,260,5744,6,0,P|313:298|420:266,1,170,8|0,0:0|0:0,0:0:0:0:
469,191,6436,1,0,0:0:0:0:
402,104,6667,2,0,P|369:88|307:88,1,85,2|0,0:0|0:0,0:0:0:0:
234,153,7129,1,0,0:0:0:0:
149,83,7359,1,0,0:0:0:0:
67,157,7590,6,0,B|52:223|74:289|74:289|93:276|119:272,1,170,8|0,0:0|0:0,0:0:0:0:
209,318,8282,1,0,0:0:0:0:
318,301,8513,2,0,L|409:293,1,85,2|0,0:0|0:0,0:0:0:0:
479,213,8975,2,0,P|484:165|474:108,1,85,0|0,0:0|0:0,0:0:0:0:
401,51,9436,6,0,B|317:77|317:22|234:46,1,170,8|0,0:0|0:0,0:0:0:0:
134,94,10129,1,0,0:0:0:0:
63,178,10359,2,0,P|59:260|133:328,1,170,2|0,0:0|0:0,0:0:0:0:
162,221,11052,1,0,0:0:0:0:
203,323,11282,5,4,0:0:0:0:
256,192,11398,12,0,12898,0:0:0:0:
448,68,13129,6,0,P|411:101|293:110,1,170,4|0,0:0|0:0,0:0:0:0:
199,56,13821,1,0,0:0:0:0:
102,109,14052,2,0,L|113:200,1,85,2|0,0:0|0:0,0:0:0:0:
133,302,14513,1,0,0:0:0:0:
244,303,14744,1,0,0:0:0:0:
244,303,14859,1,0,0:0:0:0:
244,303,14975,6,0,L|357:314,1,85,0|0,0:0|0:0,0:0:0:0:
428,263,15436,2,0,P|438:216|424:162,1,85,0|0,0:0|0:0,0:0:0:0:
361,95,15898,2,0,L|250:103,1,85,2|0,0:0|0:0,0:0:0:0:
166,110,16359,1,0,0:0:0:0:
230,200,16590,1,0,0:0:0:0:
276,101,16821,6,0,P|333:161|323:262,1,170,4|0,0:0|0:0,0:0:0:0:
273,337,17513,1,0,0:0:0:0:
163,349,17744,2,0,P|121:360|60:341,1,85,2|0,0:0|0:0,0:0:0:0:
4,272,18206,1,0,0:0:0:0:
52,173,18436,1,0,0:0:0:0:
52,173,18552,1,0,0:0:0:0:
52,173,18667,6,0,B|140:145|140:205|222:169,1,170,0|0,0:0|0:0,0:0:0:0:
317,121,19359,1,0,0:0:0:0:
424,148,19590,2,0,L|415:239,1,85,2|0,0:0|0:0,0:0:0:0:
356,326,20052,2,0,P|315:336|261:321,1,85,0|0,0:0|0:0,0:0:0:0:
210,237,20513,6,0,L|189:52,1,170,4|0,0:0|0:0,0:0:0:0:
99,6,21206,1,0,0:0:0:0:
26,89,21436,2,0,P|17:139|25:182,1,85,2|0,0:0|0:0,0:0:0:0:
108,242,21898,2,0,P|116:291|100:348,1,85,0|0,0:0|0:0,0:0:0:0:
7,284,22359,6,0,L|208:284,1,170,0|0,0:0|0:0,0:0:0:0:
255,205,23052,1,0,0:0:0:0:
353,256,23282,2,0,P|413:267|453:250,1,85,2|0,0:0|0:0,0:0:0:0:
434,149,23744,2,0,P|389:139|335:160,1,85,0|0,0:0|0:0,0:0:0:0:
255,205,24206,6,0,P|142:228|82:196,1,170,4|0,0:0|0:0,0:0:0:0:
29,119,24898,1,0,0:0:0:0:
95,30,25129,2,0,P|136:16|192:33,1,85,2|0,0:0|0:0,0:0:0:0:
248,107,25590,2,0,P|296:116|348:99,1,85,0|0,0:0|0:0,0:0:0:0:
291,4,26052,6,0,L|291:188,1,170
232,268,26744,1,0,0:0:0:0:
141,205,26975,2,0,P|184:167|294:175,1,170,2|0,0:0|0:0,0:0:0:0:
380,238,27667,1,0,0:0:0:0:
469,172,27898,5,4,0:0:0:0:
256,192,28013,12,0,29052,0:0:0:0:
57,66,29282,5,8,0:0:0:0:
85,92,29398,1,8,0:0:0:0:
122,102,29513,1,8,0:0:0:0:
160,96,29629,1,8,0:0:0:0:
191,74,29744,6,0,P|239:64|291:79,1,85,4|0,0:0|0:0,0:0:0:0:
356,145,30206,2,0,L|350:234,1,85,2|0,0:0|0:0,0:0:0:0:
285,319,30667,2,0,B|177:348|177:348|110:334,1,170,2|2,0:0|0:0,0:0:0:0:
27,277,31359,1,0,0:0:0:0:
27,277,31475,1,0,0:0:0:0:
27,277,31590,6,0,P|17:226|31:180,1,85,2|0,0:0|0:0,0:0:0:0:
84,101,32052,2,0,P|126:86|189:96,1,85,2|0,0:0|0:0,0:0:0:0:
253,157,32513,2,0,P|297:184|411:158,1,170,2|2,0:0|0:0,0:0:0:0:
333,79,33206,1,0,0:0:0:0:
253,157,33436,6,0,L|248:257,1,85,2|0,0:0|0:0,0:0:0:0:
179,328,33898,2,0,P|133:340|87:327,1,85,2|0,0:0|0:0,0:0:0:0:
31,244,34359,2,0,B|21:116|21:116|34:70,1,170,2|2,0:0|0:0,0:0:0:0:
130,23,35052,1,0,0:0:0:0:
227,75,35282,6,0,L|326:78,1,85,2|0,0:0|0:0,0:0:0:0:
397,149,35744,2,0,P|401:192|395:235,1,85,2|0,0:0|0:0,0:0:0:0:
315,310,36206,2,0,B|178:325|178:325|195:307|202:291,1,170,2|2,0:0|0:0,0:0:0:0:
264,212,36898,1,0,0:0:0:0:
154,204,37129,6,0,L|63:212,1,85,4|0,0:0|0:0,0:0:0:0:
2,123,37590,2,0,L|103:115,1,85,2|0,0:0|0:0,0:0:0:0:
197,106,38052,2,0,B|284:83|284:132|365:103,1,170,2|2,0:0|0:0,0:0:0:0:
468,67,38744,1,0,0:0:0:0:
468,67,38859,1,0,0:0:0:0:
468,67,38975,6,0,P|474:108|474:159,1,85,2|0,0:0|0:0,0:0:0:0:
416,246,39436,2,0,P|413:296|400:350,1,85,2|0,0:0|0:0,0:0:0:0:
296,351,39898,2,0,B|245:330|245:330|103:355,1,170,2|2,0:0|0:0,0:0:0:0:
58,268,40590,1,0,0:0:0:0:
129,183,40821,5,4,0:0:0:0:
256,192,40936,12,0,42436,0:0:0:0:
56,316,42667,6,0,B|185:335|185:335|230:321,1,170,4|2,0:0|0:0,0:0:0:0:
324,278,43359,1,0,0:0:0:0:
233,215,43590,2,0,L|114:222,1,85,2|0,0:0|0:0,0:0:0:0:
77,135,44052,2,0,L|182:130,1,85,2|0,0:0|0:0,0:0:0:0:
272,127,44513,6,0,P|341:106|437:123,1,170,2|2,0:0|0:0,0:0:0:0:
493,218,45206,1,0,0:0:0:0:
438,313,45436,2,0,L|345:328,1,85,2|0,0:0|0:0,0:0:0:0:
258,271,45898,2,0,L|154:264,1,85,2|0,0:0|0:0,0:0:0:0:
69,301,46359,6,0,B|47:215|108:215|67:118,1,170,4|2,0:0|0:0,0:0:0:0:
23,37,47052,1,0,0:0:0:0:
133,45,47282,2,0,L|220:45,1,85,2|0,0:0|0:0,0:0:0:0:
316,97,47744,2,0,P|326:145|309:202,1,85,2|0,0:0|0:0,0:0:0:0:
215,144,48206,6,0,L|402:144,1,170,2|2,0:0|0:0,0:0:0:0:
475,208,48898,1,0,0:0:0:0:
418,303,49129,2,0,P|376:314|314:295,1,85,2|0,0:0|0:0,0:0:0:0:
229,279,49590,2,0,P|181:268|127:286,1,85,2|0,0:0|0:0,0:0:0:0:
54,338,50052,6,0,L|62:152,1,170,4|2,0:0|0:0,0:0:0:0:
148,98,50744,1,0,0:0:0:0:
246,149,50975,2,0,L|351:154,1,85,2|0,0:0|0:0,0:0:0:0:
324,43,51436,2,0,L|230:35,1,85,2|0,0:0|0:0,0:0:0:0:
148,98,51898,6,0,P|141:189|149:278,1,170,2|2,0:0|0:0,0:0:0:0:
234,336,52590,1,0,0:0:0:0:
344,323,52821,2,0,L|441:315,1,85,2|0,0:0|0:0,0:0:0:0:
504,236,53282,2,0,P|511:183|505:144,1,85,2|0,0:0|0:0,0:0:0:0:
451,56,53744,6,0,L|267:62,1,170,4|2,0:0|0:0,0:0:0:0:
171,71,54436,1,0,0:0:0:0:
90,146,54667,2,0,P|81:194|92:241,1,85,2|0,0:0|0:0,0:0:0:0:
147,323,55129,2,0,L|256:318,1,85,2|0,0:0|0:0,0:0:0:0:
343,310,55590,6,0,B|364:182|364:182|350:132,1,170,2|2,0:0|0:0,0:0:0:0:
312,40,56282,1,0,0:0:0:0:
206,68,56513,2,0,P|159:76|105:64,1,85,2|0,0:0|0:0,0:0:0:0:
19,31,56975,2,0,L|29:122,1,85,2|0,0:0|0:0,0:0:0:0:
50,224,57436,5,4,0:0:0:0:
256,192,57552,12,0,59052,0:0:0:0:
66,76,59282,6,0,P|140:57|244:77,1,170,8|0,0:0|0:0,0:0:0:0:
331,120,59975,1,0,0:0:0:0:
431,70,60206,2,0,P|440:128|426:178,1,85,2|0,0:0|0:0,0:0:0:0:
355,230,60667,2,0,P|344:276|359:333,1,85,0|0,0:0|0:0,0:0:0:0:
456,279,61129,6,0,L|278:279,1,170,8|0,0:0|0:0,0:0:0:0:
198,344,61821,1,0,0:0:0:0:
99,295,62052,2,0,L|6:303,1,85,2|0,0:0|0:0,0:0:0:0:
46,196,62513,2,0,L|153:185,1,85,0|0,0:0|0:0,0:0:0:0:
241,176,62975,6,0,P|294:189|412:175,1,170,8|0,0:0|0:0,0:0:0:0:
488,101,63667,1,0,0:0:0:0:
410,23,63898,2,0,P|362:17|302:30,1,85,2|0,0:0|0:0,0:0:0:0:
229,73,64359,2,0,P|169:79|126:71,1,85,0|0,0:0|0:0,0:0:0:0:
47,44,64821,5,8,0:0:0:0:
256,192,64936,12,4,66667,0:0:0:0:
