osu file format v14

[General]
AudioFilename: audio.mp3
AudioLeadIn: 0
PreviewTime: 29282
Countdown: 0
SampleSet: Soft
StackLeniency: 0.7
Mode: 0
LetterboxInBreaks: 0
WidescreenStoryboard: 0

[Editor]
Bookmarks: 206,13129,27898,29744,40821,42667,57436,59282,66667
DistanceSpacing: 1.1
BeatDivisor: 2
GridSize: 32
TimelineZoom: 1

[Metadata]
Title:Ryuu no Ana
TitleUnicode:りゅうのあな
Artist:Junichi Masuda
ArtistUnicode:増田順一
Creator:Imakuri
Version:Easy
Source:ポケットモンスター ハートゴールド・ソウルシルバー
Tags:pokemon OST blackthorn city johto heart gold soul silver game freak dragon's den
BeatmapID:1011633
BeatmapSetID:473289

[Difficulty]
HPDrainRate:1
CircleSize:2
OverallDifficulty:2
ApproachRate:1
SliderMultiplier:0.8
SliderTickRate:1

[Events]
//Background and Video events
0,0,"bg.png",0,0
//Break Periods
//Storyboard Layer 0 (Background)
//Storyboard Layer 1 (Fail)
//Storyboard Layer 2 (Pass)
//Storyboard Layer 3 (Foreground)
//Storyboard Sound Samples

[TimingPoints]
206,461.538461538462,4,2,0,100,1,0
29744,-100,4,2,0,100,0,1
40821,-100,4,2,0,100,0,0
59282,-100,4,2,0,90,0,0
60206,-100,4,2,0,70,0,0
61129,-100,4,2,0,55,0,0
62052,-100,4,2,0,40,0,0
62975,-100,4,2,0,30,0,0
63898,-100,4,2,0,20,0,0
66667,-100,4,2,0,9,0,0

[Colours]
Combo1 : 128,128,192
Combo2 : 0,128,192
Combo3 : 255,62,62
Combo4 : 255,128,64

[HitObjects]
164,68,206,6,0,P|139:134|183:234,1,160,8|2,0:0|0:0,0:0:0:0:
256,139,1590,1,0,0:0:0:0:
353,68,2052,2,0,P|376:133|342:223,1,160,8|2,0:0|0:0,0:0:0:0:
416,315,3436,1,0,0:0:0:0:
297,316,3898,6,0,P|229:327|115:309,2,160,8|2|8,0:0|0:0|0:0,0:0:0:0:
224,88,6667,1,2,0:0:0:0:
446,179,7590,6,0,B|388:237|388:237|293:249,1,160,8|2,0:0|0:0,0:0:0:0:
256,140,8975,1,0,0:0:0:0:
199,245,9436,2,0,B|116:239|116:239|48:150,1,160,8|2,0:0|0:0,0:0:0:0:
255,27,11282,5,4,0:0:0:0:
256,192,11513,12,4,13129,0:0:0:0:
136,57,14975,2,0,P|155:144|126:238,1,160,0|2,0:0|0:0,0:0:0:0:
109,328,16359,1,0,0:0:0:0:
224,294,16821,6,0,L|413:294,1,160,4|2,0:0|0:0,0:0:0:0:
471,211,18206,1,0,0:0:0:0:
374,141,18667,2,0,L|212:141,1,160,0|2,0:0|0:0,0:0:0:0:
124,62,20052,1,0,0:0:0:0:
52,158,20513,6,0,P|46:213|56:266,1,80,4|0,0:0|0:0,0:0:0:0:
129,327,21436,2,0,P|173:332|243:323,1,80,2|0,0:0|0:0,0:0:0:0:
305,258,22359,2,0,P|356:249|391:256,1,80,0|0,0:0|0:0,0:0:0:0:
480,182,23282,1,2,0:0:0:0:
381,114,23744,1,0,0:0:0:0:
280,45,24206,6,0,P|203:32|108:47,1,160,4|2,0:0|0:0,0:0:0:0:
40,130,25590,1,0,0:0:0:0:
124,216,26052,2,0,P|201:232|298:210,1,160,0|2,0:0|0:0,0:0:0:0:
393,177,27436,1,0,0:0:0:0:
256,192,27898,12,4,29744,0:0:0:0:
222,335,31590,6,0,P|272:345|329:328,1,80,2|2,0:0|0:0,0:0:0:0:
409,290,32513,2,0,L|420:199,1,80,2|2,0:0|0:0,0:0:0:0:
418,90,33436,6,0,P|339:67|249:101,2,160,2|2|2,0:0|0:0|0:0,0:0:0:0:
340,182,35744,1,2,0:0:0:0:
223,210,36206,2,0,P|178:189|152:160,1,80,2|2,0:0|0:0,0:0:0:0:
159,47,37129,6,0,P|250:28|332:65,1,160,4|2,0:0|0:0,0:0:0:0:
410,117,38513,1,2,0:0:0:0:
351,223,38975,2,0,B|335:272|350:321|350:321|280:334,1,160,2|2,0:0|0:0,0:0:0:0:
172,351,40359,1,2,0:0:0:0:
256,192,40821,12,4,42667,0:0:0:0:
363,33,44513,6,0,L|261:43,1,80,2|2,0:0|0:0,0:0:0:0:
249,156,45436,2,0,L|333:147,1,80,2|2,0:0|0:0,0:0:0:0:
448,137,46359,6,0,P|460:237|437:326,1,160,4|2,0:0|0:0,0:0:0:0:
346,356,47744,1,2,0:0:0:0:
248,287,48206,2,0,P|195:297|148:279,1,80,2|2,0:0|0:0,0:0:0:0:
122,181,49129,2,0,P|169:168|215:182,1,80,2|2,0:0|0:0,0:0:0:0:
317,197,50052,6,0,P|328:153|315:30,2,160,4|2|2,0:0|0:0|0:0,0:0:0:0:
366,306,52359,1,2,0:0:0:0:
254,350,52821,1,2,0:0:0:0:
142,307,53282,1,2,0:0:0:0:
73,209,53744,6,0,P|68:159|79:102,1,80,4|2,0:0|0:0,0:0:0:0:
173,65,54667,2,0,P|231:71|275:61,1,80,2|2,0:0|0:0,0:0:0:0:
329,160,55590,2,0,P|381:153|427:163,1,80,2|2,0:0|0:0,0:0:0:0:
475,257,56513,2,0,P|481:308|466:362,2,80,2|2|4,0:0|0:0|0:0,0:0:0:0:
33,73,59282,6,0,L|52:248,1,160,8|2,0:0|0:0,0:0:0:0:
149,300,60667,1,0,0:0:0:0:
242,237,61129,2,0,P|317:252|412:233,1,160,8|2,0:0|0:0,0:0:0:0:
503,181,62513,1,0,0:0:0:0:
404,113,62975,6,0,B|340:111|320:60|320:60|242:73,1,160,8|2,0:0|0:0,0:0:0:0:
148,84,64359,1,0,0:0:0:0:
256,192,64821,12,4,66667,0:0:0:0:
