osu file format v14

[General]
AudioFilename: audio.mp3
AudioLeadIn: 0
PreviewTime: 8839
Countdown: 1
SampleSet: Soft
StackLeniency: 0.7
Mode: 0
LetterboxInBreaks: 0
WidescreenStoryboard: 1

[Editor]
Bookmarks: 11663,22957,28604
DistanceSpacing: 1.3
BeatDivisor: 4
GridSize: 8
TimelineZoom: 1.9

[Metadata]
Title:Ruins of Alph
TitleUnicode:アルフのいせき
Artist:Junichi Masuda
ArtistUnicode:増田 順一
Creator:Chompy
Version:Unown
Source:ポケットモンスター ハートゴールド & ポケットモンスター ソウルシルバー
Tags:pokemon heart gold soul silver game freak ruins of alph
BeatmapID:2087754
BeatmapSetID:998137

[Difficulty]
HPDrainRate:6
CircleSize:5
OverallDifficulty:8
ApproachRate:9
SliderMultiplier:1.4
SliderTickRate:1

[Events]
//Background and Video events
0,0,"HGSS_Ruins_of_Alph-Night.png",0,0
//Break Periods
//Storyboard Layer 0 (Background)
//Storyboard Layer 1 (Fail)
//Storyboard Layer 2 (Pass)
//Storyboard Layer 3 (Foreground)
//Storyboard Sound Samples

[TimingPoints]
369,705.882352941176,4,2,0,15,1,0
4604,-100,4,2,0,30,0,0
7427,-100,4,2,0,15,0,0
8839,-100,4,2,0,20,0,0
11663,-100,4,2,0,30,0,0
22957,-100,4,2,0,30,0,1
34251,-100,4,2,0,30,0,0

[Colours]
Combo1 : 218,239,227
Combo2 : 255,255,255
Combo3 : 79,79,79
Combo4 : 205,181,122

[HitObjects]
23,16,369,5,2,0:0:0:0:
461,115,1074,1,2,0:0:0:0:
92,194,1780,1,2,0:0:0:0:
323,127,2133,1,2,0:0:0:0:
264,359,2486,1,2,0:0:0:0:
200,122,2839,1,2,0:0:0:0:
30,339,3192,5,2,0:0:0:0:
465,238,3898,1,2,0:0:0:0:
30,39,4604,5,6,0:0:0:0:
439,214,5310,1,6,0:0:0:0:
71,197,6015,1,2,0:0:0:0:
277,150,6368,1,2,0:0:0:0:
215,351,6721,1,2,0:0:0:0:
163,145,7074,1,2,0:0:0:0:
420,352,7427,5,2,0:0:0:0:
62,193,8133,1,2,0:0:0:0:
414,28,8839,5,6,0:0:0:0:
52,177,9545,1,6,0:0:0:0:
373,195,10251,1,2,0:0:0:0:
167,148,10604,1,2,0:0:0:0:
229,349,10957,1,2,0:0:0:0:
281,143,11310,1,2,0:0:0:0:
104,333,11663,5,0,0:0:0:0:
38,204,12016,1,0,0:0:0:0:
167,139,12368,1,0,0:0:0:0:
232,266,12721,1,0,0:0:0:0:
38,204,13074,1,0,0:0:0:0:
104,333,13427,1,0,0:0:0:0:
167,139,13780,1,0,0:0:0:0:
345,196,14133,1,0,0:0:0:0:
239,113,14486,5,0,0:0:0:0:
404,31,14839,1,0,0:0:0:0:
486,196,15192,1,0,0:0:0:0:
318,278,15545,1,0,0:0:0:0:
404,31,15898,1,0,0:0:0:0:
486,196,16251,1,0,0:0:0:0:
318,280,16604,1,0,0:0:0:0:
239,116,16957,1,0,0:0:0:0:
15,207,17310,5,0,0:0:0:0:
190,115,17663,1,0,0:0:0:0:
284,290,18016,1,0,0:0:0:0:
108,383,18368,1,0,0:0:0:0:
195,97,18721,1,0,0:0:0:0:
284,290,19074,1,0,0:0:0:0:
195,97,19427,1,0,0:0:0:0:
385,8,19780,1,0,0:0:0:0:
269,295,20133,5,0,0:0:0:0:
74,235,20486,1,0,0:0:0:0:
134,41,20839,1,0,0:0:0:0:
329,100,21192,1,0,0:0:0:0:
74,235,21545,1,0,0:0:0:0:
134,41,21898,1,0,0:0:0:0:
74,235,22251,1,0,0:0:0:0:
269,295,22604,1,0,0:0:0:0:
149,242,22957,5,8,0:0:0:0:
160,169,23133,1,0,0:0:0:0:
217,215,23310,1,0,0:0:0:0:
122,200,23486,1,0,0:0:0:0:
208,167,23662,1,8,0:0:0:0:
194,257,23839,1,0,0:0:0:0:
150,146,24016,1,0,0:0:0:0:
240,218,24192,1,0,0:0:0:0:
134,260,24369,1,8,0:0:0:0:
226,143,24545,1,0,0:0:0:0:
205,286,24721,1,0,0:0:0:0:
93,196,24898,1,0,0:0:0:0:
277,223,25074,1,8,0:0:0:0:
110,289,25250,1,0,0:0:0:0:
137,112,25427,1,0,0:0:0:0:
213,305,25604,1,0,0:0:0:0:
331,179,25780,5,8,0:0:0:0:
400,202,25956,1,0,0:0:0:0:
344,250,26133,1,0,0:0:0:0:
375,161,26310,1,0,0:0:0:0:
393,251,26486,1,8,0:0:0:0:
306,220,26663,1,0,0:0:0:0:
423,198,26839,1,0,0:0:0:0:
336,273,27015,1,0,0:0:0:0:
315,160,27192,1,8,0:0:0:0:
431,294,27368,1,0,0:0:0:0:
248,232,27544,1,0,0:0:0:0:
396,105,27721,1,0,0:0:0:0:
333,341,27898,1,8,0:0:0:0:
290,122,28074,1,0,0:0:0:0:
502,197,28251,1,0,0:0:0:0:
249,244,28427,1,0,0:0:0:0:
194,135,28604,5,8,0:0:0:0:
168,203,28780,1,0,0:0:0:0:
122,145,28957,1,0,0:0:0:0:
213,181,29133,1,0,0:0:0:0:
116,197,29309,1,8,0:0:0:0:
153,104,29486,1,0,0:0:0:0:
175,257,29663,1,0,0:0:0:0:
68,125,29839,1,0,0:0:0:0:
239,100,30016,1,8,0:0:0:0:
58,242,30192,1,0,0:0:0:0:
139,28,30368,1,0,0:0:0:0:
283,211,30545,1,0,0:0:0:0:
70,124,30721,1,8,0:0:0:0:
237,98,30897,1,0,0:0:0:0:
174,258,31074,1,0,0:0:0:0:
146,64,31251,1,0,0:0:0:0:
319,125,31427,5,8,0:0:0:0:
158,181,31604,1,0,0:0:0:0:
292,291,31780,1,0,0:0:0:0:
227,117,31957,1,0,0:0:0:0:
203,263,32133,1,8,0:0:0:0:
337,212,32310,1,0,0:0:0:0:
185,187,32486,1,0,0:0:0:0:
279,263,32663,1,0,0:0:0:0:
303,142,32839,1,8,0:0:0:0:
217,243,33016,1,0,0:0:0:0:
316,209,33193,1,0,0:0:0:0:
234,141,33369,1,0,0:0:0:0:
273,247,33545,1,8,0:0:0:0:
288,157,33721,1,0,0:0:0:0:
206,188,33898,1,0,0:0:0:0:
306,205,34074,1,0,0:0:0:0:
461,50,34251,5,2,0:0:0:0:
23,149,34956,1,2,0:0:0:0:
404,183,35662,1,2,0:0:0:0:
154,108,36015,1,2,0:0:0:0:
218,363,36368,1,2,0:0:0:0:
288,105,36721,1,2,0:0:0:0:
15,359,37074,21,6,0:0:0:0:
494,29,37780,1,6,0:0:0:0:
