osu file format v14

[General]
AudioFilename: audio.mp3
AudioLeadIn: 0
PreviewTime: 8839
Countdown: 1
SampleSet: Soft
StackLeniency: 0.7
Mode: 0
LetterboxInBreaks: 0
WidescreenStoryboard: 1

[Editor]
Bookmarks: 11663,22957,28604
DistanceSpacing: 2
BeatDivisor: 4
GridSize: 8
TimelineZoom: 1.9

[Metadata]
Title:Ruins of Alph
TitleUnicode:アルフのいせき
Artist:Junichi Masuda
ArtistUnicode:増田 順一
Creator:Chompy
Version:Hard
Source:ポケットモンスター ハートゴールド & ポケットモンスター ソウルシルバー
Tags:pokemon heart gold soul silver game freak ruins of alph
BeatmapID:2087799
BeatmapSetID:998137

[Difficulty]
HPDrainRate:5
CircleSize:5
OverallDifficulty:6
ApproachRate:7
SliderMultiplier:1.4
SliderTickRate:1

[Events]
//Background and Video events
0,0,"HGSS_Ruins_of_Alph-Night.png",0,0
//Break Periods
//Storyboard Layer 0 (Background)
//Storyboard Layer 1 (Fail)
//Storyboard Layer 2 (Pass)
//Storyboard Layer 3 (Foreground)
//Storyboard Sound Samples

[TimingPoints]
369,705.882352941176,4,2,0,15,1,0
4604,-100,4,2,0,30,0,0
7427,-100,4,2,0,15,0,0
8839,-100,4,2,0,20,0,0
11663,-100,4,2,0,30,0,0
22957,-100,4,2,0,30,0,1
34251,-100,4,2,0,30,0,0

[Colours]
Combo1 : 218,239,227
Combo2 : 255,255,255
Combo3 : 79,79,79
Combo4 : 205,181,122

[HitObjects]
104,231,369,5,2,0:0:0:0:
372,153,1074,1,2,0:0:0:0:
98,91,1780,1,2,0:0:0:0:
235,62,2133,1,2,0:0:0:0:
200,197,2486,1,2,0:0:0:0:
166,61,2839,1,2,0:0:0:0:
47,136,3192,5,2,0:0:0:0:
322,188,3898,1,2,0:0:0:0:
57,279,4604,5,6,0:0:0:0:
331,222,5310,1,6,0:0:0:0:
59,151,6016,1,2,0:0:0:0:
192,111,6368,1,2,0:0:0:0:
169,249,6721,1,2,0:0:0:0:
123,116,7074,1,2,0:0:0:0:
262,126,7427,5,2,0:0:0:0:
17,261,8133,1,2,0:0:0:0:
295,290,8839,5,6,0:0:0:0:
40,173,9545,1,6,0:0:0:0:
315,123,10251,1,2,0:0:0:0:
176,140,10604,1,2,0:0:0:0:
260,251,10957,1,2,0:0:0:0:
244,111,11310,1,2,0:0:0:0:
371,168,11663,6,0,P|410:129|494:118,1,140
352,360,13074,2,0,P|416:346|467:286,1,140
195,211,14486,1,2,0:0:0:0:
324,157,14839,1,2,0:0:0:0:
311,296,15192,1,2,0:0:0:0:
256,167,15545,1,2,0:0:0:0:
221,302,15898,6,0,P|135:315|68:270,1,140,2|2,0:0|0:0,0:0:0:0:
11,23,17310,2,0,P|75:-2|142:13,1,140,2|2,0:0|0:0,0:0:0:0:
45,276,18721,1,2,0:0:0:0:
172,218,19074,1,2,0:0:0:0:
139,354,19427,1,2,0:0:0:0:
95,221,19780,1,2,0:0:0:0:
203,132,20133,6,0,P|285:92|361:100,1,140
257,362,21545,2,0,P|346:341|389:292,1,140
173,117,22957,5,0,0:0:0:0:
311,114,23310,1,0,0:0:0:0:
245,237,23663,1,0,0:0:0:0:
245,96,24016,1,0,0:0:0:0:
348,190,24368,1,0,0:0:0:0:
246,285,24721,1,0,0:0:0:0:
346,381,25074,1,0,0:0:0:0:
450,288,25427,1,0,0:0:0:0:
314,252,25780,5,0,0:0:0:0:
368,122,26133,1,0,0:0:0:0:
498,173,26486,1,0,0:0:0:0:
448,303,26839,1,0,0:0:0:0:
411,155,27192,1,0,0:0:0:0:
341,277,27545,1,0,0:0:0:0:
485,273,27898,1,0,0:0:0:0:
362,205,28251,1,0,0:0:0:0:
221,203,28604,5,0,0:0:0:0:
163,330,28957,1,0,0:0:0:0:
294,379,29310,1,0,0:0:0:0:
365,258,29663,1,0,0:0:0:0:
227,232,30016,1,0,0:0:0:0:
94,264,30368,1,0,0:0:0:0:
60,127,30721,1,0,0:0:0:0:
195,91,31074,1,0,0:0:0:0:
182,230,31427,5,0,0:0:0:0:
84,330,31780,1,0,0:0:0:0:
221,357,32133,1,0,0:0:0:0:
114,265,32486,1,0,0:0:0:0:
231,188,32839,1,0,0:0:0:0:
225,48,33192,1,0,0:0:0:0:
364,44,33545,1,0,0:0:0:0:
369,183,33898,1,0,0:0:0:0:
246,250,34251,5,2,0:0:0:0:
477,92,34957,1,2,0:0:0:0:
196,90,35662,1,2,0:0:0:0:
331,55,36015,1,2,0:0:0:0:
290,188,36368,1,2,0:0:0:0:
249,53,36721,1,2,0:0:0:0:
119,105,37074,5,6,0:0:0:0:
389,175,37780,1,6,0:0:0:0:
