osu file format v14

[General]
AudioFilename: audio.mp3
AudioLeadIn: 0
PreviewTime: -1
Countdown: 0
SampleSet: None
StackLeniency: 0.7
Mode: 3
LetterboxInBreaks: 0
SpecialStyle: 0
WidescreenStoryboard: 0

[Editor]
DistanceSpacing: 1.2
BeatDivisor: 4
GridSize: 4
TimelineZoom: 1

[Metadata]
Title:RedBlueYellowGreen Battle
TitleUnicode:红蓝黄绿 战斗
Artist:Junichi Masuda
ArtistUnicode:Junichi Masuda
Creator:pikechu
Version:RedBlueYellowGreen Battle
Source:Pokemon
Tags:
BeatmapID:1577108
BeatmapSetID:748653

[Difficulty]
HPDrainRate:8
CircleSize:7
OverallDifficulty:8
ApproachRate:5
SliderMultiplier:1.4
SliderTickRate:1

[Events]
//Background and Video events
0,0,"background.jpg",0,0
//Break Periods
//Storyboard Layer 0 (Background)
//Storyboard Layer 1 (Fail)
//Storyboard Layer 2 (Pass)
//Storyboard Layer 3 (Foreground)
//Storyboard Sound Samples

[TimingPoints]
0,342.857,4,1,1,100,1,0

[HitObjects]
10,192,0,5,0,0:0:0:50:B4S_s.wav
375,192,0,1,0,0:0:0:50:A6S_s.wav
156,192,86,1,0,0:0:0:50:A#4S_Bb4S_s.wav
448,192,86,1,0,0:0:0:50:G6S_s.wav
83,192,171,1,0,0:0:0:50:A4S_s.wav
302,192,171,1,0,0:0:0:50:F6S_s.wav
10,192,257,1,0,0:0:0:50:G#4S_Ab4S_s.wav
229,192,257,1,0,0:0:0:50:E6S_s.wav
156,192,343,1,0,0:0:0:50:A4S_s.wav
375,192,343,1,0,0:0:0:50:A6S_s.wav
83,192,429,1,0,0:0:0:50:G#4S_Ab4S_s.wav
448,192,429,1,0,0:0:0:50:D#6S_Eb6S_s.wav
229,192,514,1,0,0:0:0:50:G4S_s.wav
302,192,514,1,0,0:0:0:50:E6S_s.wav
10,192,600,1,0,0:0:0:50:F#4S_Gb4S_s.wav
375,192,600,1,0,0:0:0:50:D#6S_Eb6S_s.wav
156,192,686,1,0,0:0:0:50:G#4S_Ab4S_s.wav
448,192,686,1,0,0:0:0:50:A6S_s.wav
83,192,771,1,0,0:0:0:50:G4S_s.wav
229,192,771,1,0,0:0:0:50:D6S_s.wav
10,192,857,1,0,0:0:0:50:F#4S_Gb4S_s.wav
302,192,857,1,0,0:0:0:50:D#6S_Eb6S_s.wav
156,192,943,1,0,0:0:0:50:F4S_s.wav
375,192,943,1,0,0:0:0:50:D6S_s.wav
229,192,1029,1,0,0:0:0:50:G4S_s.wav
448,192,1029,1,0,0:0:0:50:A6S_s.wav
83,192,1114,1,0,0:0:0:50:F#4S_Gb4S_s.wav
302,192,1114,1,0,0:0:0:50:C#6S_Db6S_s.wav
10,192,1200,1,0,0:0:0:50:F4S_s.wav
375,192,1200,1,0,0:0:0:50:D6S_s.wav
156,192,1286,1,0,0:0:0:50:E4S_s.wav
229,192,1286,1,0,0:0:0:50:C#6S_Db6S_s.wav
83,192,1371,1,0,0:0:0:50:F#4S_Gb4S_s.wav
448,192,1371,1,0,0:0:0:50:A6S_s.wav
10,192,1457,1,0,0:0:0:50:F4S_s.wav
302,192,1457,1,0,0:0:0:50:C6S_s.wav
229,192,1543,1,0,0:0:0:50:E4S_s.wav
375,192,1543,1,0,0:0:0:50:C#6S_Db6S_s.wav
156,192,1629,1,0,0:0:0:50:D#4S_Eb4S_s.wav
448,192,1629,1,0,0:0:0:50:C6S_s.wav
83,192,1714,1,0,0:0:0:50:F4S_s.wav
302,192,1714,1,0,0:0:0:50:A6S_s.wav
10,192,1800,1,0,0:0:0:50:E4S_s.wav
375,192,1800,1,0,0:0:0:50:B5S_s.wav
156,192,1886,1,0,0:0:0:50:D#4S_Eb4S_s.wav
229,192,1886,1,0,0:0:0:50:C6S_s.wav
83,192,1971,1,0,0:0:0:50:D4S_s.wav
448,192,1971,1,0,0:0:0:50:B5S_s.wav
10,192,2057,1,0,0:0:0:50:E4S_s.wav
302,192,2057,1,0,0:0:0:50:A6S_s.wav
156,192,2143,1,0,0:0:0:50:D#4S_Eb4S_s.wav
375,192,2143,1,0,0:0:0:50:A#5S_Bb5S_s.wav
83,192,2229,1,0,0:0:0:50:D4S_s.wav
229,192,2229,1,0,0:0:0:50:B5S_s.wav
10,192,2314,1,0,0:0:0:50:C#4S_Db4S_s.wav
448,192,2314,1,0,0:0:0:50:A#5S_Bb5S_s.wav
156,192,2400,1,0,0:0:0:50:D#4S_Eb4S_s.wav
302,192,2400,1,0,0:0:0:50:A6S_s.wav
229,192,2486,1,0,0:0:0:50:D4S_s.wav
375,192,2486,1,0,0:0:0:50:A5S_s.wav
83,192,2571,1,0,0:0:0:50:C#4S_Db4S_s.wav
448,192,2571,1,0,0:0:0:50:B5S_s.wav
10,192,2657,1,0,0:0:0:50:C4S_s.wav
302,192,2657,1,0,0:0:0:50:A5S_s.wav
156,192,2743,1,0,0:0:0:50:B3S_s.wav
229,192,2743,1,0,0:0:0:50:B5S_s.wav
375,192,2743,1,0,0:0:0:50:B6S_s.wav
83,192,2914,1,0,0:0:0:50:B3S_s.wav
448,192,3086,1,0,0:0:0:50:D4S_s.wav
10,192,3257,1,0,0:0:0:50:E4S_s.wav
302,192,3257,1,0,0:0:0:50:C#6S_Db6S_s.wav
156,192,3429,1,0,0:0:0:50:B3S_s.wav
229,192,3600,1,0,0:0:0:50:F4S_s.wav
83,192,3771,1,0,0:0:0:50:E4S_s.wav
375,192,3771,1,0,0:0:0:50:D6S_s.wav
448,192,3943,1,0,0:0:0:50:D4S_s.wav
10,192,4114,1,0,0:0:0:50:B3S_s.wav
302,192,4114,1,0,0:0:0:50:B5S_s.wav
156,192,4286,1,0,0:0:0:50:B3S_s.wav
229,192,4286,1,0,0:0:0:50:C#6S_Db6S_s.wav
375,192,4457,1,0,0:0:0:50:D4S_s.wav
83,192,4629,1,0,0:0:0:50:E4S_s.wav
448,192,4629,1,0,0:0:0:50:D6S_s.wav
10,192,4800,1,0,0:0:0:50:B3S_s.wav
302,192,4971,1,0,0:0:0:50:D4S_s.wav
156,192,5143,1,0,0:0:0:50:A3S_s.wav
229,192,5143,1,0,0:0:0:50:A5S_s.wav
375,192,5314,1,0,0:0:0:50:C4S_s.wav
83,192,5486,1,0,0:0:0:50:B3S_s.wav
448,192,5486,1,0,0:0:0:50:B5S_s.wav
10,192,5657,1,0,0:0:0:50:B3S_s.wav
302,192,5829,1,0,0:0:0:50:D4S_s.wav
156,192,6000,1,0,0:0:0:50:E4S_s.wav
229,192,6000,1,0,0:0:0:50:C#6S_Db6S_s.wav
375,192,6171,1,0,0:0:0:50:B3S_s.wav
83,192,6343,1,0,0:0:0:50:F4S_s.wav
10,192,6514,1,0,0:0:0:50:E4S_s.wav
448,192,6514,1,0,0:0:0:50:D6S_s.wav
302,192,6686,1,0,0:0:0:50:D4S_s.wav
156,192,6857,1,0,0:0:0:50:B3S_s.wav
229,192,6857,1,0,0:0:0:50:B5S_s.wav
83,192,7029,1,0,0:0:0:50:B3S_s.wav
375,192,7029,1,0,0:0:0:50:C#6S_Db6S_s.wav
448,192,7200,1,0,0:0:0:50:D4S_s.wav
10,192,7371,1,0,0:0:0:50:E4S_s.wav
302,192,7371,1,0,0:0:0:50:D6S_s.wav
156,192,7543,1,0,0:0:0:50:B3S_s.wav
229,192,7714,1,0,0:0:0:50:D4S_s.wav
83,192,7886,1,0,0:0:0:50:A3S_s.wav
375,192,7886,1,0,0:0:0:50:B4S_s.wav
448,192,7886,1,0,0:0:0:50:A5S_s.wav
10,192,8057,1,0,0:0:0:50:C4S_s.wav
156,192,8057,1,0,0:0:0:50:C#5S_Db5S_s.wav
302,192,8057,1,0,0:0:0:50:A#5S_Bb5S_s.wav
83,192,8229,1,0,0:0:0:50:B3S_s.wav
229,192,8229,1,0,0:0:0:50:D5S_s.wav
448,192,8229,1,0,0:0:0:50:B5S_s.wav
375,192,8400,1,0,0:0:0:50:B3S_s.wav
10,192,8571,1,0,0:0:0:50:D4S_s.wav
156,192,8743,1,0,0:0:0:50:E4S_s.wav
302,192,8743,1,0,0:0:0:50:E5S_s.wav
448,192,8743,1,0,0:0:0:50:C#6S_Db6S_s.wav
229,192,8914,1,0,0:0:0:50:B3S_s.wav
83,192,9086,1,0,0:0:0:50:F4S_s.wav
10,192,9257,1,0,0:0:0:50:E4S_s.wav
302,192,9257,1,0,0:0:0:50:F5S_s.wav
375,192,9257,1,0,0:0:0:50:D6S_s.wav
156,192,9429,1,0,0:0:0:50:D4S_s.wav
83,192,9600,1,0,0:0:0:50:B3S_s.wav
229,192,9600,1,0,0:0:0:50:D5S_s.wav
448,192,9600,1,0,0:0:0:50:B5S_s.wav
10,192,9771,1,0,0:0:0:50:B3S_s.wav
302,192,9771,1,0,0:0:0:50:E5S_s.wav
375,192,9771,1,0,0:0:0:50:C#6S_Db6S_s.wav
156,192,9943,1,0,0:0:0:50:D4S_s.wav
83,192,10114,1,0,0:0:0:50:E4S_s.wav
229,192,10114,1,0,0:0:0:50:F5S_s.wav
448,192,10114,1,0,0:0:0:50:D6S_s.wav
302,192,10286,1,0,0:0:0:50:B3S_s.wav
10,192,10457,1,0,0:0:0:50:D4S_s.wav
156,192,10629,1,0,0:0:0:50:A3S_s.wav
229,192,10629,1,0,0:0:0:50:B4S_s.wav
375,192,10629,1,0,0:0:0:50:A5S_s.wav
448,192,10629,1,0,0:0:0:50:A6S_s.wav
10,192,10800,1,0,0:0:0:50:C4S_s.wav
83,192,10800,1,0,0:0:0:50:C#5S_Db5S_s.wav
302,192,10800,1,0,0:0:0:50:A#5S_Bb5S_s.wav
448,192,10800,1,0,0:0:0:50:A#6S_Bb6S_s.wav
83,192,10971,1,0,0:0:0:50:B3S_s.wav
156,192,10971,1,0,0:0:0:50:D5S_s.wav
229,192,10971,1,0,0:0:0:50:B5S_s.wav
375,192,10971,1,0,0:0:0:50:B6S_s.wav
448,192,11143,1,0,0:0:0:50:B3S_s.wav
10,192,11314,1,0,0:0:0:50:D4S_s.wav
156,192,11486,1,0,0:0:0:50:E4S_s.wav
229,192,11486,1,0,0:0:0:50:E5S_s.wav
302,192,11486,1,0,0:0:0:50:C#6S_Db6S_s.wav
375,192,11486,1,0,0:0:0:50:C#7S_Db7S_s.wav
83,192,11657,1,0,0:0:0:50:B3S_s.wav
448,192,11829,1,0,0:0:0:50:F4S_s.wav
10,192,12000,1,0,0:0:0:50:E4S_s.wav
156,192,12000,1,0,0:0:0:50:F5S_s.wav
229,192,12000,1,0,0:0:0:50:D6S_s.wav
302,192,12000,1,0,0:0:0:50:D7S_s.wav
375,192,12171,1,0,0:0:0:50:D4S_s.wav
83,192,12343,1,0,0:0:0:50:B3S_s.wav
156,192,12343,1,0,0:0:0:50:D5S_s.wav
302,192,12343,1,0,0:0:0:50:B5S_s.wav
448,192,12343,1,0,0:0:0:50:B6S_s.wav
10,192,12514,1,0,0:0:0:50:B3S_s.wav
156,192,12514,1,0,0:0:0:50:E5S_s.wav
229,192,12514,1,0,0:0:0:50:C#6S_Db6S_s.wav
375,192,12514,1,0,0:0:0:50:C#7S_Db7S_s.wav
302,192,12686,1,0,0:0:0:50:D4S_s.wav
83,192,12857,1,0,0:0:0:50:E4S_s.wav
156,192,12857,1,0,0:0:0:50:F5S_s.wav
375,192,12857,1,0,0:0:0:50:D6S_s.wav
448,192,12857,1,0,0:0:0:50:D7S_s.wav
229,192,13029,1,0,0:0:0:50:B3S_s.wav
10,192,13200,1,0,0:0:0:50:D4S_s.wav
83,192,13371,1,0,0:0:0:50:A3S_s.wav
156,192,13371,1,0,0:0:0:50:C5S_s.wav
302,192,13371,1,0,0:0:0:50:A5S_s.wav
448,192,13371,1,0,0:0:0:50:A6S_s.wav
375,192,13543,1,0,0:0:0:50:C4S_s.wav
10,192,13714,1,0,0:0:0:50:B3S_s.wav
229,192,13714,1,0,0:0:0:50:D5S_s.wav
302,192,13714,1,0,0:0:0:50:B5S.wav
83,192,13886,1,0,0:0:0:50:F#4S_Gb4S_s.wav
448,192,13886,1,0,0:0:0:50:E5S_s.wav
156,192,14057,1,0,0:0:0:50:B3S_s.wav
10,192,14229,1,0,0:0:0:50:F#4S_Gb4S_s.wav
229,192,14229,1,0,0:0:0:50:C#5S_Db5S_s.wav
375,192,14229,1,0,0:0:0:50:F#5S_Gb5S.wav
83,192,14400,1,0,0:0:0:50:B3S_s.wav
302,192,14400,1,0,0:0:0:50:D5S.wav
448,192,14571,1,0,0:0:0:50:F#4S_Gb4S_s.wav
156,192,14743,1,0,0:0:0:50:B3S_s.wav
375,192,14743,1,0,0:0:0:50:B4S.wav
229,192,14914,1,0,0:0:0:50:F#4S_Gb4S_s.wav
10,192,15086,1,0,0:0:0:50:B3S_s.wav
302,192,15086,1,0,0:0:0:50:F#4S_Gb4S.wav
83,192,15257,1,0,0:0:0:50:F#4S_Gb4S_s.wav
156,192,15429,1,0,0:0:0:50:B3S_s.wav
375,192,15429,1,0,0:0:0:50:E5S_s.wav
448,192,15429,1,0,0:0:0:50:B5S_s.wav
10,192,15600,1,0,0:0:0:50:F#4S_Gb4S_s.wav
229,192,15600,1,0,0:0:0:50:D5S.wav
83,192,15771,1,0,0:0:0:50:B3S_s.wav
302,192,15771,1,0,0:0:0:50:F#5S_Gb5S_s.wav
156,192,15943,1,0,0:0:0:50:F#4S_Gb4S_s.wav
448,192,15943,1,0,0:0:0:50:C#5S_Db5S_s.wav
10,192,16114,1,0,0:0:0:50:B3S_s.wav
229,192,16114,1,0,0:0:0:50:D5S_s.wav
375,192,16114,1,0,0:0:0:50:B5S_s.wav
83,192,16286,1,0,0:0:0:50:F#4S_Gb4S_s.wav
302,192,16286,1,0,0:0:0:50:E5S_s.wav
156,192,16457,1,0,0:0:0:50:C4S_s.wav
375,192,16457,1,0,0:0:0:50:F5S.wav
448,192,16457,1,0,0:0:0:50:C6S.wav
229,192,16629,1,0,0:0:0:50:G4S_s.wav
10,192,16800,1,0,0:0:0:50:C4S_s.wav
302,192,16971,1,0,0:0:0:50:G4S_s.wav
83,192,17143,1,0,0:0:0:50:C4S_s.wav
375,192,17143,1,0,0:0:0:50:C5S_s.wav
156,192,17229,1,0,0:0:0:50:C#5S_Db5S_s.wav
229,192,17314,1,0,0:0:0:50:G4S_s.wav
448,192,17314,1,0,0:0:0:50:D5S_s.wav
10,192,17400,1,0,0:0:0:50:D#5S_Eb5S_s.wav
83,192,17486,1,0,0:0:0:50:C4S_s.wav
302,192,17486,1,0,0:0:0:50:E5S_s.wav
375,192,17571,1,0,0:0:0:50:D#5S_Eb5S_s.wav
156,192,17657,1,0,0:0:0:50:G4S_s.wav
448,192,17657,1,0,0:0:0:50:D5S_s.wav
229,192,17743,1,0,0:0:0:50:C#5S_Db5S_s.wav
10,192,17829,1,0,0:0:0:50:C4S_s.wav
302,192,17829,1,0,0:0:0:50:C5S_s.wav
83,192,17914,1,0,0:0:0:50:C#5S_Db5S_s.wav
156,192,18000,1,0,0:0:0:50:G4S_s.wav
375,192,18000,1,0,0:0:0:50:D5S_s.wav
448,192,18086,1,0,0:0:0:50:D#5S_Eb5S_s.wav
10,192,18171,1,0,0:0:0:50:A4S_s.wav
229,192,18171,1,0,0:0:0:50:E5S_s.wav
302,192,18257,1,0,0:0:0:50:F5S_s.wav
83,192,18343,1,0,0:0:0:50:G4S_s.wav
375,192,18343,1,0,0:0:0:50:F#5S_Gb5S_s.wav
156,192,18429,1,0,0:0:0:50:G5S_s.wav
10,192,18514,1,0,0:0:0:50:F#4S_Gb4S_s.wav
448,192,18514,1,0,0:0:0:50:G#5S_Ab5S_s.wav
229,192,18600,1,0,0:0:0:50:A5S_s.wav
83,192,18686,1,0,0:0:0:50:E4S_s.wav
302,192,18686,1,0,0:0:0:50:G#5S_Ab5S_s.wav
375,192,18771,1,0,0:0:0:50:G5S_s.wav
156,192,18857,1,0,0:0:0:50:D4S_s.wav
448,192,18857,1,0,0:0:0:50:F#5S_Gb5S_s.wav
10,192,18943,1,0,0:0:0:50:F5S_s.wav
83,192,19029,1,0,0:0:0:50:C#4S_Db4S_s.wav
229,192,19029,1,0,0:0:0:50:E5S_s.wav
302,192,19114,1,0,0:0:0:50:D#5S_Eb5S_s.wav
156,192,19200,1,0,0:0:0:50:B3S_s.wav
375,192,19200,1,0,0:0:0:50:D5S_s.wav
448,192,19200,1,0,0:0:0:50:B5S.wav
10,192,19371,1,0,0:0:0:50:F#4S_Gb4S_s.wav
229,192,19371,1,0,0:0:0:50:E5S_s.wav
83,192,19543,1,0,0:0:0:50:B3S_s.wav
156,192,19714,1,0,0:0:0:50:F#4S_Gb4S_s.wav
302,192,19714,1,0,0:0:0:50:C#5S_Db5S_s.wav
448,192,19714,1,0,0:0:0:50:F#5S_Gb5S.wav
10,192,19886,1,0,0:0:0:50:B3S_s.wav
375,192,19886,1,0,0:0:0:50:D5S.wav
229,192,20057,1,0,0:0:0:50:F#4S_Gb4S_s.wav
83,192,20229,1,0,0:0:0:50:B3S_s.wav
448,192,20229,1,0,0:0:0:50:B4S.wav
156,192,20400,1,0,0:0:0:50:F#4S_Gb4S_s.wav
10,192,20571,1,0,0:0:0:50:B3S_s.wav
302,192,20571,1,0,0:0:0:50:F#4S_Gb4S_s.wav
375,192,20743,1,0,0:0:0:50:F#4S_Gb4S_s.wav
83,192,20914,1,0,0:0:0:50:B3S_s.wav
229,192,20914,1,0,0:0:0:50:E5S_s.wav
448,192,20914,1,0,0:0:0:50:B5S_s.wav
156,192,21086,1,0,0:0:0:50:F#4S_Gb4S_s.wav
302,192,21086,1,0,0:0:0:50:D5S_s.wav
10,192,21257,1,0,0:0:0:50:B3S_s.wav
375,192,21257,1,0,0:0:0:50:F#5S_Gb5S.wav
83,192,21429,1,0,0:0:0:50:F#4S_Gb4S_s.wav
229,192,21429,1,0,0:0:0:50:C#5S_Db5S_s.wav
156,192,21600,1,0,0:0:0:50:B3S_s.wav
302,192,21600,1,0,0:0:0:50:B4S_s.wav
448,192,21600,1,0,0:0:0:50:B5S_s.wav
10,192,21771,1,0,0:0:0:50:F#4S_Gb4S_s.wav
375,192,21771,1,0,0:0:0:50:C#5S_Db5S_s.wav
83,192,21943,1,0,0:0:0:50:A3S_s.wav
229,192,21943,1,0,0:0:0:50:D5S.wav
448,192,21943,1,0,0:0:0:50:A5S.wav
156,192,22114,1,0,0:0:0:50:E4S_s.wav
302,192,22286,1,0,0:0:0:50:A3S_s.wav
10,192,22457,1,0,0:0:0:50:E4S_s.wav
83,192,22629,1,0,0:0:0:50:A3S_s.wav
375,192,22629,1,0,0:0:0:50:C#5S_Db5S.wav
448,192,22800,1,0,0:0:0:50:E4S_s.wav
229,192,22971,1,0,0:0:0:50:A3S_s.wav
156,192,23143,1,0,0:0:0:50:E4S_s.wav
10,192,23314,1,0,0:0:0:50:A3S_s.wav
302,192,23314,1,0,0:0:0:50:B4S.wav
375,192,23486,1,0,0:0:0:50:E4S_s.wav
83,192,23657,1,0,0:0:0:50:D4S_s.wav
448,192,23829,1,0,0:0:0:50:C#4S_Db4S_s.wav
156,192,24000,1,0,0:0:0:50:D4S_s.wav
229,192,24000,1,0,0:0:0:50:C#5S_Db5S.wav
302,192,24171,1,0,0:0:0:50:C#4S_Db4S_s.wav
10,192,24343,1,0,0:0:0:50:A3S_s.wav
375,192,24514,1,0,0:0:0:50:G#3S_Ab3S_s.wav
83,192,24686,1,0,0:0:0:50:G3S_s.wav
156,192,24686,1,0,0:0:0:50:D5S_s.wav
448,192,24686,1,0,0:0:0:50:G5S.wav
229,192,24857,1,0,0:0:0:50:D4S_s.wav
302,192,24857,1,0,0:0:0:50:C#5S_Db5S_s.wav
10,192,25029,1,0,0:0:0:50:G3S_s.wav
375,192,25029,1,0,0:0:0:50:B4S_s.wav
156,192,25200,1,0,0:0:0:50:D4S_s.wav
448,192,25200,1,0,0:0:0:50:A4S_s.wav
83,192,25371,1,0,0:0:0:50:G3S_s.wav
302,192,25371,1,0,0:0:0:50:G4S_s.wav
229,192,25543,1,0,0:0:0:50:D4S_s.wav
10,192,25714,1,0,0:0:0:50:G3S_s.wav
375,192,25714,1,0,0:0:0:50:D5S_s.wav
156,192,25886,1,0,0:0:0:50:D4S_s.wav
448,192,25886,1,0,0:0:0:50:C#5S_Db5S_s.wav
83,192,26057,1,0,0:0:0:50:G3S_s.wav
229,192,26057,1,0,0:0:0:50:B4S_s.wav
302,192,26057,1,0,0:0:0:50:D6S.wav
10,192,26229,1,0,0:0:0:50:D4S_s.wav
375,192,26229,1,0,0:0:0:50:A4S_s.wav
156,192,26400,1,0,0:0:0:50:G3S_s.wav
448,192,26400,1,0,0:0:0:50:G4S_s.wav
302,192,26571,1,0,0:0:0:50:D4S_s.wav
10,192,26743,1,0,0:0:0:50:G3S_s.wav
83,192,26743,1,0,0:0:0:50:D5S_s.wav
229,192,26743,1,0,0:0:0:50:G5S.wav
156,192,26914,1,0,0:0:0:50:D4S_s.wav
375,192,26914,1,0,0:0:0:50:C#5S_Db5S_s.wav
302,192,27086,1,0,0:0:0:50:G3S_s.wav
448,192,27086,1,0,0:0:0:50:B4S_s.wav
10,192,27257,1,0,0:0:0:50:D4S_s.wav
83,192,27257,1,0,0:0:0:50:C#5S_Db5S_s.wav
156,192,27429,1,0,0:0:0:50:A3S_s.wav
229,192,27429,1,0,0:0:0:50:E5S_s.wav
375,192,27429,1,0,0:0:0:50:A5S.wav
302,192,27600,1,0,0:0:0:50:E4S_s.wav
83,192,27771,1,0,0:0:0:50:A3S_s.wav
448,192,27771,1,0,0:0:0:50:G4S_s.wav
10,192,27857,1,0,0:0:0:50:A4S_s.wav
156,192,27943,1,0,0:0:0:50:E4S_s.wav
375,192,27943,1,0,0:0:0:50:B4S_s.wav
229,192,28029,1,0,0:0:0:50:C#5S_Db5S_s.wav
83,192,28114,1,0,0:0:0:50:A3S_s.wav
302,192,28114,1,0,0:0:0:50:D5S_s.wav
448,192,28286,1,0,0:0:0:50:E4S_s.wav
10,192,28457,1,0,0:0:0:50:A3S_s.wav
375,192,28457,1,0,0:0:0:50:F#4S_Gb4S_s.wav
156,192,28543,1,0,0:0:0:50:G4S_s.wav
83,192,28629,1,0,0:0:0:50:E4S_s.wav
229,192,28629,1,0,0:0:0:50:A4S_s.wav
302,192,28714,1,0,0:0:0:50:B4S_s.wav
10,192,28800,1,0,0:0:0:50:A3S_s.wav
448,192,28800,1,0,0:0:0:50:C#5S_Db5S_s.wav
375,192,28971,1,0,0:0:0:50:E4S_s.wav
83,192,29143,1,0,0:0:0:50:D4S_s.wav
156,192,29143,1,0,0:0:0:50:G4S_s.wav
229,192,29229,1,0,0:0:0:50:A4S_s.wav
10,192,29314,1,0,0:0:0:50:C#4S_Db4S_s.wav
302,192,29314,1,0,0:0:0:50:B4S_s.wav
448,192,29400,1,0,0:0:0:50:C#5S_Db5S_s.wav
156,192,29486,1,0,0:0:0:50:D4S_s.wav
375,192,29486,1,0,0:0:0:50:D5S_s.wav
83,192,29657,1,0,0:0:0:50:C#4S_Db4S_s.wav
10,192,29829,1,0,0:0:0:50:A3S_s.wav
229,192,29829,1,0,0:0:0:50:G4S_s.wav
302,192,29914,1,0,0:0:0:50:A4S_s.wav
156,192,30000,1,0,0:0:0:50:G#3S_Ab3S_s.wav
448,192,30000,1,0,0:0:0:50:B4S_s.wav
375,192,30086,1,0,0:0:0:50:C#5S_Db5S_s.wav
10,192,30171,1,0,0:0:0:50:G3S_s.wav
83,192,30171,1,0,0:0:0:50:D5S_s.wav
229,192,30171,1,0,0:0:0:50:G5S.wav
156,192,30343,1,0,0:0:0:50:D4S_s.wav
302,192,30343,1,0,0:0:0:50:C#5S_Db5S_s.wav
375,192,30514,1,0,0:0:0:50:G3S_s.wav
448,192,30514,1,0,0:0:0:50:B4S_s.wav
83,192,30686,1,0,0:0:0:50:D4S_s.wav
229,192,30686,1,0,0:0:0:50:A4S_s.wav
10,192,30857,1,0,0:0:0:50:G3S_s.wav
302,192,30857,1,0,0:0:0:50:G4S_s.wav
156,192,31029,1,0,0:0:0:50:D4S_s.wav
375,192,31200,1,0,0:0:0:50:G3S_s.wav
448,192,31200,1,0,0:0:0:50:D5S_s.wav
83,192,31371,1,0,0:0:0:50:D4S_s.wav
229,192,31371,1,0,0:0:0:50:C#5S_Db5S_s.wav
10,192,31543,1,0,0:0:0:50:G3S_s.wav
156,192,31543,1,0,0:0:0:50:B4S_s.wav
302,192,31543,1,0,0:0:0:50:D6S.wav
375,192,31714,1,0,0:0:0:50:D4S_s.wav
448,192,31714,1,0,0:0:0:50:A4S_s.wav
83,192,31886,1,0,0:0:0:50:G3S_s.wav
229,192,31886,1,0,0:0:0:50:B4S_s.wav
10,192,32057,1,0,0:0:0:50:D4S_s.wav
302,192,32057,1,0,0:0:0:50:G4S_s.wav
156,192,32229,1,0,0:0:0:50:G3S_s.wav
375,192,32229,1,0,0:0:0:50:D5S_s.wav
448,192,32229,1,0,0:0:0:50:F#6S_Gb6S.wav
83,192,32400,1,0,0:0:0:50:D4S_s.wav
229,192,32400,1,0,0:0:0:50:E5S_s.wav
10,192,32571,1,0,0:0:0:50:G3S_s.wav
302,192,32571,1,0,0:0:0:50:F#5S_Gb5S_s.wav
156,192,32743,1,0,0:0:0:50:G#3S_Ab3S_s.wav
375,192,32743,1,0,0:0:0:50:G5S_s.wav
83,192,32914,1,0,0:0:0:50:A3S_s.wav
229,192,32914,1,0,0:0:0:50:A5S_s.wav
448,192,32914,1,0,0:0:0:50:E6S.wav
10,192,33086,1,0,0:0:0:50:E4S_s.wav
302,192,33086,1,0,0:0:0:50:B5S_s.wav
156,192,33257,1,0,0:0:0:50:A3S_s.wav
375,192,33257,1,0,0:0:0:50:A5S_s.wav
229,192,33429,1,0,0:0:0:50:E4S_s.wav
448,192,33429,1,0,0:0:0:50:G5S_s.wav
83,192,33600,1,0,0:0:0:50:A3S_s.wav
302,192,33600,1,0,0:0:0:50:A5S_s.wav
10,192,33771,1,0,0:0:0:50:E4S_s.wav
156,192,33943,1,0,0:0:0:50:A3S_s.wav
375,192,33943,1,0,0:0:0:50:A5S_s.wav
229,192,34114,1,0,0:0:0:50:E4S_s.wav
448,192,34114,1,0,0:0:0:50:B5S_s.wav
10,192,34286,1,0,0:0:0:50:A3S_s.wav
83,192,34286,1,0,0:0:0:50:A5S_s.wav
302,192,34286,1,0,0:0:0:50:G6S_s.wav
156,192,34457,1,0,0:0:0:50:E4S_s.wav
375,192,34457,1,0,0:0:0:50:G5S_s.wav
10,192,34629,1,0,0:0:0:50:A3S_s.wav
229,192,34629,1,0,0:0:0:50:F#5S_Gb5S_s.wav
448,192,34629,1,0,0:0:0:50:A6S_s.wav
83,192,34800,1,0,0:0:0:50:E4S_s.wav
302,192,34800,1,0,0:0:0:50:G5S_s.wav
375,192,34800,1,0,0:0:0:50:G6S_s.wav
10,192,34971,1,0,0:0:0:50:A3S_s.wav
156,192,34971,1,0,0:0:0:50:A5S_s.wav
448,192,34971,1,0,0:0:0:50:F#6S_Gb6S_s.wav
83,192,35143,1,0,0:0:0:50:E4S_s.wav
229,192,35143,1,0,0:0:0:50:E5S_s.wav
302,192,35143,1,0,0:0:0:50:E6S_s.wav
156,192,35314,1,0,0:0:0:50:D4S_s.wav
375,192,35314,1,0,0:0:0:50:G5S_s.wav
448,192,35314,1,0,0:0:0:50:D6S_s.wav
10,192,35486,1,0,0:0:0:50:C#4S_Db4S_s.wav
83,192,35486,1,0,0:0:0:50:F#5S_Gb5S_s.wav
302,192,35486,1,0,0:0:0:50:E6S_s.wav
156,192,35657,1,0,0:0:0:50:B3S_s.wav
229,192,35657,1,0,0:0:0:50:B4S_s.wav
375,192,35657,1,0,0:0:0:50:F#6S_Gb6S.wav
448,192,35743,1,0,0:0:0:50:C5S_s.wav
10,192,35829,1,0,0:0:0:50:F#4S_Gb4S_s.wav
302,192,35829,1,0,0:0:0:50:C#5S_Db5S_s.wav
83,192,35914,1,0,0:0:0:50:D5S_s.wav
156,192,36000,1,0,0:0:0:50:B3S_s.wav
375,192,36000,1,0,0:0:0:50:D#5S_Eb5S_s.wav
229,192,36086,1,0,0:0:0:50:E5S_s.wav
10,192,36171,1,0,0:0:0:50:F#4S_Gb4S_s.wav
448,192,36171,1,0,0:0:0:50:F5S_s.wav
302,192,36257,1,0,0:0:0:50:F#5S_Gb5S_s.wav
83,192,36343,1,0,0:0:0:50:B3S_s.wav
375,192,36343,1,0,0:0:0:50:G5S_s.wav
156,192,36429,1,0,0:0:0:50:G#5S_Ab5S_s.wav
229,192,36514,1,0,0:0:0:50:F#4S_Gb4S_s.wav
448,192,36514,1,0,0:0:0:50:A5S_s.wav
10,192,36600,1,0,0:0:0:50:A#5S_Bb5S_s.wav
83,192,36686,1,0,0:0:0:50:B3S_s.wav
302,192,36686,1,0,0:0:0:50:B5S_s.wav
375,192,36771,1,0,0:0:0:50:C6S_s.wav
156,192,36857,1,0,0:0:0:50:F#4S_Gb4S_s.wav
448,192,36857,1,0,0:0:0:50:C#6S_Db6S_s.wav
229,192,36943,1,0,0:0:0:50:D6S_s.wav
10,192,37029,1,0,0:0:0:50:B3S_s.wav
302,192,37029,1,0,0:0:0:50:D#6S_Eb6S_s.wav
83,192,37114,1,0,0:0:0:50:D6S_s.wav
156,192,37200,1,0,0:0:0:50:F#4S_Gb4S_s.wav
375,192,37200,1,0,0:0:0:50:C#6S_Db6S_s.wav
448,192,37286,1,0,0:0:0:50:C6S_s.wav
229,192,37371,1,0,0:0:0:50:D4S_s.wav
302,192,37371,1,0,0:0:0:50:B5S_s.wav
10,192,37457,1,0,0:0:0:50:A#5S_Bb5S_s.wav
83,192,37543,1,0,0:0:0:50:E4S_s.wav
375,192,37543,1,0,0:0:0:50:A5S_s.wav
156,192,37629,1,0,0:0:0:50:G#5S_Ab5S_s.wav
229,192,37714,1,0,0:0:0:50:F#4S_Gb4S_s.wav
448,192,37714,1,0,0:0:0:50:G5S_s.wav
302,192,37800,1,0,0:0:0:50:F#5S_Gb5S_s.wav
10,192,37886,1,0,0:0:0:50:E4S_s.wav
375,192,37886,1,0,0:0:0:50:F5S_s.wav
83,192,37971,1,0,0:0:0:50:E5S_s.wav
156,192,38057,1,0,0:0:0:50:D4S_s.wav
229,192,38057,1,0,0:0:0:50:D#5S_Eb5S_s.wav
448,192,38143,1,0,0:0:0:50:D5S_s.wav
10,192,38229,1,0,0:0:0:50:B3S_s.wav
302,192,38229,1,0,0:0:0:50:C#5S_Db5S_s.wav
375,192,38314,1,0,0:0:0:50:C5S_s.wav
83,192,38400,1,0,0:0:0:50:C4S_s.wav
156,192,38400,1,0,0:0:0:50:C5S_s.wav
229,192,38400,1,0,0:0:0:50:G6S.wav
448,192,38486,1,0,0:0:0:50:C#5S_Db5S_s.wav
10,192,38571,1,0,0:0:0:50:G4S_s.wav
302,192,38571,1,0,0:0:0:50:D5S_s.wav
375,192,38657,1,0,0:0:0:50:D#5S_Eb5S_s.wav
83,192,38743,1,0,0:0:0:50:C4S_s.wav
156,192,38743,1,0,0:0:0:50:E5S_s.wav
229,192,38829,1,0,0:0:0:50:F5S_s.wav
10,192,38914,1,0,0:0:0:50:G4S_s.wav
448,192,38914,1,0,0:0:0:50:F#5S_Gb5S_s.wav
302,192,39000,1,0,0:0:0:50:G5S_s.wav
83,192,39086,1,0,0:0:0:50:C4S_s.wav
375,192,39086,1,0,0:0:0:50:G#5S_Ab5S_s.wav
156,192,39171,1,0,0:0:0:50:A5S_s.wav
10,192,39257,1,0,0:0:0:50:G4S_s.wav
229,192,39257,1,0,0:0:0:50:A#5S_Bb5S_s.wav
448,192,39343,1,0,0:0:0:50:B5S_s.wav
83,192,39429,1,0,0:0:0:50:C4S_s.wav
302,192,39429,1,0,0:0:0:50:C6S_s.wav
375,192,39514,1,0,0:0:0:50:C#6S_Db6S_s.wav
10,192,39600,1,0,0:0:0:50:G4S_s.wav
156,192,39600,1,0,0:0:0:50:D6S_s.wav
229,192,39686,1,0,0:0:0:50:D#6S_Eb6S_s.wav
83,192,39771,1,0,0:0:0:50:C4S_s.wav
302,192,39771,1,0,0:0:0:50:E6S_s.wav
448,192,39771,1,0,0:0:0:50:G6S.wav
375,192,39857,1,0,0:0:0:50:D#6S_Eb6S_s.wav
10,192,39943,1,0,0:0:0:50:G4S_s.wav
156,192,39943,1,0,0:0:0:50:D6S_s.wav
229,192,40029,1,0,0:0:0:50:C#6S_Db6S_s.wav
83,192,40114,1,0,0:0:0:50:D#4S_Eb4S_s.wav
302,192,40114,1,0,0:0:0:50:C6S_s.wav
448,192,40114,1,0,0:0:0:50:A6S_s.wav
375,192,40200,1,0,0:0:0:50:B5S_s.wav
10,192,40286,1,0,0:0:0:50:F4S_s.wav
156,192,40286,1,0,0:0:0:50:A#5S_Bb5S_s.wav
229,192,40286,1,0,0:0:0:50:G6S_s.wav
448,192,40371,1,0,0:0:0:50:A5S_s.wav
83,192,40457,1,0,0:0:0:50:G4S_s.wav
302,192,40457,1,0,0:0:0:50:G#5S_Ab5S_s.wav
375,192,40543,1,0,0:0:0:50:G5S_s.wav
10,192,40629,1,0,0:0:0:50:F4S_s.wav
156,192,40629,1,0,0:0:0:50:F#5S_Gb5S_s.wav
229,192,40629,1,0,0:0:0:50:F#6S_Gb6S_s.wav
448,192,40714,1,0,0:0:0:50:F5S_s.wav
83,192,40800,1,0,0:0:0:50:D#4S_Eb4S_s.wav
302,192,40800,1,0,0:0:0:50:E5S_s.wav
375,192,40800,1,0,0:0:0:50:E6S_s.wav
156,192,40886,1,0,0:0:0:50:D#5S_Eb5S_s.wav
10,192,40971,1,0,0:0:0:50:C4S_s.wav
229,192,40971,1,0,0:0:0:50:D5S_s.wav
448,192,40971,1,0,0:0:0:50:F#6S_Gb6S_s.wav
83,192,41057,1,0,0:0:0:50:C#5S_Db5S_s.wav
156,192,41143,1,0,0:0:0:50:C#4S_Db4S_s.wav
302,192,41143,1,0,0:0:0:50:C#5S_Db5S_s.wav
375,192,41143,1,0,0:0:0:50:G#6S_Ab6S.wav
448,192,41229,1,0,0:0:0:50:D5S_s.wav
10,192,41314,1,0,0:0:0:50:G#4S_Ab4S_s.wav
229,192,41314,1,0,0:0:0:50:D#5S_Eb5S_s.wav
83,192,41400,1,0,0:0:0:50:E5S_s.wav
156,192,41486,1,0,0:0:0:50:C#4S_Db4S_s.wav
302,192,41486,1,0,0:0:0:50:F5S_s.wav
375,192,41571,1,0,0:0:0:50:F#5S_Gb5S_s.wav
229,192,41657,1,0,0:0:0:50:G#4S_Ab4S_s.wav
448,192,41657,1,0,0:0:0:50:G5S_s.wav
10,192,41743,1,0,0:0:0:50:G#5S_Ab5S_s.wav
83,192,41829,1,0,0:0:0:50:C#4S_Db4S_s.wav
302,192,41829,1,0,0:0:0:50:A5S_s.wav
156,192,41914,1,0,0:0:0:50:A#5S_Bb5S_s.wav
375,192,42000,1,0,0:0:0:50:G#4S_Ab4S_s.wav
448,192,42000,1,0,0:0:0:50:B5S_s.wav
229,192,42086,1,0,0:0:0:50:C6S_s.wav
10,192,42171,1,0,0:0:0:50:C#4S_Db4S_s.wav
302,192,42171,1,0,0:0:0:50:C#6S_Db6S_s.wav
83,192,42257,1,0,0:0:0:50:D6S_s.wav
156,192,42343,1,0,0:0:0:50:G#4S_Ab4S_s.wav
375,192,42343,1,0,0:0:0:50:D#6S_Eb6S_s.wav
448,192,42429,1,0,0:0:0:50:E6S_s.wav
229,192,42514,1,0,0:0:0:50:C#4S_Db4S_s.wav
302,192,42514,1,0,0:0:0:50:F6S_s.wav
10,192,42600,1,0,0:0:0:50:E6S_s.wav
83,192,42686,1,0,0:0:0:50:G#4S_Ab4S_s.wav
375,192,42686,1,0,0:0:0:50:D#6S_Eb6S_s.wav
156,192,42771,1,0,0:0:0:50:D6S_s.wav
302,192,42857,1,0,0:0:0:50:E4S_s.wav
448,192,42857,1,0,0:0:0:50:C#6S_Db6S_s.wav
229,192,42943,1,0,0:0:0:50:C6S_s.wav
10,192,43029,1,0,0:0:0:50:F#4S_Gb4S_s.wav
375,192,43029,1,0,0:0:0:50:B5S_s.wav
83,192,43114,1,0,0:0:0:50:A#5S_Bb5S_s.wav
156,192,43200,1,0,0:0:0:50:G#4S_Ab4S_s.wav
448,192,43200,1,0,0:0:0:50:A5S_s.wav
302,192,43286,1,0,0:0:0:50:G#5S_Ab5S_s.wav
229,192,43371,1,0,0:0:0:50:F#4S_Gb4S_s.wav
375,192,43371,1,0,0:0:0:50:G5S_s.wav
10,192,43457,1,0,0:0:0:50:F#5S_Gb5S_s.wav
83,192,43543,1,0,0:0:0:50:E4S_s.wav
448,192,43543,1,0,0:0:0:50:F5S_s.wav
156,192,43629,1,0,0:0:0:50:E5S_s.wav
302,192,43714,1,0,0:0:0:50:C#4S_Db4S_s.wav
375,192,43714,1,0,0:0:0:50:D#5S_Eb5S_s.wav
229,192,43800,1,0,0:0:0:50:D5S_s.wav
10,192,43886,1,0,0:0:0:50:D4S_s.wav
83,192,43886,1,0,0:0:0:50:D5S_s.wav
448,192,43886,1,0,0:0:0:50:A6S.wav
156,192,43971,1,0,0:0:0:50:D#5S_Eb5S_s.wav
302,192,44057,1,0,0:0:0:50:A4S_s.wav
375,192,44057,1,0,0:0:0:50:E5S_s.wav
229,192,44143,1,0,0:0:0:50:F5S_s.wav
10,192,44229,1,0,0:0:0:50:D4S_s.wav
448,192,44229,1,0,0:0:0:50:F#5S_Gb5S_s.wav
83,192,44314,1,0,0:0:0:50:G5S_s.wav
156,192,44400,1,0,0:0:0:50:A4S_s.wav
302,192,44400,1,0,0:0:0:50:G#5S_Ab5S_s.wav
375,192,44486,1,0,0:0:0:50:A5S_s.wav
10,192,44571,1,0,0:0:0:50:D4S_s.wav
229,192,44571,1,0,0:0:0:50:A#5S_Bb5S_s.wav
448,192,44657,1,0,0:0:0:50:B5S_s.wav
83,192,44743,1,0,0:0:0:50:A4S_s.wav
302,192,44743,1,0,0:0:0:50:C6S_s.wav
156,192,44829,1,0,0:0:0:50:C#6S_Db6S_s.wav
229,192,44914,1,0,0:0:0:50:D4S_s.wav
375,192,44914,1,0,0:0:0:50:D6S_s.wav
10,192,45000,1,0,0:0:0:50:D#6S_Eb6S_s.wav
83,192,45086,1,0,0:0:0:50:A4S_s.wav
448,192,45086,1,0,0:0:0:50:E6S_s.wav
302,192,45171,1,0,0:0:0:50:F6S_s.wav
156,192,45257,1,0,0:0:0:50:D4S_s.wav
229,192,45257,1,0,0:0:0:50:F#6S_Gb6S_s.wav
375,192,45257,1,0,0:0:0:50:C#7S_Db7S.wav
10,192,45343,1,0,0:0:0:50:F6S_s.wav
83,192,45429,1,0,0:0:0:50:A4S_s.wav
448,192,45429,1,0,0:0:0:50:E6S_s.wav
302,192,45514,1,0,0:0:0:50:D#6S_Eb6S_s.wav
156,192,45600,1,0,0:0:0:50:F4S_s.wav
229,192,45600,1,0,0:0:0:50:D6S_s.wav
375,192,45686,1,0,0:0:0:50:C#6S_Db6S_s.wav
10,192,45771,1,0,0:0:0:50:G4S_s.wav
448,192,45771,1,0,0:0:0:50:C6S_s.wav
83,192,45857,1,0,0:0:0:50:B5S_s.wav
156,192,45943,1,0,0:0:0:50:A4S_s.wav
229,192,45943,1,0,0:0:0:50:A#5S_Bb5S_s.wav
302,192,45943,1,0,0:0:0:50:E7S.wav
375,192,46029,1,0,0:0:0:50:B5S_s.wav
10,192,46114,1,0,0:0:0:50:G4S_s.wav
448,192,46114,1,0,0:0:0:50:C6S_s.wav
83,192,46200,1,0,0:0:0:50:C#6S_Db6S_s.wav
229,192,46286,1,0,0:0:0:50:F4S_s.wav
302,192,46286,1,0,0:0:0:50:D6S_s.wav
156,192,46371,1,0,0:0:0:50:D#6S_Eb6S_s.wav
10,192,46457,1,0,0:0:0:50:E4S_s.wav
375,192,46457,1,0,0:0:0:50:E6S_s.wav
448,192,46543,1,0,0:0:0:50:F6S_s.wav
83,192,46629,1,0,0:0:0:50:D4S_s.wav
156,192,46629,1,0,0:0:0:50:D5S_s.wav
229,192,46629,1,0,0:0:0:50:D6S_s.wav
302,192,46629,1,0,0:0:0:50:D7S_s.wav
10,192,46971,1,0,0:0:0:50:A3S_s.wav
375,192,46971,1,0,0:0:0:50:A5S_s.wav
448,192,46971,1,0,0:0:0:50:A6S.wav
156,192,47314,1,0,0:0:0:50:C4S_s.wav
229,192,47314,1,0,0:0:0:50:C6S_s.wav
302,192,47314,1,0,0:0:0:50:C7S_s.wav
10,192,47486,1,0,0:0:0:50:B3S_s.wav
83,192,47486,1,0,0:0:0:50:B5S_s.wav
375,192,47486,1,0,0:0:0:50:B6S.wav
448,192,47571,1,0,0:0:0:50:D5S_s.wav
156,192,47657,1,0,0:0:0:50:B3S_s.wav
302,192,47657,1,0,0:0:0:50:E5S_s.wav
229,192,47743,1,0,0:0:0:50:F5S_s.wav
10,192,47829,1,0,0:0:0:50:G4S_s.wav
375,192,47829,1,0,0:0:0:50:G5S_s.wav
83,192,47914,1,0,0:0:0:50:A5S_s.wav
156,192,48000,1,0,0:0:0:50:B3S_s.wav
448,192,48000,1,0,0:0:0:50:B5S_s.wav
229,192,48171,1,0,0:0:0:50:G4S_s.wav
302,192,48171,1,0,0:0:0:50:C6S_s.wav
10,192,48343,1,0,0:0:0:50:B3S_s.wav
375,192,48343,1,0,0:0:0:50:A5S_s.wav
83,192,48514,1,0,0:0:0:50:G4S_s.wav
448,192,48514,1,0,0:0:0:50:C6S_s.wav
156,192,48686,1,0,0:0:0:50:B3S_s.wav
302,192,48686,1,0,0:0:0:50:G5S_s.wav
10,192,48857,1,0,0:0:0:50:G4S_s.wav
229,192,48857,1,0,0:0:0:50:B5S_s.wav
83,192,49029,1,0,0:0:0:50:B3S_s.wav
375,192,49029,1,0,0:0:0:50:F5S_s.wav
156,192,49200,1,0,0:0:0:50:G4S_s.wav
448,192,49200,1,0,0:0:0:50:G5S_s.wav
229,192,49371,1,0,0:0:0:50:B3S_s.wav
302,192,49371,1,0,0:0:0:50:A5S_s.wav
10,192,49543,1,0,0:0:0:50:G4S_s.wav
375,192,49543,1,0,0:0:0:50:C6S_s.wav
83,192,49714,1,0,0:0:0:50:B3S_s.wav
448,192,49714,1,0,0:0:0:50:D6S_s.wav
156,192,49886,1,0,0:0:0:50:G4S_s.wav
10,192,50057,1,0,0:0:0:50:D4S_s.wav
229,192,50057,1,0,0:0:0:50:D6S_s.wav
302,192,50057,1,0,0:0:0:50:D7S_s.wav
83,192,50400,1,0,0:0:0:50:A3S_s.wav
375,192,50400,1,0,0:0:0:50:A5S_s.wav
448,192,50400,1,0,0:0:0:50:A6S_s.wav
156,192,50743,1,0,0:0:0:50:A#3S_Bb3S_s.wav
229,192,50743,1,0,0:0:0:50:A#5S_Bb5S_s.wav
302,192,50743,1,0,0:0:0:50:A#6S_Bb6S_s.wav
10,192,50914,1,0,0:0:0:50:F4S_s.wav
83,192,50914,1,0,0:0:0:50:F6S_s.wav
448,192,50914,1,0,0:0:0:50:F7S.wav
156,192,51086,1,0,0:0:0:50:A#3S_Bb3S_s.wav
375,192,51086,1,0,0:0:0:50:A#5S_Bb5S_s.wav
229,192,51171,1,0,0:0:0:50:C6S_s.wav
10,192,51257,1,0,0:0:0:50:F4S_s.wav
302,192,51257,1,0,0:0:0:50:D6S_s.wav
448,192,51343,1,0,0:0:0:50:E6S_s.wav
83,192,51429,1,0,0:0:0:50:A#3S_Bb3S_s.wav
375,192,51429,1,0,0:0:0:50:E6S_s.wav
156,192,51600,1,0,0:0:0:50:F4S_s.wav
229,192,51600,1,0,0:0:0:50:F6S_s.wav
10,192,51771,1,0,0:0:0:50:A#3S_Bb3S_s.wav
302,192,51771,1,0,0:0:0:50:D6S_s.wav
83,192,51943,1,0,0:0:0:50:F4S_s.wav
448,192,51943,1,0,0:0:0:50:F6S_s.wav
156,192,52114,1,0,0:0:0:50:A#3S_Bb3S_s.wav
229,192,52114,1,0,0:0:0:50:E6S_s.wav
375,192,52114,1,0,0:0:0:50:G7S.wav
10,192,52286,1,0,0:0:0:50:F4S_s.wav
302,192,52286,1,0,0:0:0:50:F6S_s.wav
83,192,52457,1,0,0:0:0:50:A#3S_Bb3S_s.wav
448,192,52457,1,0,0:0:0:50:D6S_s.wav
156,192,52629,1,0,0:0:0:50:F4S_s.wav
375,192,52629,1,0,0:0:0:50:F6S_s.wav
229,192,52800,1,0,0:0:0:50:A#3S_Bb3S_s.wav
302,192,52800,1,0,0:0:0:50:E6S_s.wav
10,192,52971,1,0,0:0:0:50:F4S_s.wav
448,192,52971,1,0,0:0:0:50:F6S_s.wav
83,192,53143,1,0,0:0:0:50:A#3S_Bb3S_s.wav
375,192,53143,1,0,0:0:0:50:D6S_s.wav
156,192,53314,1,0,0:0:0:50:F4S_s.wav
302,192,53314,1,0,0:0:0:50:F6S_s.wav
10,192,53486,1,0,0:0:0:50:B3S_s.wav
229,192,53486,1,0,0:0:0:50:E6S_s.wav
448,192,53486,1,0,0:0:0:50:E7S.wav
83,192,53657,1,0,0:0:0:50:E4S_s.wav
375,192,53657,1,0,0:0:0:50:F6S_s.wav
156,192,53829,1,0,0:0:0:50:B3S_s.wav
302,192,53829,1,0,0:0:0:50:E6S_s.wav
10,192,54000,1,0,0:0:0:50:E4S_s.wav
448,192,54000,1,0,0:0:0:50:F6S_s.wav
83,192,54171,1,0,0:0:0:50:B3S_s.wav
229,192,54171,1,0,0:0:0:50:E6S_s.wav
156,192,54343,1,0,0:0:0:50:E4S_s.wav
375,192,54343,1,0,0:0:0:50:F6S_s.wav
10,192,54514,1,0,0:0:0:50:B3S_s.wav
302,192,54514,1,0,0:0:0:50:E6S_s.wav
83,192,54686,1,0,0:0:0:50:E4S_s.wav
448,192,54686,1,0,0:0:0:50:F6S_s.wav
156,192,54857,1,0,0:0:0:50:B3S_s.wav
229,192,54857,1,0,0:0:0:50:E6S_s.wav
10,192,55029,1,0,0:0:0:50:E4S_s.wav
375,192,55029,1,0,0:0:0:50:F6S_s.wav
83,192,55200,1,0,0:0:0:50:B3S_s.wav
302,192,55200,1,0,0:0:0:50:E6S_s.wav
229,192,55371,1,0,0:0:0:50:E4S_s.wav
448,192,55371,1,0,0:0:0:50:F6S_s.wav
156,192,55543,1,0,0:0:0:50:B3S_s.wav
375,192,55543,1,0,0:0:0:50:E6S_s.wav
10,192,55714,1,0,0:0:0:50:E4S_s.wav
302,192,55714,1,0,0:0:0:50:F6S_s.wav
83,192,55886,1,0,0:0:0:50:B3S_s.wav
448,192,55886,1,0,0:0:0:50:E6S_s.wav
156,192,56057,1,0,0:0:0:50:E4S_s.wav
229,192,56057,1,0,0:0:0:50:B5S_s.wav
10,192,56229,1,0,0:0:0:50:A3S_s.wav
302,192,56229,1,0,0:0:0:50:C5S_s.wav
375,192,56229,1,0,0:0:0:50:C6S.wav
83,192,56400,1,0,0:0:0:50:E4S_s.wav
448,192,56400,1,0,0:0:0:50:A4S_s.wav
156,192,56571,1,0,0:0:0:50:A3S_s.wav
229,192,56571,1,0,0:0:0:50:E5S_s.wav
10,192,56743,1,0,0:0:0:50:E4S_s.wav
302,192,56743,1,0,0:0:0:50:C5S_s.wav
375,192,56743,1,0,0:0:0:50:A5S.wav
83,192,56914,1,0,0:0:0:50:A3S_s.wav
448,192,56914,1,0,0:0:0:50:A4S_s.wav
156,192,57086,1,0,0:0:0:50:E4S_s.wav
229,192,57086,1,0,0:0:0:50:E5S_s.wav
10,192,57257,1,0,0:0:0:50:A3S_s.wav
375,192,57257,1,0,0:0:0:50:C5S_s.wav
83,192,57429,1,0,0:0:0:50:E4S_s.wav
302,192,57429,1,0,0:0:0:50:A4S_s.wav
229,192,57600,1,0,0:0:0:50:A3S_s.wav
448,192,57600,1,0,0:0:0:50:E5S_s.wav
156,192,57771,1,0,0:0:0:50:E4S_s.wav
375,192,57771,1,0,0:0:0:50:C5S_s.wav
10,192,57943,1,0,0:0:0:50:A3S_s.wav
83,192,57943,1,0,0:0:0:50:A4S_s.wav
302,192,57943,1,0,0:0:0:50:C6S_s.wav
229,192,58114,1,0,0:0:0:50:E4S_s.wav
448,192,58114,1,0,0:0:0:50:E5S_s.wav
10,192,58286,1,0,0:0:0:50:A3S_s.wav
156,192,58286,1,0,0:0:0:50:C5S_s.wav
375,192,58286,1,0,0:0:0:50:A5S_s.wav
83,192,58457,1,0,0:0:0:50:E4S_s.wav
302,192,58457,1,0,0:0:0:50:A4S_s.wav
10,192,58629,1,0,0:0:0:50:A3S_s.wav
229,192,58629,1,0,0:0:0:50:C5S_s.wav
448,192,58629,1,0,0:0:0:50:C6S_s.wav
156,192,58800,1,0,0:0:0:50:E4S_s.wav
375,192,58800,1,0,0:0:0:50:E5S_s.wav
83,192,58971,1,0,0:0:0:50:A#3S_Bb3S_s.wav
302,192,58971,1,0,0:0:0:50:D5S_s.wav
448,192,58971,1,0,0:0:0:50:A#5S_Bb5S.wav
10,192,59143,1,0,0:0:0:50:F4S_s.wav
229,192,59143,1,0,0:0:0:50:A#4S_Bb4S_s.wav
156,192,59314,1,0,0:0:0:50:A#3S_Bb3S_s.wav
375,192,59314,1,0,0:0:0:50:F5S_s.wav
83,192,59486,1,0,0:0:0:50:F4S_s.wav
302,192,59486,1,0,0:0:0:50:D5S_s.wav
448,192,59486,1,0,0:0:0:50:F6S.wav
10,192,59657,1,0,0:0:0:50:A#3S_Bb3S_s.wav
229,192,59657,1,0,0:0:0:50:A#4S_Bb4S_s.wav
156,192,59829,1,0,0:0:0:50:F4S_s.wav
375,192,59829,1,0,0:0:0:50:F5S_s.wav
83,192,60000,1,0,0:0:0:50:A#3S_Bb3S_s.wav
302,192,60000,1,0,0:0:0:50:D5S_s.wav
229,192,60171,1,0,0:0:0:50:F4S_s.wav
448,192,60171,1,0,0:0:0:50:A#4S_Bb4S_s.wav
10,192,60343,1,0,0:0:0:50:A#3S_Bb3S_s.wav
375,192,60343,1,0,0:0:0:50:F5S_s.wav
156,192,60514,1,0,0:0:0:50:F4S_s.wav
302,192,60514,1,0,0:0:0:50:D5S_s.wav
83,192,60686,1,0,0:0:0:50:A#3S_Bb3S_s.wav
229,192,60686,1,0,0:0:0:50:A#4S_Bb4S_s.wav
448,192,60686,1,0,0:0:0:50:A#5S_Bb5S_s.wav
10,192,60857,1,0,0:0:0:50:F4S_s.wav
375,192,60857,1,0,0:0:0:50:F5S_s.wav
156,192,61029,1,0,0:0:0:50:A#3S_Bb3S_s.wav
302,192,61029,1,0,0:0:0:50:D5S_s.wav
448,192,61029,1,0,0:0:0:50:F6S_s.wav
83,192,61200,1,0,0:0:0:50:F4S_s.wav
229,192,61200,1,0,0:0:0:50:A#4S_Bb4S_s.wav
10,192,61371,1,0,0:0:0:50:A#3S_Bb3S_s.wav
156,192,61371,1,0,0:0:0:50:D5S_s.wav
375,192,61371,1,0,0:0:0:50:D6S.wav
302,192,61543,1,0,0:0:0:50:F4S_s.wav
448,192,61543,1,0,0:0:0:50:F5S_s.wav
83,192,61714,1,0,0:0:0:50:A3S_s.wav
229,192,61714,1,0,0:0:0:50:C5S_s.wav
375,192,61714,1,0,0:0:0:50:C6S.wav
10,192,61886,1,0,0:0:0:50:E4S_s.wav
156,192,61886,1,0,0:0:0:50:A4S_s.wav
302,192,62057,1,0,0:0:0:50:A3S_s.wav
448,192,62057,1,0,0:0:0:50:E5S_s.wav
83,192,62229,1,0,0:0:0:50:E4S_s.wav
229,192,62229,1,0,0:0:0:50:C5S_s.wav
375,192,62229,1,0,0:0:0:50:A5S.wav
10,192,62400,1,0,0:0:0:50:A3S_s.wav
156,192,62400,1,0,0:0:0:50:A4S_s.wav
302,192,62571,1,0,0:0:0:50:E4S_s.wav
448,192,62571,1,0,0:0:0:50:E5S_s.wav
83,192,62743,1,0,0:0:0:50:A3S_s.wav
375,192,62743,1,0,0:0:0:50:C5S_s.wav
156,192,62914,1,0,0:0:0:50:E4S_s.wav
229,192,62914,1,0,0:0:0:50:A4S_s.wav
10,192,63086,1,0,0:0:0:50:A3S_s.wav
448,192,63086,1,0,0:0:0:50:E5S_s.wav
83,192,63257,1,0,0:0:0:50:E4S_s.wav
302,192,63257,1,0,0:0:0:50:C5S_s.wav
156,192,63429,1,0,0:0:0:50:A3S_s.wav
229,192,63429,1,0,0:0:0:50:A4S_s.wav
375,192,63429,1,0,0:0:0:50:C6S.wav
10,192,63600,1,0,0:0:0:50:E4S_s.wav
448,192,63600,1,0,0:0:0:50:E5S_s.wav
83,192,63771,1,0,0:0:0:50:A3S_s.wav
302,192,63771,1,0,0:0:0:50:C5S_s.wav
375,192,63771,1,0,0:0:0:50:E6S_s.wav
10,192,63943,1,0,0:0:0:50:E4S_s.wav
156,192,63943,1,0,0:0:0:50:A4S_s.wav
229,192,63943,1,0,0:0:0:50:D6S_s.wav
83,192,64114,1,0,0:0:0:50:A3S_s.wav
302,192,64114,1,0,0:0:0:50:C5S_s.wav
448,192,64114,1,0,0:0:0:50:C6S_s.wav
10,192,64286,1,0,0:0:0:50:E4S_s.wav
156,192,64286,1,0,0:0:0:50:E5S_s.wav
375,192,64286,1,0,0:0:0:50:E6S_s.wav
83,192,64457,1,0,0:0:0:50:A#3S_Bb3S_s.wav
229,192,64457,1,0,0:0:0:50:D5S_s.wav
302,192,64457,1,0,0:0:0:50:D6S_s.wav
10,192,64629,1,0,0:0:0:50:F4S_s.wav
375,192,64629,1,0,0:0:0:50:A#4S_Bb4S_s.wav
448,192,64629,1,0,0:0:0:50:A#5S_Bb5S_s.wav
156,192,64800,1,0,0:0:0:50:A#3S_Bb3S_s.wav
302,192,64800,1,0,0:0:0:50:F5S_s.wav
83,192,64971,1,0,0:0:0:50:F4S_s.wav
229,192,64971,1,0,0:0:0:50:D5S_s.wav
375,192,64971,1,0,0:0:0:50:F6S.wav
10,192,65143,1,0,0:0:0:50:A#3S_Bb3S_s.wav
448,192,65143,1,0,0:0:0:50:A#4S_Bb4S_s.wav
156,192,65314,1,0,0:0:0:50:F4S_s.wav
302,192,65314,1,0,0:0:0:50:F5S_s.wav
83,192,65486,1,0,0:0:0:50:A#3S_Bb3S_s.wav
229,192,65486,1,0,0:0:0:50:D5S_s.wav
10,192,65657,1,0,0:0:0:50:F4S_s.wav
375,192,65657,1,0,0:0:0:50:A#4S_Bb4S_s.wav
156,192,65829,1,0,0:0:0:50:A#3S_Bb3S_s.wav
302,192,65829,1,0,0:0:0:50:F5S_s.wav
448,192,65829,1,0,0:0:0:50:G6S.wav
83,192,66000,1,0,0:0:0:50:F4S_s.wav
229,192,66000,1,0,0:0:0:50:D5S_s.wav
10,192,66171,1,0,0:0:0:50:A#3S_Bb3S_s.wav
375,192,66171,1,0,0:0:0:50:A#4S_Bb4S_s.wav
156,192,66343,1,0,0:0:0:50:F4S_s.wav
302,192,66343,1,0,0:0:0:50:F5S_s.wav
448,192,66343,1,0,0:0:0:50:F6S.wav
83,192,66514,1,0,0:0:0:50:A#3S_Bb3S_s.wav
229,192,66514,1,0,0:0:0:50:D5S_s.wav
10,192,66686,1,0,0:0:0:50:F4S_s.wav
375,192,66686,1,0,0:0:0:50:A#4S_Bb4S_s.wav
156,192,66857,1,0,0:0:0:50:A#3S_Bb3S_s.wav
302,192,66857,1,0,0:0:0:50:D5S_s.wav
448,192,66857,1,0,0:0:0:50:D6S_s.wav
83,192,67029,1,0,0:0:0:50:F4S_s.wav
229,192,67029,1,0,0:0:0:50:F5S_s.wav
10,192,67200,1,0,0:0:0:50:A#3S_Bb3S_s.wav
156,192,67200,1,0,0:0:0:50:D5S.wav
375,192,67200,1,0,0:0:0:50:F6S.wav
448,192,67543,1,0,0:0:0:50:F4S_s.wav
229,192,67886,1,0,0:0:0:50:A#3S_Bb3S_s.wav
302,192,67886,1,0,0:0:0:50:F5S.wav
83,192,68229,1,0,0:0:0:50:F4S_s.wav
10,192,68571,1,0,0:0:0:50:A#3S_Bb3S_s.wav
156,192,68571,1,0,0:0:0:50:A#4S_Bb4S.wav
375,192,68571,1,0,0:0:0:50:E6S.wav
448,192,68914,1,0,0:0:0:50:E4S_s.wav
229,192,69257,1,0,0:0:0:50:A#3S_Bb3S_s.wav
302,192,69257,1,0,0:0:0:50:C5S.wav
83,192,69600,1,0,0:0:0:50:E4S_s.wav
10,192,69943,1,0,0:0:0:50:A#3S_Bb3S_s.wav
156,192,69943,1,0,0:0:0:50:D5S.wav
375,192,69943,1,0,0:0:0:50:D6S.wav
448,192,70286,1,0,0:0:0:50:D4S_s.wav
229,192,70629,1,0,0:0:0:50:A#3S_Bb3S_s.wav
302,192,70629,1,0,0:0:0:50:F5S.wav
83,192,70971,1,0,0:0:0:50:D4S_s.wav
10,192,71314,1,0,0:0:0:50:G4S_s.wav
156,192,71314,1,0,0:0:0:50:A#4S_Bb4S.wav
375,192,71314,1,0,0:0:0:50:E6S.wav
448,192,71657,1,0,0:0:0:50:E4S_s.wav
229,192,72000,1,0,0:0:0:50:A#3S_Bb3S_s.wav
302,192,72000,1,0,0:0:0:50:E5S_s.wav
83,192,72343,1,0,0:0:0:50:E4S_s.wav
375,192,72343,1,0,0:0:0:50:F5S_s.wav
10,192,72429,1,0,0:0:0:50:A5S_s.wav
156,192,72514,1,0,0:0:0:50:A#5S_Bb5S_s.wav
448,192,72600,1,0,0:0:0:50:C6S_s.wav
83,192,72686,1,0,0:0:0:50:A#3S_Bb3S_s.wav
229,192,72686,1,0,0:0:0:50:D6S.wav
302,192,72686,1,0,0:0:0:50:F7S.wav
375,192,73029,1,0,0:0:0:50:F4S_s.wav
10,192,73371,1,0,0:0:0:50:A#3S_Bb3S_s.wav
156,192,73371,1,0,0:0:0:50:F6S.wav
448,192,73714,1,0,0:0:0:50:F4S_s.wav
83,192,74057,1,0,0:0:0:50:A#3S_Bb3S_s.wav
229,192,74057,1,0,0:0:0:50:A#5S_Bb5S.wav
302,192,74057,1,0,0:0:0:50:E7S.wav
375,192,74400,1,0,0:0:0:50:E4S_s.wav
10,192,74743,1,0,0:0:0:50:A#3S_Bb3S_s.wav
156,192,74743,1,0,0:0:0:50:C6S.wav
448,192,75086,1,0,0:0:0:50:E4S_s.wav
83,192,75429,1,0,0:0:0:50:A#3S_Bb3S_s.wav
229,192,75429,1,0,0:0:0:50:D6S.wav
302,192,75429,1,0,0:0:0:50:G7S.wav
375,192,75771,1,0,0:0:0:50:D4S_s.wav
10,192,76114,1,0,0:0:0:50:A#3S_Bb3S_s.wav
156,192,76114,1,0,0:0:0:50:E6S.wav
448,192,76457,1,0,0:0:0:50:D4S_s.wav
83,192,76800,1,0,0:0:0:50:A#3S_Bb3S_s.wav
229,192,76800,1,0,0:0:0:50:F6S.wav
302,192,76800,1,0,0:0:0:50:F7S.wav
375,192,77143,1,0,0:0:0:50:E4S_s.wav
10,192,77486,1,0,0:0:0:50:A#3S_Bb3S_s.wav
156,192,77486,1,0,0:0:0:50:G6S.wav
448,192,77829,1,0,0:0:0:50:E4S_s.wav
83,192,78171,1,0,0:0:0:50:A3S_s.wav
229,192,78171,1,0,0:0:0:50:A#5S_Bb5S_s.wav
302,192,78171,1,0,0:0:0:50:E6S_s.wav
375,192,78343,1,0,0:0:0:50:E4S_s.wav
156,192,78514,1,0,0:0:0:50:E4S_s.wav
10,192,78686,1,0,0:0:0:50:A3S_s.wav
83,192,78686,1,0,0:0:0:50:A#5S_Bb5S_s.wav
448,192,78686,1,0,0:0:0:50:E6S_s.wav
302,192,78857,1,0,0:0:0:50:E4S_s.wav
229,192,79029,1,0,0:0:0:50:E4S_s.wav
156,192,79200,1,0,0:0:0:50:A3S_s.wav
375,192,79200,1,0,0:0:0:50:A#5S_Bb5S_s.wav
448,192,79200,1,0,0:0:0:50:E6S_s.wav
10,192,79371,1,0,0:0:0:50:E4S_s.wav
83,192,79543,1,0,0:0:0:50:A3S_s.wav
229,192,79543,1,0,0:0:0:50:A5S_s.wav
302,192,79543,1,0,0:0:0:50:E6S_s.wav
448,192,79714,1,0,0:0:0:50:E4S_s.wav
156,192,79886,1,0,0:0:0:50:E4S_s.wav
10,192,80057,1,0,0:0:0:50:A3S_s.wav
302,192,80057,1,0,0:0:0:50:A5S_s.wav
375,192,80057,1,0,0:0:0:50:E6S_s.wav
229,192,80229,1,0,0:0:0:50:E4S_s.wav
83,192,80400,1,0,0:0:0:50:E4S_s.wav
156,192,80571,1,0,0:0:0:50:A3S_s.wav
375,192,80571,1,0,0:0:0:50:A5S_s.wav
448,192,80571,1,0,0:0:0:50:E6S_s.wav
10,192,80743,1,0,0:0:0:50:E4S_s.wav
83,192,80914,1,0,0:0:0:50:A3S_s.wav
229,192,80914,1,0,0:0:0:50:C6S_s.wav
302,192,80914,1,0,0:0:0:50:E6S_s.wav
448,192,81086,1,0,0:0:0:50:E4S_s.wav
156,192,81257,1,0,0:0:0:50:E4S_s.wav
10,192,81429,1,0,0:0:0:50:A3S_s.wav
302,192,81429,1,0,0:0:0:50:C6S_s.wav
375,192,81429,1,0,0:0:0:50:E6S_s.wav
229,192,81600,1,0,0:0:0:50:E4S_s.wav
83,192,81771,1,0,0:0:0:50:E4S_s.wav
156,192,81943,1,0,0:0:0:50:A3S_s.wav
302,192,81943,1,0,0:0:0:50:C6S_s.wav
448,192,81943,1,0,0:0:0:50:E6S_s.wav
10,192,82114,1,0,0:0:0:50:E4S_s.wav
83,192,82286,1,0,0:0:0:50:A3S_s.wav
229,192,82286,1,0,0:0:0:50:A#5S_Bb5S_s.wav
375,192,82286,1,0,0:0:0:50:E6S_s.wav
302,192,82457,1,0,0:0:0:50:E4S_s.wav
156,192,82629,1,0,0:0:0:50:E4S_s.wav
10,192,82800,1,0,0:0:0:50:A3S_s.wav
375,192,82800,1,0,0:0:0:50:A#5S_Bb5S_s.wav
448,192,82800,1,0,0:0:0:50:E6S_s.wav
83,192,82971,1,0,0:0:0:50:E4S_s.wav
229,192,83143,1,0,0:0:0:50:E4S_s.wav
156,192,83314,1,0,0:0:0:50:A3S_s.wav
302,192,83314,1,0,0:0:0:50:A5S_s.wav
375,192,83314,1,0,0:0:0:50:E6S_s.wav
10,192,83486,1,0,0:0:0:50:E4S_s.wav
83,192,83657,1,0,0:0:0:50:A3S_s.wav
229,192,83657,1,0,0:0:0:50:C#5S_Db5S.wav
448,192,83657,1,0,0:0:0:50:A5S_s.wav
156,192,83829,1,0,0:0:0:50:E4S_s.wav
10,192,84000,1,0,0:0:0:50:A3S_s.wav
302,192,84000,1,0,0:0:0:50:D5S_s.wav
375,192,84000,1,0,0:0:0:50:B5S_s.wav
448,192,84171,1,0,0:0:0:50:E4S_s.wav
83,192,84343,1,0,0:0:0:50:A3S_s.wav
156,192,84343,1,0,0:0:0:50:B4S_s.wav
229,192,84343,1,0,0:0:0:50:G5S_s.wav
10,192,84514,1,0,0:0:0:50:E4S_s.wav
302,192,84514,1,0,0:0:0:50:C#5S_Db5S_s.wav
375,192,84514,1,0,0:0:0:50:A5S.wav
448,192,84686,1,0,0:0:0:50:A3S_s.wav
83,192,84857,1,0,0:0:0:50:E4S_s.wav
229,192,84857,1,0,0:0:0:50:C#5S_Db5S_s.wav
156,192,84943,1,0,0:0:0:50:D5S_s.wav
10,192,85029,1,0,0:0:0:50:A3S_s.wav
375,192,85029,1,0,0:0:0:50:E5S_s.wav
302,192,85200,1,0,0:0:0:50:E4S_s.wav
448,192,85200,1,0,0:0:0:50:D5S_s.wav
83,192,85371,1,0,0:0:0:50:A3S_s.wav
156,192,85371,1,0,0:0:0:50:B4S_s.wav
229,192,85371,1,0,0:0:0:50:B5S_s.wav
10,192,85543,1,0,0:0:0:50:E4S_s.wav
302,192,85543,1,0,0:0:0:50:C#5S_Db5S_s.wav
375,192,85543,1,0,0:0:0:50:C#6S_Db6S_s.wav
83,192,85714,1,0,0:0:0:50:A3S_s.wav
448,192,85714,1,0,0:0:0:50:E6S_s.wav
156,192,85886,1,0,0:0:0:50:E4S_s.wav
229,192,85886,1,0,0:0:0:50:D6S_s.wav
10,192,86057,1,0,0:0:0:50:A3S_s.wav
302,192,86057,1,0,0:0:0:50:C#6S_Db6S_s.wav
83,192,86229,1,0,0:0:0:50:E4S_s.wav
375,192,86229,1,0,0:0:0:50:B5S_s.wav
156,192,86400,1,0,0:0:0:50:A#3S_Bb3S_s.wav
229,192,86400,1,0,0:0:0:50:D5S_s.wav
448,192,86400,1,0,0:0:0:50:A#5S_Bb5S.wav
302,192,86486,1,0,0:0:0:50:D#5S_Eb5S_s.wav
10,192,86571,1,0,0:0:0:50:F4S_s.wav
375,192,86571,1,0,0:0:0:50:E5S_s.wav
83,192,86657,1,0,0:0:0:50:F5S_s.wav
448,192,86743,1,0,0:0:0:50:A#3S_Bb3S_s.wav
156,192,86829,1,0,0:0:0:50:E5S_s.wav
229,192,86914,1,0,0:0:0:50:F4S_s.wav
302,192,86914,1,0,0:0:0:50:D#5S_Eb5S_s.wav
10,192,87000,1,0,0:0:0:50:D5S_s.wav
83,192,87086,1,0,0:0:0:50:A#3S_Bb3S_s.wav
375,192,87086,1,0,0:0:0:50:C#5S_Db5S_s.wav
448,192,87257,1,0,0:0:0:50:F4S_s.wav
156,192,87429,1,0,0:0:0:50:A#3S_Bb3S_s.wav
302,192,87600,1,0,0:0:0:50:F4S_s.wav
229,192,87771,1,0,0:0:0:50:A#3S_Bb3S_s.wav
10,192,87943,1,0,0:0:0:50:F4S_s.wav
83,192,87943,1,0,0:0:0:50:F5S_s.wav
375,192,87943,1,0,0:0:0:50:A#5S_Bb5S_s.wav
156,192,88114,1,0,0:0:0:50:A#3S_Bb3S_s.wav
302,192,88114,1,0,0:0:0:50:E5S_s.wav
448,192,88114,1,0,0:0:0:50:C6S_s.wav
83,192,88286,1,0,0:0:0:50:F4S_s.wav
229,192,88286,1,0,0:0:0:50:F6S_s.wav
10,192,88457,1,0,0:0:0:50:A#3S_Bb3S_s.wav
375,192,88457,1,0,0:0:0:50:D5S_s.wav
448,192,88457,1,0,0:0:0:50:E6S_s.wav
156,192,88629,1,0,0:0:0:50:F4S_s.wav
229,192,88629,1,0,0:0:0:50:E5S_s.wav
302,192,88629,1,0,0:0:0:50:D6S_s.wav
10,192,88800,1,0,0:0:0:50:A#3S_Bb3S_s.wav
83,192,88800,1,0,0:0:0:50:F5S_s.wav
375,192,88800,1,0,0:0:0:50:C6S_s.wav
156,192,88971,1,0,0:0:0:50:F4S_s.wav
302,192,88971,1,0,0:0:0:50:G5S_s.wav
448,192,88971,1,0,0:0:0:50:A#5S_Bb5S_s.wav
10,192,89143,1,0,0:0:0:50:B3S_s.wav
229,192,89143,1,0,0:0:0:50:D#5S_Eb5S_s.wav
375,192,89143,1,0,0:0:0:50:B5S.wav
83,192,89229,1,0,0:0:0:50:E5S_s.wav
156,192,89314,1,0,0:0:0:50:F#4S_Gb4S_s.wav
448,192,89314,1,0,0:0:0:50:F5S_s.wav
302,192,89400,1,0,0:0:0:50:F#5S_Gb5S_s.wav
10,192,89486,1,0,0:0:0:50:B3S_s.wav
229,192,89571,1,0,0:0:0:50:F5S_s.wav
83,192,89657,1,0,0:0:0:50:F#4S_Gb4S_s.wav
375,192,89657,1,0,0:0:0:50:E5S_s.wav
448,192,89743,1,0,0:0:0:50:D#5S_Eb5S_s.wav
156,192,89829,1,0,0:0:0:50:B3S_s.wav
302,192,89829,1,0,0:0:0:50:D5S_s.wav
10,192,90000,1,0,0:0:0:50:F#4S_Gb4S_s.wav
229,192,90171,1,0,0:0:0:50:B3S_s.wav
375,192,90343,1,0,0:0:0:50:F#4S_Gb4S_s.wav
83,192,90514,1,0,0:0:0:50:B3S_s.wav
156,192,90686,1,0,0:0:0:50:F#4S_Gb4S_s.wav
302,192,90686,1,0,0:0:0:50:F#5S_Gb5S_s.wav
448,192,90686,1,0,0:0:0:50:B5S_s.wav
10,192,90857,1,0,0:0:0:50:B3S_s.wav
229,192,90857,1,0,0:0:0:50:E5S_s.wav
375,192,90857,1,0,0:0:0:50:C#6S_Db6S_s.wav
83,192,91029,1,0,0:0:0:50:F#4S_Gb4S_s.wav
448,192,91029,1,0,0:0:0:50:G6S_s.wav
10,192,91200,1,0,0:0:0:50:B3S_s.wav
156,192,91200,1,0,0:0:0:50:D#5S_Eb5S_s.wav
302,192,91200,1,0,0:0:0:50:F#6S_Gb6S_s.wav
83,192,91371,1,0,0:0:0:50:F#4S_Gb4S_s.wav
229,192,91371,1,0,0:0:0:50:E5S_s.wav
375,192,91371,1,0,0:0:0:50:E6S_s.wav
156,192,91543,1,0,0:0:0:50:B3S_s.wav
302,192,91543,1,0,0:0:0:50:F#5S_Gb5S_s.wav
448,192,91543,1,0,0:0:0:50:D6S_s.wav
10,192,91714,1,0,0:0:0:50:F#4S_Gb4S_s.wav
229,192,91714,1,0,0:0:0:50:G5S_s.wav
375,192,91714,1,0,0:0:0:50:B5S_s.wav
83,192,91886,1,0,0:0:0:50:C4S_s.wav
156,192,91886,1,0,0:0:0:50:E5S.wav
448,192,91886,1,0,0:0:0:50:C6S.wav
302,192,92057,1,0,0:0:0:50:G4S_s.wav
10,192,92229,1,0,0:0:0:50:C4S_s.wav
229,192,92400,1,0,0:0:0:50:G4S_s.wav
83,192,92571,1,0,0:0:0:50:C4S_s.wav
375,192,92571,1,0,0:0:0:50:F#5S_Gb5S.wav
448,192,92743,1,0,0:0:0:50:G4S_s.wav
156,192,92914,1,0,0:0:0:50:C4S_s.wav
302,192,93086,1,0,0:0:0:50:G4S_s.wav
10,192,93257,1,0,0:0:0:50:C4S_s.wav
83,192,93257,1,0,0:0:0:50:G5S.wav
229,192,93257,1,0,0:0:0:50:E6S.wav
375,192,93429,1,0,0:0:0:50:G4S_s.wav
448,192,93600,1,0,0:0:0:50:F#4S_Gb4S_s.wav
156,192,93771,1,0,0:0:0:50:E4S_s.wav
10,192,93943,1,0,0:0:0:50:F#4S_Gb4S_s.wav
229,192,93943,1,0,0:0:0:50:C6S.wav
302,192,93943,1,0,0:0:0:50:G6S.wav
83,192,94114,1,0,0:0:0:50:E4S_s.wav
375,192,94286,1,0,0:0:0:50:D4S_s.wav
448,192,94286,1,0,0:0:0:50:F#5S_Gb5S_s.wav
156,192,94371,1,0,0:0:0:50:G5S_s.wav
229,192,94457,1,0,0:0:0:50:C#4S_Db4S_s.wav
302,192,94457,1,0,0:0:0:50:A5S_s.wav
10,192,94543,1,0,0:0:0:50:A#5S_Bb5S_s.wav
83,192,94629,1,0,0:0:0:50:B3S_s.wav
375,192,94629,1,0,0:0:0:50:D5S_s.wav
448,192,94629,1,0,0:0:0:50:B5S.wav
156,192,94800,1,0,0:0:0:50:F#4S_Gb4S_s.wav
229,192,94800,1,0,0:0:0:50:E5S_s.wav
302,192,94971,1,0,0:0:0:50:B3S_s.wav
10,192,95143,1,0,0:0:0:50:F#4S_Gb4S_s.wav
83,192,95143,1,0,0:0:0:50:C#5S_Db5S_s.wav
375,192,95143,1,0,0:0:0:50:F#5S_Gb5S.wav
156,192,95314,1,0,0:0:0:50:B3S_s.wav
448,192,95314,1,0,0:0:0:50:D5S.wav
229,192,95486,1,0,0:0:0:50:F#4S_Gb4S_s.wav
83,192,95657,1,0,0:0:0:50:B3S_s.wav
302,192,95657,1,0,0:0:0:50:B4S.wav
375,192,95829,1,0,0:0:0:50:F#4S_Gb4S_s.wav
10,192,96000,1,0,0:0:0:50:B3S_s.wav
448,192,96000,1,0,0:0:0:50:F#4S_Gb4S.wav
156,192,96171,1,0,0:0:0:50:F#4S_Gb4S_s.wav
83,192,96343,1,0,0:0:0:50:B3S_s.wav
229,192,96343,1,0,0:0:0:50:E5S_s.wav
302,192,96343,1,0,0:0:0:50:B5S_s.wav
10,192,96514,1,0,0:0:0:50:F#4S_Gb4S_s.wav
375,192,96514,1,0,0:0:0:50:D5S.wav
156,192,96686,1,0,0:0:0:50:B3S_s.wav
448,192,96686,1,0,0:0:0:50:F#5S_Gb5S_s.wav
83,192,96857,1,0,0:0:0:50:F#4S_Gb4S_s.wav
302,192,96857,1,0,0:0:0:50:C#5S_Db5S_s.wav
10,192,97029,1,0,0:0:0:50:B3S_s.wav
229,192,97029,1,0,0:0:0:50:D5S_s.wav
375,192,97029,1,0,0:0:0:50:B5S_s.wav
156,192,97200,1,0,0:0:0:50:F#4S_Gb4S_s.wav
448,192,97200,1,0,0:0:0:50:E5S_s.wav
83,192,97371,1,0,0:0:0:50:C4S_s.wav
302,192,97371,1,0,0:0:0:50:F5S.wav
375,192,97371,1,0,0:0:0:50:C6S.wav
10,192,97543,1,0,0:0:0:50:G4S_s.wav
229,192,97714,1,0,0:0:0:50:C4S_s.wav
156,192,97886,1,0,0:0:0:50:G4S_s.wav
83,192,98057,1,0,0:0:0:50:C4S_s.wav
448,192,98057,1,0,0:0:0:50:C5S_s.wav
375,192,98143,1,0,0:0:0:50:C#5S_Db5S_s.wav
10,192,98229,1,0,0:0:0:50:G4S_s.wav
302,192,98229,1,0,0:0:0:50:D5S_s.wav
229,192,98314,1,0,0:0:0:50:D#5S_Eb5S_s.wav
156,192,98400,1,0,0:0:0:50:C4S_s.wav
448,192,98400,1,0,0:0:0:50:E5S_s.wav
83,192,98486,1,0,0:0:0:50:D#5S_Eb5S_s.wav
10,192,98571,1,0,0:0:0:50:G4S_s.wav
375,192,98571,1,0,0:0:0:50:D5S_s.wav
302,192,98657,1,0,0:0:0:50:C#5S_Db5S_s.wav
156,192,98743,1,0,0:0:0:50:C4S_s.wav
229,192,98743,1,0,0:0:0:50:C5S_s.wav
448,192,98829,1,0,0:0:0:50:C#5S_Db5S_s.wav
83,192,98914,1,0,0:0:0:50:G4S_s.wav
375,192,98914,1,0,0:0:0:50:D5S_s.wav
10,192,99000,1,0,0:0:0:50:D#5S_Eb5S_s.wav
229,192,99086,1,0,0:0:0:50:A4S_s.wav
302,192,99086,1,0,0:0:0:50:E5S_s.wav
156,192,99171,1,0,0:0:0:50:F5S_s.wav
83,192,99257,1,0,0:0:0:50:G4S_s.wav
448,192,99257,1,0,0:0:0:50:F#5S_Gb5S_s.wav
375,192,99343,1,0,0:0:0:50:G5S_s.wav
10,192,99429,1,0,0:0:0:50:F#4S_Gb4S_s.wav
229,192,99429,1,0,0:0:0:50:G#5S_Ab5S_s.wav
302,192,99514,1,0,0:0:0:50:A5S_s.wav
156,192,99600,1,0,0:0:0:50:E4S_s.wav
448,192,99600,1,0,0:0:0:50:G#5S_Ab5S_s.wav
83,192,99686,1,0,0:0:0:50:G5S_s.wav
229,192,99771,1,0,0:0:0:50:D4S_s.wav
375,192,99771,1,0,0:0:0:50:F#5S_Gb5S_s.wav
10,192,99857,1,0,0:0:0:50:F5S_s.wav
156,192,99943,1,0,0:0:0:50:C#4S_Db4S_s.wav
302,192,99943,1,0,0:0:0:50:E5S_s.wav
448,192,100029,1,0,0:0:0:50:D#5S_Eb5S_s.wav
83,192,100114,1,0,0:0:0:50:B3S_s.wav
229,192,100114,1,0,0:0:0:50:D5S_s.wav
375,192,100114,1,0,0:0:0:50:B5S.wav
10,192,100286,1,0,0:0:0:50:F#4S_Gb4S_s.wav
302,192,100286,1,0,0:0:0:50:E5S_s.wav
156,192,100457,1,0,0:0:0:50:B3S_s.wav
83,192,100629,1,0,0:0:0:50:F#4S_Gb4S_s.wav
375,192,100629,1,0,0:0:0:50:C#5S_Db5S_s.wav
448,192,100629,1,0,0:0:0:50:F#5S_Gb5S.wav
10,192,100800,1,0,0:0:0:50:B3S_s.wav
229,192,100800,1,0,0:0:0:50:D5S.wav
302,192,100971,1,0,0:0:0:50:F#4S_Gb4S_s.wav
156,192,101143,1,0,0:0:0:50:B3S_s.wav
375,192,101143,1,0,0:0:0:50:B4S.wav
83,192,101314,1,0,0:0:0:50:F#4S_Gb4S_s.wav
229,192,101486,1,0,0:0:0:50:B3S_s.wav
448,192,101486,1,0,0:0:0:50:F#4S_Gb4S_s.wav
10,192,101657,1,0,0:0:0:50:F#4S_Gb4S_s.wav
156,192,101829,1,0,0:0:0:50:B3S_s.wav
302,192,101829,1,0,0:0:0:50:E5S_s.wav
375,192,101829,1,0,0:0:0:50:B5S_s.wav
83,192,102000,1,0,0:0:0:50:F#4S_Gb4S_s.wav
229,192,102000,1,0,0:0:0:50:D5S_s.wav
10,192,102171,1,0,0:0:0:50:B3S_s.wav
448,192,102171,1,0,0:0:0:50:F#5S_Gb5S.wav
156,192,102343,1,0,0:0:0:50:F#4S_Gb4S_s.wav
375,192,102343,1,0,0:0:0:50:C#5S_Db5S_s.wav
83,192,102514,1,0,0:0:0:50:B3S_s.wav
229,192,102514,1,0,0:0:0:50:B4S_s.wav
302,192,102514,1,0,0:0:0:50:B5S_s.wav
10,192,102686,1,0,0:0:0:50:F#4S_Gb4S_s.wav
448,192,102686,1,0,0:0:0:50:C#5S_Db5S_s.wav
156,192,102857,1,0,0:0:0:50:A3S_s.wav
302,192,102857,1,0,0:0:0:50:D5S.wav
375,192,102857,1,0,0:0:0:50:A5S.wav
229,192,103029,1,0,0:0:0:50:E4S_s.wav
83,192,103200,1,0,0:0:0:50:A3S_s.wav
448,192,103371,1,0,0:0:0:50:E4S_s.wav
10,192,103543,1,0,0:0:0:50:A3S_s.wav
375,192,103543,1,0,0:0:0:50:C#5S_Db5S.wav
156,192,103714,1,0,0:0:0:50:E4S_s.wav
302,192,103886,1,0,0:0:0:50:A3S_s.wav
229,192,104057,1,0,0:0:0:50:E4S_s.wav
83,192,104229,1,0,0:0:0:50:A3S_s.wav
448,192,104229,1,0,0:0:0:50:B4S.wav
10,192,104400,1,0,0:0:0:50:E4S_s.wav
375,192,104571,1,0,0:0:0:50:D4S_s.wav
156,192,104743,1,0,0:0:0:50:C#4S_Db4S_s.wav
229,192,104914,1,0,0:0:0:50:D4S_s.wav
302,192,104914,1,0,0:0:0:50:C#5S_Db5S.wav
448,192,105086,1,0,0:0:0:50:C#4S_Db4S_s.wav
83,192,105257,1,0,0:0:0:50:A3S_s.wav
10,192,105429,1,0,0:0:0:50:G#3S_Ab3S_s.wav
156,192,105600,1,0,0:0:0:50:G3S_s.wav
302,192,105600,1,0,0:0:0:50:D5S_s.wav
375,192,105600,1,0,0:0:0:50:G5S.wav
229,192,105771,1,0,0:0:0:50:D4S_s.wav
448,192,105771,1,0,0:0:0:50:C#5S_Db5S_s.wav
10,192,105943,1,0,0:0:0:50:G3S_s.wav
83,192,105943,1,0,0:0:0:50:B4S_s.wav
156,192,106114,1,0,0:0:0:50:D4S_s.wav
302,192,106114,1,0,0:0:0:50:A4S_s.wav
229,192,106286,1,0,0:0:0:50:G3S_s.wav
375,192,106286,1,0,0:0:0:50:G4S_s.wav
448,192,106457,1,0,0:0:0:50:D4S_s.wav
10,192,106629,1,0,0:0:0:50:G3S_s.wav
83,192,106629,1,0,0:0:0:50:D5S_s.wav
156,192,106800,1,0,0:0:0:50:D4S_s.wav
302,192,106800,1,0,0:0:0:50:C#5S_Db5S_s.wav
229,192,106971,1,0,0:0:0:50:G3S_s.wav
375,192,106971,1,0,0:0:0:50:B4S_s.wav
448,192,106971,1,0,0:0:0:50:D6S.wav
10,192,107143,1,0,0:0:0:50:D4S_s.wav
83,192,107143,1,0,0:0:0:50:A4S_s.wav
156,192,107314,1,0,0:0:0:50:G3S_s.wav
302,192,107314,1,0,0:0:0:50:G4S_s.wav
229,192,107486,1,0,0:0:0:50:D4S_s.wav
10,192,107657,1,0,0:0:0:50:G3S_s.wav
375,192,107657,1,0,0:0:0:50:D5S_s.wav
448,192,107657,1,0,0:0:0:50:G5S.wav
83,192,107829,1,0,0:0:0:50:D4S_s.wav
302,192,107829,1,0,0:0:0:50:C#5S_Db5S_s.wav
156,192,108000,1,0,0:0:0:50:G3S_s.wav
229,192,108000,1,0,0:0:0:50:B4S_s.wav
10,192,108171,1,0,0:0:0:50:D4S_s.wav
375,192,108171,1,0,0:0:0:50:C#5S_Db5S_s.wav
83,192,108343,1,0,0:0:0:50:A3S_s.wav
302,192,108343,1,0,0:0:0:50:E5S_s.wav
448,192,108343,1,0,0:0:0:50:A5S.wav
156,192,108514,1,0,0:0:0:50:E4S_s.wav
229,192,108686,1,0,0:0:0:50:A3S_s.wav
375,192,108686,1,0,0:0:0:50:G4S_s.wav
10,192,108771,1,0,0:0:0:50:A4S_s.wav
83,192,108857,1,0,0:0:0:50:E4S_s.wav
302,192,108857,1,0,0:0:0:50:B4S_s.wav
448,192,108943,1,0,0:0:0:50:C#5S_Db5S_s.wav
156,192,109029,1,0,0:0:0:50:A3S_s.wav
375,192,109029,1,0,0:0:0:50:D5S_s.wav
229,192,109200,1,0,0:0:0:50:E4S_s.wav
10,192,109371,1,0,0:0:0:50:A3S_s.wav
302,192,109371,1,0,0:0:0:50:F#4S_Gb4S_s.wav
83,192,109457,1,0,0:0:0:50:G4S_s.wav
156,192,109543,1,0,0:0:0:50:E4S_s.wav
448,192,109543,1,0,0:0:0:50:A4S_s.wav
375,192,109629,1,0,0:0:0:50:B4S_s.wav
10,192,109714,1,0,0:0:0:50:A3S_s.wav
229,192,109714,1,0,0:0:0:50:C#5S_Db5S_s.wav
302,192,109886,1,0,0:0:0:50:E4S_s.wav
83,192,110057,1,0,0:0:0:50:D4S_s.wav
448,192,110057,1,0,0:0:0:50:G4S_s.wav
156,192,110143,1,0,0:0:0:50:A4S_s.wav
229,192,110229,1,0,0:0:0:50:C#4S_Db4S_s.wav
375,192,110229,1,0,0:0:0:50:B4S_s.wav
10,192,110314,1,0,0:0:0:50:C#5S_Db5S_s.wav
83,192,110400,1,0,0:0:0:50:D4S_s.wav
302,192,110400,1,0,0:0:0:50:D5S_s.wav
448,192,110571,1,0,0:0:0:50:C#4S_Db4S_s.wav
156,192,110743,1,0,0:0:0:50:A3S_s.wav
375,192,110743,1,0,0:0:0:50:G4S_s.wav
229,192,110829,1,0,0:0:0:50:A4S_s.wav
10,192,110914,1,0,0:0:0:50:G#3S_Ab3S_s.wav
302,192,110914,1,0,0:0:0:50:B4S_s.wav
83,192,111000,1,0,0:0:0:50:C#5S_Db5S_s.wav
156,192,111086,1,0,0:0:0:50:G3S_s.wav
375,192,111086,1,0,0:0:0:50:D5S_s.wav
448,192,111086,1,0,0:0:0:50:G5S.wav
10,192,111257,1,0,0:0:0:50:D4S_s.wav
229,192,111257,1,0,0:0:0:50:C#5S_Db5S_s.wav
83,192,111429,1,0,0:0:0:50:G3S_s.wav
302,192,111429,1,0,0:0:0:50:B4S_s.wav
156,192,111600,1,0,0:0:0:50:D4S_s.wav
448,192,111600,1,0,0:0:0:50:A4S_s.wav
10,192,111771,1,0,0:0:0:50:G3S_s.wav
375,192,111771,1,0,0:0:0:50:G4S_s.wav
229,192,111943,1,0,0:0:0:50:D4S_s.wav
83,192,112114,1,0,0:0:0:50:G3S_s.wav
302,192,112114,1,0,0:0:0:50:D5S_s.wav
156,192,112286,1,0,0:0:0:50:D4S_s.wav
448,192,112286,1,0,0:0:0:50:C#5S_Db5S_s.wav
10,192,112457,1,0,0:0:0:50:G3S_s.wav
229,192,112457,1,0,0:0:0:50:B4S_s.wav
375,192,112457,1,0,0:0:0:50:D6S.wav
83,192,112629,1,0,0:0:0:50:D4S_s.wav
302,192,112629,1,0,0:0:0:50:A4S_s.wav
156,192,112800,1,0,0:0:0:50:G3S_s.wav
448,192,112800,1,0,0:0:0:50:B4S_s.wav
229,192,112971,1,0,0:0:0:50:D4S_s.wav
375,192,112971,1,0,0:0:0:50:G4S_s.wav
10,192,113143,1,0,0:0:0:50:G3S_s.wav
83,192,113143,1,0,0:0:0:50:D5S_s.wav
302,192,113143,1,0,0:0:0:50:F#6S_Gb6S.wav
156,192,113314,1,0,0:0:0:50:D4S_s.wav
448,192,113314,1,0,0:0:0:50:E5S_s.wav
229,192,113486,1,0,0:0:0:50:G3S_s.wav
375,192,113486,1,0,0:0:0:50:F#5S_Gb5S_s.wav
83,192,113657,1,0,0:0:0:50:G#3S_Ab3S_s.wav
302,192,113657,1,0,0:0:0:50:G5S_s.wav
10,192,113829,1,0,0:0:0:50:A3S_s.wav
156,192,113829,1,0,0:0:0:50:A5S_s.wav
448,192,113829,1,0,0:0:0:50:E6S.wav
229,192,114000,1,0,0:0:0:50:E4S_s.wav
375,192,114000,1,0,0:0:0:50:B5S_s.wav
83,192,114171,1,0,0:0:0:50:A3S_s.wav
302,192,114171,1,0,0:0:0:50:A5S_s.wav
10,192,114343,1,0,0:0:0:50:E4S_s.wav
448,192,114343,1,0,0:0:0:50:G5S_s.wav
156,192,114514,1,0,0:0:0:50:A3S_s.wav
375,192,114514,1,0,0:0:0:50:A5S_s.wav
229,192,114686,1,0,0:0:0:50:E4S_s.wav
83,192,114857,1,0,0:0:0:50:A3S_s.wav
302,192,114857,1,0,0:0:0:50:A5S_s.wav
10,192,115029,1,0,0:0:0:50:E4S_s.wav
448,192,115029,1,0,0:0:0:50:B5S_s.wav
156,192,115200,1,0,0:0:0:50:A3S_s.wav
229,192,115200,1,0,0:0:0:50:A5S_s.wav
375,192,115200,1,0,0:0:0:50:G6S_s.wav
83,192,115371,1,0,0:0:0:50:E4S_s.wav
302,192,115371,1,0,0:0:0:50:G5S_s.wav
10,192,115543,1,0,0:0:0:50:A3S_s.wav
375,192,115543,1,0,0:0:0:50:F#5S_Gb5S_s.wav
448,192,115543,1,0,0:0:0:50:A6S_s.wav
83,192,115714,1,0,0:0:0:50:E4S_s.wav
156,192,115714,1,0,0:0:0:50:G5S_s.wav
229,192,115714,1,0,0:0:0:50:G6S_s.wav
10,192,115886,1,0,0:0:0:50:A3S_s.wav
302,192,115886,1,0,0:0:0:50:A5S_s.wav
375,192,115886,1,0,0:0:0:50:F#6S_Gb6S_s.wav
83,192,116057,1,0,0:0:0:50:E4S_s.wav
229,192,116057,1,0,0:0:0:50:E5S_s.wav
448,192,116057,1,0,0:0:0:50:E6S_s.wav
10,192,116229,1,0,0:0:0:50:D4S_s.wav
156,192,116229,1,0,0:0:0:50:G5S_s.wav
302,192,116229,1,0,0:0:0:50:D6S_s.wav
83,192,116400,1,0,0:0:0:50:C#4S_Db4S_s.wav
375,192,116400,1,0,0:0:0:50:F#5S_Gb5S_s.wav
448,192,116400,1,0,0:0:0:50:E6S_s.wav
156,192,116571,1,0,0:0:0:50:B3S_s.wav
229,192,116571,1,0,0:0:0:50:B4S_s.wav
302,192,116571,1,0,0:0:0:50:F#6S_Gb6S.wav
10,192,116657,1,0,0:0:0:50:C5S_s.wav
83,192,116743,1,0,0:0:0:50:F#4S_Gb4S_s.wav
448,192,116743,1,0,0:0:0:50:C#5S_Db5S_s.wav
375,192,116829,1,0,0:0:0:50:D5S_s.wav
156,192,116914,1,0,0:0:0:50:B3S_s.wav
302,192,116914,1,0,0:0:0:50:D#5S_Eb5S_s.wav
229,192,117000,1,0,0:0:0:50:E5S_s.wav
10,192,117086,1,0,0:0:0:50:F#4S_Gb4S_s.wav
448,192,117086,1,0,0:0:0:50:F5S_s.wav
83,192,117171,1,0,0:0:0:50:F#5S_Gb5S_s.wav
156,192,117257,1,0,0:0:0:50:B3S_s.wav
375,192,117257,1,0,0:0:0:50:G5S_s.wav
302,192,117343,1,0,0:0:0:50:G#5S_Ab5S_s.wav
229,192,117429,1,0,0:0:0:50:F#4S_Gb4S_s.wav
448,192,117429,1,0,0:0:0:50:A5S_s.wav
10,192,117514,1,0,0:0:0:50:A#5S_Bb5S_s.wav
83,192,117600,1,0,0:0:0:50:B3S_s.wav
375,192,117600,1,0,0:0:0:50:B5S_s.wav
156,192,117686,1,0,0:0:0:50:C6S_s.wav
229,192,117771,1,0,0:0:0:50:F#4S_Gb4S_s.wav
302,192,117771,1,0,0:0:0:50:C#6S_Db6S_s.wav
448,192,117857,1,0,0:0:0:50:D6S_s.wav
10,192,117943,1,0,0:0:0:50:B3S_s.wav
375,192,117943,1,0,0:0:0:50:D#6S_Eb6S_s.wav
83,192,118029,1,0,0:0:0:50:D6S_s.wav
156,192,118114,1,0,0:0:0:50:F#4S_Gb4S_s.wav
229,192,118114,1,0,0:0:0:50:C#6S_Db6S_s.wav
302,192,118200,1,0,0:0:0:50:C6S_s.wav
10,192,118286,1,0,0:0:0:50:D4S_s.wav
448,192,118286,1,0,0:0:0:50:B5S_s.wav
375,192,118371,1,0,0:0:0:50:A#5S_Bb5S_s.wav
83,192,118457,1,0,0:0:0:50:E4S_s.wav
156,192,118457,1,0,0:0:0:50:A5S_s.wav
229,192,118543,1,0,0:0:0:50:G#5S_Ab5S_s.wav
10,192,118629,1,0,0:0:0:50:F#4S_Gb4S_s.wav
302,192,118629,1,0,0:0:0:50:G5S_s.wav
448,192,118714,1,0,0:0:0:50:F#5S_Gb5S_s.wav
156,192,118800,1,0,0:0:0:50:E4S_s.wav
375,192,118800,1,0,0:0:0:50:F5S_s.wav
83,192,118886,1,0,0:0:0:50:E5S_s.wav
10,192,118971,1,0,0:0:0:50:D4S_s.wav
229,192,118971,1,0,0:0:0:50:D#5S_Eb5S_s.wav
302,192,119057,1,0,0:0:0:50:D5S_s.wav
156,192,119143,1,0,0:0:0:50:B3S_s.wav
448,192,119143,1,0,0:0:0:50:C#5S_Db5S_s.wav
375,192,119229,1,0,0:0:0:50:C5S_s.wav
10,192,119314,1,0,0:0:0:50:C4S_s.wav
83,192,119314,1,0,0:0:0:50:C5S_s.wav
229,192,119314,1,0,0:0:0:50:G6S.wav
302,192,119400,1,0,0:0:0:50:C#5S_Db5S_s.wav
156,192,119486,1,0,0:0:0:50:G4S_s.wav
448,192,119486,1,0,0:0:0:50:D5S_s.wav
375,192,119571,1,0,0:0:0:50:D#5S_Eb5S_s.wav
83,192,119657,1,0,0:0:0:50:C4S_s.wav
229,192,119657,1,0,0:0:0:50:E5S_s.wav
10,192,119743,1,0,0:0:0:50:F5S_s.wav
156,192,119829,1,0,0:0:0:50:G4S_s.wav
302,192,119829,1,0,0:0:0:50:F#5S_Gb5S_s.wav
448,192,119914,1,0,0:0:0:50:G5S_s.wav
83,192,120000,1,0,0:0:0:50:C4S_s.wav
375,192,120000,1,0,0:0:0:50:G#5S_Ab5S_s.wav
229,192,120086,1,0,0:0:0:50:A5S_s.wav
10,192,120171,1,0,0:0:0:50:G4S_s.wav
302,192,120171,1,0,0:0:0:50:A#5S_Bb5S_s.wav
156,192,120257,1,0,0:0:0:50:B5S_s.wav
83,192,120343,1,0,0:0:0:50:C4S_s.wav
448,192,120343,1,0,0:0:0:50:C6S_s.wav
375,192,120429,1,0,0:0:0:50:C#6S_Db6S_s.wav
229,192,120514,1,0,0:0:0:50:G4S_s.wav
302,192,120514,1,0,0:0:0:50:D6S_s.wav
10,192,120600,1,0,0:0:0:50:D#6S_Eb6S_s.wav
83,192,120686,1,0,0:0:0:50:C4S_s.wav
156,192,120686,1,0,0:0:0:50:E6S_s.wav
448,192,120686,1,0,0:0:0:50:G6S.wav
375,192,120771,1,0,0:0:0:50:D#6S_Eb6S_s.wav
229,192,120857,1,0,0:0:0:50:G4S_s.wav
302,192,120857,1,0,0:0:0:50:D6S_s.wav
10,192,120943,1,0,0:0:0:50:C#6S_Db6S_s.wav
83,192,121029,1,0,0:0:0:50:D#4S_Eb4S_s.wav
156,192,121029,1,0,0:0:0:50:C6S_s.wav
448,192,121029,1,0,0:0:0:50:A6S_s.wav
375,192,121114,1,0,0:0:0:50:B5S_s.wav
10,192,121200,1,0,0:0:0:50:F4S_s.wav
229,192,121200,1,0,0:0:0:50:A#5S_Bb5S_s.wav
302,192,121200,1,0,0:0:0:50:G6S_s.wav
448,192,121286,1,0,0:0:0:50:A5S_s.wav
83,192,121371,1,0,0:0:0:50:G4S_s.wav
156,192,121371,1,0,0:0:0:50:G#5S_Ab5S_s.wav
375,192,121457,1,0,0:0:0:50:G5S_s.wav
10,192,121543,1,0,0:0:0:50:F4S_s.wav
229,192,121543,1,0,0:0:0:50:F#5S_Gb5S_s.wav
302,192,121543,1,0,0:0:0:50:F#6S_Gb6S_s.wav
448,192,121629,1,0,0:0:0:50:F5S_s.wav
83,192,121714,1,0,0:0:0:50:D#4S_Eb4S_s.wav
156,192,121714,1,0,0:0:0:50:E5S_s.wav
375,192,121714,1,0,0:0:0:50:E6S_s.wav
10,192,121800,1,0,0:0:0:50:D#5S_Eb5S_s.wav
229,192,121886,1,0,0:0:0:50:C4S_s.wav
302,192,121886,1,0,0:0:0:50:D5S_s.wav
448,192,121886,1,0,0:0:0:50:F#6S_Gb6S_s.wav
156,192,121971,1,0,0:0:0:50:C#5S_Db5S_s.wav
10,192,122057,1,0,0:0:0:50:C#4S_Db4S_s.wav
83,192,122057,1,0,0:0:0:50:C#5S_Db5S_s.wav
375,192,122057,1,0,0:0:0:50:G#6S_Ab6S.wav
448,192,122143,1,0,0:0:0:50:D5S_s.wav
229,192,122229,1,0,0:0:0:50:G#4S_Ab4S_s.wav
302,192,122229,1,0,0:0:0:50:D#5S_Eb5S_s.wav
156,192,122314,1,0,0:0:0:50:E5S_s.wav
10,192,122400,1,0,0:0:0:50:C#4S_Db4S_s.wav
375,192,122400,1,0,0:0:0:50:F5S_s.wav
83,192,122486,1,0,0:0:0:50:F#5S_Gb5S_s.wav
229,192,122571,1,0,0:0:0:50:G#4S_Ab4S_s.wav
448,192,122571,1,0,0:0:0:50:G5S_s.wav
302,192,122657,1,0,0:0:0:50:G#5S_Ab5S_s.wav
156,192,122743,1,0,0:0:0:50:C#4S_Db4S_s.wav
375,192,122743,1,0,0:0:0:50:A5S_s.wav
10,192,122829,1,0,0:0:0:50:A#5S_Bb5S_s.wav
83,192,122914,1,0,0:0:0:50:G#4S_Ab4S_s.wav
448,192,122914,1,0,0:0:0:50:B5S_s.wav
229,192,123000,1,0,0:0:0:50:C6S_s.wav
156,192,123086,1,0,0:0:0:50:C#4S_Db4S_s.wav
302,192,123086,1,0,0:0:0:50:C#6S_Db6S_s.wav
375,192,123171,1,0,0:0:0:50:D6S_s.wav
10,192,123257,1,0,0:0:0:50:G#4S_Ab4S_s.wav
448,192,123257,1,0,0:0:0:50:D#6S_Eb6S_s.wav
83,192,123343,1,0,0:0:0:50:E6S_s.wav
229,192,123429,1,0,0:0:0:50:C#4S_Db4S_s.wav
302,192,123429,1,0,0:0:0:50:F6S_s.wav
156,192,123514,1,0,0:0:0:50:E6S_s.wav
10,192,123600,1,0,0:0:0:50:G#4S_Ab4S_s.wav
375,192,123600,1,0,0:0:0:50:D#6S_Eb6S_s.wav
448,192,123686,1,0,0:0:0:50:D6S_s.wav
83,192,123771,1,0,0:0:0:50:E4S_s.wav
229,192,123771,1,0,0:0:0:50:C#6S_Db6S_s.wav
302,192,123857,1,0,0:0:0:50:C6S_s.wav
156,192,123943,1,0,0:0:0:50:F#4S_Gb4S_s.wav
375,192,123943,1,0,0:0:0:50:B5S_s.wav
10,192,124029,1,0,0:0:0:50:A#5S_Bb5S_s.wav
229,192,124114,1,0,0:0:0:50:G#4S_Ab4S_s.wav
448,192,124114,1,0,0:0:0:50:A5S_s.wav
83,192,124200,1,0,0:0:0:50:G#5S_Ab5S_s.wav
156,192,124286,1,0,0:0:0:50:F#4S_Gb4S_s.wav
302,192,124286,1,0,0:0:0:50:G5S_s.wav
375,192,124371,1,0,0:0:0:50:F#5S_Gb5S_s.wav
10,192,124457,1,0,0:0:0:50:E4S_s.wav
448,192,124457,1,0,0:0:0:50:F5S_s.wav
229,192,124543,1,0,0:0:0:50:E5S_s.wav
83,192,124629,1,0,0:0:0:50:C#4S_Db4S_s.wav
302,192,124629,1,0,0:0:0:50:D#5S_Eb5S_s.wav
156,192,124714,1,0,0:0:0:50:D5S_s.wav
10,192,124800,1,0,0:0:0:50:D4S_s.wav
375,192,124800,1,0,0:0:0:50:D5S_s.wav
448,192,124800,1,0,0:0:0:50:A6S.wav
229,192,124886,1,0,0:0:0:50:D#5S_Eb5S_s.wav
83,192,124971,1,0,0:0:0:50:A4S_s.wav
302,192,124971,1,0,0:0:0:50:E5S_s.wav
156,192,125057,1,0,0:0:0:50:F5S_s.wav
10,192,125143,1,0,0:0:0:50:D4S_s.wav
375,192,125143,1,0,0:0:0:50:F#5S_Gb5S_s.wav
448,192,125229,1,0,0:0:0:50:G5S_s.wav
83,192,125314,1,0,0:0:0:50:A4S_s.wav
229,192,125314,1,0,0:0:0:50:G#5S_Ab5S_s.wav
302,192,125400,1,0,0:0:0:50:A5S_s.wav
156,192,125486,1,0,0:0:0:50:D4S_s.wav
375,192,125486,1,0,0:0:0:50:A#5S_Bb5S_s.wav
10,192,125571,1,0,0:0:0:50:B5S_s.wav
229,192,125657,1,0,0:0:0:50:A4S_s.wav
448,192,125657,1,0,0:0:0:50:C6S_s.wav
83,192,125743,1,0,0:0:0:50:C#6S_Db6S_s.wav
156,192,125829,1,0,0:0:0:50:D4S_s.wav
302,192,125829,1,0,0:0:0:50:D6S_s.wav
375,192,125914,1,0,0:0:0:50:D#6S_Eb6S_s.wav
10,192,126000,1,0,0:0:0:50:A4S_s.wav
448,192,126000,1,0,0:0:0:50:E6S_s.wav
229,192,126086,1,0,0:0:0:50:F6S_s.wav
83,192,126171,1,0,0:0:0:50:D4S_s.wav
156,192,126171,1,0,0:0:0:50:F#6S_Gb6S_s.wav
302,192,126171,1,0,0:0:0:50:C#7S_Db7S.wav
375,192,126257,1,0,0:0:0:50:F6S_s.wav
10,192,126343,1,0,0:0:0:50:A4S_s.wav
448,192,126343,1,0,0:0:0:50:E6S_s.wav
229,192,126429,1,0,0:0:0:50:D#6S_Eb6S_s.wav
83,192,126514,1,0,0:0:0:50:F4S_s.wav
302,192,126514,1,0,0:0:0:50:D6S_s.wav
156,192,126600,1,0,0:0:0:50:C#6S_Db6S_s.wav
10,192,126686,1,0,0:0:0:50:G4S_s.wav
375,192,126686,1,0,0:0:0:50:C6S_s.wav
448,192,126771,1,0,0:0:0:50:B5S_s.wav
83,192,126857,1,0,0:0:0:50:A4S_s.wav
229,192,126857,1,0,0:0:0:50:A#5S_Bb5S_s.wav
302,192,126857,1,0,0:0:0:50:E7S.wav
156,192,126943,1,0,0:0:0:50:B5S_s.wav
10,192,127029,1,0,0:0:0:50:G4S_s.wav
375,192,127029,1,0,0:0:0:50:C6S_s.wav
448,192,127114,1,0,0:0:0:50:C#6S_Db6S_s.wav
83,192,127200,1,0,0:0:0:50:F4S_s.wav
302,192,127200,1,0,0:0:0:50:D6S_s.wav
229,192,127286,1,0,0:0:0:50:D#6S_Eb6S_s.wav
156,192,127371,1,0,0:0:0:50:E4S_s.wav
375,192,127371,1,0,0:0:0:50:E6S_s.wav
10,192,127457,1,0,0:0:0:50:F6S_s.wav
83,192,127543,1,0,0:0:0:50:D4S_s.wav
229,192,127543,1,0,0:0:0:50:D5S_s.wav
302,192,127543,1,0,0:0:0:50:D6S_s.wav
448,192,127543,1,0,0:0:0:50:D7S_s.wav
10,192,127886,1,0,0:0:0:50:A3S_s.wav
156,192,127886,1,0,0:0:0:50:A5S_s.wav
375,192,127886,1,0,0:0:0:50:A6S.wav
83,192,128229,1,0,0:0:0:50:C4S_s.wav
302,192,128229,1,0,0:0:0:50:C6S_s.wav
448,192,128229,1,0,0:0:0:50:C7S_s.wav
10,192,128400,1,0,0:0:0:50:B3S_s.wav
229,192,128400,1,0,0:0:0:50:B5S_s.wav
375,192,128400,1,0,0:0:0:50:B6S.wav
156,192,128486,1,0,0:0:0:50:D5S_s.wav
83,192,128571,1,0,0:0:0:50:B3S_s.wav
302,192,128571,1,0,0:0:0:50:E5S_s.wav
448,192,128657,1,0,0:0:0:50:F5S_s.wav
10,192,128743,1,0,0:0:0:50:G4S_s.wav
375,192,128743,1,0,0:0:0:50:G5S_s.wav
229,192,128829,1,0,0:0:0:50:A5S_s.wav
156,192,128914,1,0,0:0:0:50:B3S_s.wav
302,192,128914,1,0,0:0:0:50:B5S_s.wav
83,192,129086,1,0,0:0:0:50:G4S_s.wav
448,192,129086,1,0,0:0:0:50:C6S_s.wav
10,192,129257,1,0,0:0:0:50:B3S_s.wav
375,192,129257,1,0,0:0:0:50:A5S_s.wav
229,192,129429,1,0,0:0:0:50:G4S_s.wav
302,192,129429,1,0,0:0:0:50:C6S_s.wav
156,192,129600,1,0,0:0:0:50:B3S_s.wav
448,192,129600,1,0,0:0:0:50:G5S_s.wav
83,192,129771,1,0,0:0:0:50:G4S_s.wav
375,192,129771,1,0,0:0:0:50:B5S_s.wav
10,192,129943,1,0,0:0:0:50:B3S_s.wav
302,192,129943,1,0,0:0:0:50:F5S_s.wav
156,192,130114,1,0,0:0:0:50:G4S_s.wav
229,192,130114,1,0,0:0:0:50:G5S_s.wav
83,192,130286,1,0,0:0:0:50:B3S_s.wav
448,192,130286,1,0,0:0:0:50:A5S_s.wav
10,192,130457,1,0,0:0:0:50:G4S_s.wav
375,192,130457,1,0,0:0:0:50:C6S_s.wav
156,192,130629,1,0,0:0:0:50:B3S_s.wav
302,192,130629,1,0,0:0:0:50:D6S_s.wav
229,192,130800,1,0,0:0:0:50:G4S_s.wav
83,192,130971,1,0,0:0:0:50:D4S_s.wav
375,192,130971,1,0,0:0:0:50:D6S_s.wav
448,192,130971,1,0,0:0:0:50:D7S_s.wav
10,192,131314,1,0,0:0:0:50:A3S_s.wav
156,192,131314,1,0,0:0:0:50:A5S_s.wav
302,192,131314,1,0,0:0:0:50:A6S_s.wav
83,192,131657,1,0,0:0:0:50:A#3S_Bb3S_s.wav
229,192,131657,1,0,0:0:0:50:A#5S_Bb5S_s.wav
448,192,131657,1,0,0:0:0:50:A#6S_Bb6S_s.wav
10,192,131829,1,0,0:0:0:50:F4S_s.wav
302,192,131829,1,0,0:0:0:50:F6S_s.wav
375,192,131829,1,0,0:0:0:50:F7S.wav
156,192,132000,1,0,0:0:0:50:A#3S_Bb3S_s.wav
448,192,132000,1,0,0:0:0:50:A#5S_Bb5S_s.wav
229,192,132086,1,0,0:0:0:50:C6S_s.wav
83,192,132171,1,0,0:0:0:50:F4S_s.wav
302,192,132171,1,0,0:0:0:50:D6S_s.wav
10,192,132257,1,0,0:0:0:50:E6S_s.wav
156,192,132343,1,0,0:0:0:50:A#3S_Bb3S_s.wav
375,192,132343,1,0,0:0:0:50:E6S_s.wav
229,192,132514,1,0,0:0:0:50:F4S_s.wav
448,192,132514,1,0,0:0:0:50:F6S_s.wav
83,192,132686,1,0,0:0:0:50:A#3S_Bb3S_s.wav
302,192,132686,1,0,0:0:0:50:D6S_s.wav
10,192,132857,1,0,0:0:0:50:F4S_s.wav
375,192,132857,1,0,0:0:0:50:F6S_s.wav
156,192,133029,1,0,0:0:0:50:A#3S_Bb3S_s.wav
229,192,133029,1,0,0:0:0:50:E6S_s.wav
448,192,133029,1,0,0:0:0:50:G7S.wav
83,192,133200,1,0,0:0:0:50:F4S_s.wav
302,192,133200,1,0,0:0:0:50:F6S_s.wav
10,192,133371,1,0,0:0:0:50:A#3S_Bb3S_s.wav
375,192,133371,1,0,0:0:0:50:D6S_s.wav
229,192,133543,1,0,0:0:0:50:F4S_s.wav
448,192,133543,1,0,0:0:0:50:F6S_s.wav
156,192,133714,1,0,0:0:0:50:A#3S_Bb3S_s.wav
302,192,133714,1,0,0:0:0:50:E6S_s.wav
83,192,133886,1,0,0:0:0:50:F4S_s.wav
375,192,133886,1,0,0:0:0:50:F6S_s.wav
10,192,134057,1,0,0:0:0:50:A#3S_Bb3S_s.wav
229,192,134057,1,0,0:0:0:50:D6S_s.wav
156,192,134229,1,0,0:0:0:50:F4S_s.wav
448,192,134229,1,0,0:0:0:50:F6S_s.wav
83,192,134400,1,0,0:0:0:50:B3S_s.wav
302,192,134400,1,0,0:0:0:50:E6S_s.wav
375,192,134400,1,0,0:0:0:50:E7S.wav
10,192,134571,1,0,0:0:0:50:E4S_s.wav
229,192,134571,1,0,0:0:0:50:F6S_s.wav
156,192,134743,1,0,0:0:0:50:B3S_s.wav
448,192,134743,1,0,0:0:0:50:E6S_s.wav
83,192,134914,1,0,0:0:0:50:E4S_s.wav
375,192,134914,1,0,0:0:0:50:F6S_s.wav
229,192,135086,1,0,0:0:0:50:B3S_s.wav
302,192,135086,1,0,0:0:0:50:E6S_s.wav
10,192,135257,1,0,0:0:0:50:E4S_s.wav
448,192,135257,1,0,0:0:0:50:F6S_s.wav
156,192,135429,1,0,0:0:0:50:B3S_s.wav
375,192,135429,1,0,0:0:0:50:E6S_s.wav
83,192,135600,1,0,0:0:0:50:E4S_s.wav
302,192,135600,1,0,0:0:0:50:F6S_s.wav
10,192,135771,1,0,0:0:0:50:B3S_s.wav
229,192,135771,1,0,0:0:0:50:E6S_s.wav
156,192,135943,1,0,0:0:0:50:E4S_s.wav
448,192,135943,1,0,0:0:0:50:F6S_s.wav
83,192,136114,1,0,0:0:0:50:B3S_s.wav
375,192,136114,1,0,0:0:0:50:E6S_s.wav
229,192,136286,1,0,0:0:0:50:E4S_s.wav
302,192,136286,1,0,0:0:0:50:F6S_s.wav
10,192,136457,1,0,0:0:0:50:B3S_s.wav
448,192,136457,1,0,0:0:0:50:E6S_s.wav
156,192,136629,1,0,0:0:0:50:E4S_s.wav
375,192,136629,1,0,0:0:0:50:F6S_s.wav
83,192,136800,1,0,0:0:0:50:B3S_s.wav
302,192,136800,1,0,0:0:0:50:E6S_s.wav
10,192,136971,1,0,0:0:0:50:E4S_s.wav
229,192,136971,1,0,0:0:0:50:B5S_s.wav
156,192,137143,1,0,0:0:0:50:A3S_s.wav
375,192,137143,1,0,0:0:0:50:C5S_s.wav
448,192,137143,1,0,0:0:0:50:C6S.wav
83,192,137314,1,0,0:0:0:50:E4S_s.wav
302,192,137314,1,0,0:0:0:50:A4S_s.wav
10,192,137486,1,0,0:0:0:50:A3S_s.wav
229,192,137486,1,0,0:0:0:50:E5S_s.wav
156,192,137657,1,0,0:0:0:50:E4S_s.wav
375,192,137657,1,0,0:0:0:50:C5S_s.wav
448,192,137657,1,0,0:0:0:50:A5S.wav
83,192,137829,1,0,0:0:0:50:A3S_s.wav
302,192,137829,1,0,0:0:0:50:A4S_s.wav
10,192,138000,1,0,0:0:0:50:E4S_s.wav
229,192,138000,1,0,0:0:0:50:E5S_s.wav
156,192,138171,1,0,0:0:0:50:A3S_s.wav
448,192,138171,1,0,0:0:0:50:C5S_s.wav
83,192,138343,1,0,0:0:0:50:E4S_s.wav
375,192,138343,1,0,0:0:0:50:A4S_s.wav
229,192,138514,1,0,0:0:0:50:A3S_s.wav
302,192,138514,1,0,0:0:0:50:E5S_s.wav
10,192,138686,1,0,0:0:0:50:E4S_s.wav
448,192,138686,1,0,0:0:0:50:C5S_s.wav
83,192,138857,1,0,0:0:0:50:A3S_s.wav
156,192,138857,1,0,0:0:0:50:A4S_s.wav
375,192,138857,1,0,0:0:0:50:C6S_s.wav
229,192,139029,1,0,0:0:0:50:E4S_s.wav
302,192,139029,1,0,0:0:0:50:E5S_s.wav
10,192,139200,1,0,0:0:0:50:A3S_s.wav
156,192,139200,1,0,0:0:0:50:C5S_s.wav
448,192,139200,1,0,0:0:0:50:A5S_s.wav
83,192,139371,1,0,0:0:0:50:E4S_s.wav
375,192,139371,1,0,0:0:0:50:A4S_s.wav
156,192,139543,1,0,0:0:0:50:A3S_s.wav
229,192,139543,1,0,0:0:0:50:C5S_s.wav
302,192,139543,1,0,0:0:0:50:C6S_s.wav
10,192,139714,1,0,0:0:0:50:E4S_s.wav
448,192,139714,1,0,0:0:0:50:E5S_s.wav
83,192,139886,1,0,0:0:0:50:A#3S_Bb3S_s.wav
302,192,139886,1,0,0:0:0:50:D5S_s.wav
375,192,139886,1,0,0:0:0:50:A#5S_Bb5S.wav
156,192,140057,1,0,0:0:0:50:F4S_s.wav
229,192,140057,1,0,0:0:0:50:A#4S_Bb4S_s.wav
10,192,140229,1,0,0:0:0:50:A#3S_Bb3S_s.wav
448,192,140229,1,0,0:0:0:50:F5S_s.wav
83,192,140400,1,0,0:0:0:50:F4S_s.wav
302,192,140400,1,0,0:0:0:50:D5S_s.wav
375,192,140400,1,0,0:0:0:50:F6S.wav
156,192,140571,1,0,0:0:0:50:A#3S_Bb3S_s.wav
229,192,140571,1,0,0:0:0:50:A#4S_Bb4S_s.wav
10,192,140743,1,0,0:0:0:50:F4S_s.wav
448,192,140743,1,0,0:0:0:50:F5S_s.wav
83,192,140914,1,0,0:0:0:50:A#3S_Bb3S_s.wav
302,192,140914,1,0,0:0:0:50:D5S_s.wav
156,192,141086,1,0,0:0:0:50:F4S_s.wav
375,192,141086,1,0,0:0:0:50:A#4S_Bb4S_s.wav
229,192,141257,1,0,0:0:0:50:A#3S_Bb3S_s.wav
448,192,141257,1,0,0:0:0:50:F5S_s.wav
10,192,141429,1,0,0:0:0:50:F4S_s.wav
302,192,141429,1,0,0:0:0:50:D5S_s.wav
83,192,141600,1,0,0:0:0:50:A#3S_Bb3S_s.wav
156,192,141600,1,0,0:0:0:50:A#4S_Bb4S_s.wav
375,192,141600,1,0,0:0:0:50:A#5S_Bb5S_s.wav
229,192,141771,1,0,0:0:0:50:F4S_s.wav
448,192,141771,1,0,0:0:0:50:F5S_s.wav
10,192,141943,1,0,0:0:0:50:A#3S_Bb3S_s.wav
83,192,141943,1,0,0:0:0:50:D5S_s.wav
302,192,141943,1,0,0:0:0:50:F6S_s.wav
156,192,142114,1,0,0:0:0:50:F4S_s.wav
375,192,142114,1,0,0:0:0:50:A#4S_Bb4S_s.wav
10,192,142286,1,0,0:0:0:50:A#3S_Bb3S_s.wav
229,192,142286,1,0,0:0:0:50:D5S_s.wav
448,192,142286,1,0,0:0:0:50:D6S.wav
83,192,142457,1,0,0:0:0:50:F4S_s.wav
302,192,142457,1,0,0:0:0:50:F5S_s.wav
156,192,142629,1,0,0:0:0:50:A3S_s.wav
375,192,142629,1,0,0:0:0:50:C5S_s.wav
448,192,142629,1,0,0:0:0:50:C6S.wav
10,192,142800,1,0,0:0:0:50:E4S_s.wav
229,192,142800,1,0,0:0:0:50:A4S_s.wav
83,192,142971,1,0,0:0:0:50:A3S_s.wav
302,192,142971,1,0,0:0:0:50:E5S_s.wav
156,192,143143,1,0,0:0:0:50:E4S_s.wav
375,192,143143,1,0,0:0:0:50:C5S_s.wav
448,192,143143,1,0,0:0:0:50:A5S.wav
10,192,143314,1,0,0:0:0:50:A3S_s.wav
229,192,143314,1,0,0:0:0:50:A4S_s.wav
83,192,143486,1,0,0:0:0:50:E4S_s.wav
302,192,143486,1,0,0:0:0:50:E5S_s.wav
156,192,143657,1,0,0:0:0:50:A3S_s.wav
375,192,143657,1,0,0:0:0:50:C5S_s.wav
10,192,143829,1,0,0:0:0:50:E4S_s.wav
448,192,143829,1,0,0:0:0:50:A4S_s.wav
83,192,144000,1,0,0:0:0:50:A3S_s.wav
229,192,144000,1,0,0:0:0:50:E5S_s.wav
156,192,144171,1,0,0:0:0:50:E4S_s.wav
302,192,144171,1,0,0:0:0:50:C5S_s.wav
10,192,144343,1,0,0:0:0:50:A3S_s.wav
375,192,144343,1,0,0:0:0:50:A4S_s.wav
448,192,144343,1,0,0:0:0:50:C6S.wav
83,192,144514,1,0,0:0:0:50:E4S_s.wav
229,192,144514,1,0,0:0:0:50:E5S_s.wav
10,192,144686,1,0,0:0:0:50:A3S_s.wav
156,192,144686,1,0,0:0:0:50:C5S_s.wav
302,192,144686,1,0,0:0:0:50:E6S_s.wav
83,192,144857,1,0,0:0:0:50:E4S_s.wav
375,192,144857,1,0,0:0:0:50:A4S_s.wav
448,192,144857,1,0,0:0:0:50:D6S_s.wav
156,192,145029,1,0,0:0:0:50:A3S_s.wav
229,192,145029,1,0,0:0:0:50:C5S_s.wav
302,192,145029,1,0,0:0:0:50:C6S_s.wav
10,192,145200,1,0,0:0:0:50:E4S_s.wav
83,192,145200,1,0,0:0:0:50:E5S_s.wav
448,192,145200,1,0,0:0:0:50:E6S_s.wav
156,192,145371,1,0,0:0:0:50:A#3S_Bb3S_s.wav
229,192,145371,1,0,0:0:0:50:D5S_s.wav
375,192,145371,1,0,0:0:0:50:D6S_s.wav
10,192,145543,1,0,0:0:0:50:F4S_s.wav
302,192,145543,1,0,0:0:0:50:A#4S_Bb4S_s.wav
448,192,145543,1,0,0:0:0:50:A#5S_Bb5S_s.wav
83,192,145714,1,0,0:0:0:50:A#3S_Bb3S_s.wav
375,192,145714,1,0,0:0:0:50:F5S_s.wav
156,192,145886,1,0,0:0:0:50:F4S_s.wav
229,192,145886,1,0,0:0:0:50:D5S_s.wav
302,192,145886,1,0,0:0:0:50:F6S.wav
10,192,146057,1,0,0:0:0:50:A#3S_Bb3S_s.wav
448,192,146057,1,0,0:0:0:50:A#4S_Bb4S_s.wav
83,192,146229,1,0,0:0:0:50:F4S_s.wav
375,192,146229,1,0,0:0:0:50:F5S_s.wav
156,192,146400,1,0,0:0:0:50:A#3S_Bb3S_s.wav
229,192,146400,1,0,0:0:0:50:D5S_s.wav
10,192,146571,1,0,0:0:0:50:F4S_s.wav
302,192,146571,1,0,0:0:0:50:A#4S_Bb4S_s.wav
83,192,146743,1,0,0:0:0:50:A#3S_Bb3S_s.wav
375,192,146743,1,0,0:0:0:50:F5S_s.wav
448,192,146743,1,0,0:0:0:50:G6S.wav
156,192,146914,1,0,0:0:0:50:F4S_s.wav
229,192,146914,1,0,0:0:0:50:D5S_s.wav
10,192,147086,1,0,0:0:0:50:A#3S_Bb3S_s.wav
302,192,147086,1,0,0:0:0:50:A#4S_Bb4S_s.wav
83,192,147257,1,0,0:0:0:50:F4S_s.wav
375,192,147257,1,0,0:0:0:50:F5S_s.wav
448,192,147257,1,0,0:0:0:50:F6S.wav
156,192,147429,1,0,0:0:0:50:A#3S_Bb3S_s.wav
229,192,147429,1,0,0:0:0:50:D5S_s.wav
10,192,147600,1,0,0:0:0:50:F4S_s.wav
302,192,147600,1,0,0:0:0:50:A#4S_Bb4S_s.wav
83,192,147771,1,0,0:0:0:50:A#3S_Bb3S_s.wav
375,192,147771,1,0,0:0:0:50:D5S_s.wav
448,192,147771,1,0,0:0:0:50:D6S_s.wav
156,192,147943,1,0,0:0:0:50:F4S_s.wav
229,192,147943,1,0,0:0:0:50:F5S_s.wav
10,192,148114,1,0,0:0:0:50:A#3S_Bb3S_s.wav
302,192,148114,1,0,0:0:0:50:D5S.wav
448,192,148114,1,0,0:0:0:50:F6S.wav
83,192,148457,1,0,0:0:0:50:F4S_s.wav
229,192,148800,1,0,0:0:0:50:A#3S_Bb3S_s.wav
375,192,148800,1,0,0:0:0:50:F5S.wav
156,192,149143,1,0,0:0:0:50:F4S_s.wav
10,192,149486,1,0,0:0:0:50:A#3S_Bb3S_s.wav
302,192,149486,1,0,0:0:0:50:A#4S_Bb4S.wav
448,192,149486,1,0,0:0:0:50:E6S.wav
83,192,149829,1,0,0:0:0:50:E4S_s.wav
229,192,150171,1,0,0:0:0:50:A#3S_Bb3S_s.wav
375,192,150171,1,0,0:0:0:50:C5S.wav
156,192,150514,1,0,0:0:0:50:E4S_s.wav
10,192,150857,1,0,0:0:0:50:A#3S_Bb3S_s.wav
302,192,150857,1,0,0:0:0:50:D5S.wav
448,192,150857,1,0,0:0:0:50:D6S.wav
83,192,151200,1,0,0:0:0:50:D4S_s.wav
229,192,151543,1,0,0:0:0:50:A#3S_Bb3S_s.wav
375,192,151543,1,0,0:0:0:50:F5S.wav
156,192,151886,1,0,0:0:0:50:D4S_s.wav
10,192,152229,1,0,0:0:0:50:G4S_s.wav
302,192,152229,1,0,0:0:0:50:A#4S_Bb4S.wav
448,192,152229,1,0,0:0:0:50:E6S.wav
83,192,152571,1,0,0:0:0:50:E4S_s.wav
229,192,152914,1,0,0:0:0:50:A#3S_Bb3S_s.wav
375,192,152914,1,0,0:0:0:50:E5S_s.wav
156,192,153257,1,0,0:0:0:50:E4S_s.wav
448,192,153257,1,0,0:0:0:50:F5S_s.wav
10,192,153343,1,0,0:0:0:50:A5S_s.wav
302,192,153429,1,0,0:0:0:50:A#5S_Bb5S_s.wav
83,192,153514,1,0,0:0:0:50:C6S_s.wav
156,192,153600,1,0,0:0:0:50:A#3S_Bb3S_s.wav
229,192,153600,1,0,0:0:0:50:D6S.wav
375,192,153600,1,0,0:0:0:50:F7S.wav
448,192,153943,1,0,0:0:0:50:F4S_s.wav
10,192,154286,1,0,0:0:0:50:A#3S_Bb3S_s.wav
302,192,154286,1,0,0:0:0:50:F6S.wav
83,192,154629,1,0,0:0:0:50:F4S_s.wav
156,192,154971,1,0,0:0:0:50:A#3S_Bb3S_s.wav
229,192,154971,1,0,0:0:0:50:A#5S_Bb5S.wav
375,192,154971,1,0,0:0:0:50:E7S.wav
448,192,155314,1,0,0:0:0:50:E4S_s.wav
10,192,155657,1,0,0:0:0:50:A#3S_Bb3S_s.wav
302,192,155657,1,0,0:0:0:50:C6S.wav
83,192,156000,1,0,0:0:0:50:E4S_s.wav
156,192,156343,1,0,0:0:0:50:A#3S_Bb3S_s.wav
229,192,156343,1,0,0:0:0:50:D6S.wav
375,192,156343,1,0,0:0:0:50:G7S.wav
448,192,156686,1,0,0:0:0:50:D4S_s.wav
10,192,157029,1,0,0:0:0:50:A#3S_Bb3S_s.wav
302,192,157029,1,0,0:0:0:50:E6S.wav
83,192,157371,1,0,0:0:0:50:D4S_s.wav
156,192,157714,1,0,0:0:0:50:A#3S_Bb3S_s.wav
229,192,157714,1,0,0:0:0:50:F6S.wav
375,192,157714,1,0,0:0:0:50:F7S.wav
448,192,158057,1,0,0:0:0:50:E4S_s.wav
10,192,158400,1,0,0:0:0:50:A#3S_Bb3S_s.wav
302,192,158400,1,0,0:0:0:50:G6S.wav
83,192,158743,1,0,0:0:0:50:E4S_s.wav
156,192,159086,1,0,0:0:0:50:A3S_s.wav
229,192,159086,1,0,0:0:0:50:A#5S_Bb5S_s.wav
375,192,159086,1,0,0:0:0:50:E6S_s.wav
448,192,159257,1,0,0:0:0:50:E4S_s.wav
10,192,159429,1,0,0:0:0:50:E4S_s.wav
83,192,159600,1,0,0:0:0:50:A3S_s.wav
302,192,159600,1,0,0:0:0:50:A#5S_Bb5S_s.wav
375,192,159600,1,0,0:0:0:50:E6S_s.wav
229,192,159771,1,0,0:0:0:50:E4S_s.wav
156,192,159943,1,0,0:0:0:50:E4S_s.wav
10,192,160114,1,0,0:0:0:50:A3S_s.wav
302,192,160114,1,0,0:0:0:50:A#5S_Bb5S_s.wav
448,192,160114,1,0,0:0:0:50:E6S_s.wav
83,192,160286,1,0,0:0:0:50:E4S_s.wav
156,192,160457,1,0,0:0:0:50:A3S_s.wav
229,192,160457,1,0,0:0:0:50:A5S_s.wav
375,192,160457,1,0,0:0:0:50:E6S_s.wav
302,192,160629,1,0,0:0:0:50:E4S_s.wav
10,192,160800,1,0,0:0:0:50:E4S_s.wav
83,192,160971,1,0,0:0:0:50:A3S_s.wav
375,192,160971,1,0,0:0:0:50:A5S_s.wav
448,192,160971,1,0,0:0:0:50:E6S_s.wav
229,192,161143,1,0,0:0:0:50:E4S_s.wav
156,192,161314,1,0,0:0:0:50:E4S_s.wav
10,192,161486,1,0,0:0:0:50:A3S_s.wav
302,192,161486,1,0,0:0:0:50:A5S_s.wav
375,192,161486,1,0,0:0:0:50:E6S_s.wav
83,192,161657,1,0,0:0:0:50:E4S_s.wav
156,192,161829,1,0,0:0:0:50:A3S_s.wav
229,192,161829,1,0,0:0:0:50:C6S_s.wav
448,192,161829,1,0,0:0:0:50:E6S_s.wav
375,192,162000,1,0,0:0:0:50:E4S_s.wav
10,192,162171,1,0,0:0:0:50:E4S_s.wav
83,192,162343,1,0,0:0:0:50:A3S_s.wav
302,192,162343,1,0,0:0:0:50:C6S_s.wav
448,192,162343,1,0,0:0:0:50:E6S_s.wav
229,192,162514,1,0,0:0:0:50:E4S_s.wav
156,192,162686,1,0,0:0:0:50:E4S_s.wav
10,192,162857,1,0,0:0:0:50:A3S_s.wav
302,192,162857,1,0,0:0:0:50:C6S_s.wav
375,192,162857,1,0,0:0:0:50:E6S_s.wav
83,192,163029,1,0,0:0:0:50:E4S_s.wav
156,192,163200,1,0,0:0:0:50:A3S_s.wav
229,192,163200,1,0,0:0:0:50:A#5S_Bb5S_s.wav
448,192,163200,1,0,0:0:0:50:E6S_s.wav
375,192,163371,1,0,0:0:0:50:E4S_s.wav
10,192,163543,1,0,0:0:0:50:E4S_s.wav
83,192,163714,1,0,0:0:0:50:A3S_s.wav
302,192,163714,1,0,0:0:0:50:A#5S_Bb5S_s.wav
448,192,163714,1,0,0:0:0:50:E6S_s.wav
229,192,163886,1,0,0:0:0:50:E4S_s.wav
156,192,164057,1,0,0:0:0:50:E4S_s.wav
10,192,164229,1,0,0:0:0:50:A3S_s.wav
375,192,164229,1,0,0:0:0:50:A5S_s.wav
448,192,164229,1,0,0:0:0:50:E6S_s.wav
83,192,164400,1,0,0:0:0:50:E4S_s.wav
156,192,164571,1,0,0:0:0:50:A3S_s.wav
229,192,164571,1,0,0:0:0:50:C#5S_Db5S.wav
302,192,164571,1,0,0:0:0:50:A5S_s.wav
448,192,164743,1,0,0:0:0:50:E4S_s.wav
10,192,164914,1,0,0:0:0:50:A3S_s.wav
83,192,164914,1,0,0:0:0:50:D5S_s.wav
375,192,164914,1,0,0:0:0:50:B5S_s.wav
302,192,165086,1,0,0:0:0:50:E4S_s.wav
156,192,165257,1,0,0:0:0:50:A3S_s.wav
229,192,165257,1,0,0:0:0:50:B4S_s.wav
448,192,165257,1,0,0:0:0:50:G5S_s.wav
10,192,165429,1,0,0:0:0:50:E4S_s.wav
83,192,165429,1,0,0:0:0:50:C#5S_Db5S_s.wav
375,192,165429,1,0,0:0:0:50:A5S.wav
302,192,165600,1,0,0:0:0:50:A3S_s.wav
156,192,165771,1,0,0:0:0:50:E4S_s.wav
229,192,165771,1,0,0:0:0:50:C#5S_Db5S_s.wav
448,192,165857,1,0,0:0:0:50:D5S_s.wav
10,192,165943,1,0,0:0:0:50:A3S_s.wav
375,192,165943,1,0,0:0:0:50:E5S_s.wav
83,192,166114,1,0,0:0:0:50:E4S_s.wav
302,192,166114,1,0,0:0:0:50:D5S_s.wav
156,192,166286,1,0,0:0:0:50:A3S_s.wav
229,192,166286,1,0,0:0:0:50:B4S_s.wav
448,192,166286,1,0,0:0:0:50:B5S_s.wav
10,192,166457,1,0,0:0:0:50:E4S_s.wav
83,192,166457,1,0,0:0:0:50:C#5S_Db5S_s.wav
375,192,166457,1,0,0:0:0:50:C#6S_Db6S_s.wav
156,192,166629,1,0,0:0:0:50:A3S_s.wav
302,192,166629,1,0,0:0:0:50:E6S_s.wav
229,192,166800,1,0,0:0:0:50:E4S_s.wav
448,192,166800,1,0,0:0:0:50:D6S_s.wav
83,192,166971,1,0,0:0:0:50:A3S_s.wav
375,192,166971,1,0,0:0:0:50:C#6S_Db6S_s.wav
10,192,167143,1,0,0:0:0:50:E4S_s.wav
302,192,167143,1,0,0:0:0:50:B5S_s.wav
156,192,167314,1,0,0:0:0:50:A#3S_Bb3S_s.wav
229,192,167314,1,0,0:0:0:50:D5S_s.wav
448,192,167314,1,0,0:0:0:50:A#5S_Bb5S.wav
83,192,167400,1,0,0:0:0:50:D#5S_Eb5S_s.wav
10,192,167486,1,0,0:0:0:50:F4S_s.wav
375,192,167486,1,0,0:0:0:50:E5S_s.wav
302,192,167571,1,0,0:0:0:50:F5S_s.wav
156,192,167657,1,0,0:0:0:50:A#3S_Bb3S_s.wav
448,192,167743,1,0,0:0:0:50:E5S_s.wav
83,192,167829,1,0,0:0:0:50:F4S_s.wav
229,192,167829,1,0,0:0:0:50:D#5S_Eb5S_s.wav
375,192,167914,1,0,0:0:0:50:D5S_s.wav
10,192,168000,1,0,0:0:0:50:A#3S_Bb3S_s.wav
302,192,168000,1,0,0:0:0:50:C#5S_Db5S_s.wav
156,192,168171,1,0,0:0:0:50:F4S_s.wav
448,192,168343,1,0,0:0:0:50:A#3S_Bb3S_s.wav
229,192,168514,1,0,0:0:0:50:F4S_s.wav
83,192,168686,1,0,0:0:0:50:A#3S_Bb3S_s.wav
10,192,168857,1,0,0:0:0:50:F4S_s.wav
302,192,168857,1,0,0:0:0:50:F5S_s.wav
375,192,168857,1,0,0:0:0:50:A#5S_Bb5S_s.wav
156,192,169029,1,0,0:0:0:50:A#3S_Bb3S_s.wav
229,192,169029,1,0,0:0:0:50:E5S_s.wav
448,192,169029,1,0,0:0:0:50:C6S_s.wav
83,192,169200,1,0,0:0:0:50:F4S_s.wav
375,192,169200,1,0,0:0:0:50:F6S_s.wav
10,192,169371,1,0,0:0:0:50:A#3S_Bb3S_s.wav
156,192,169371,1,0,0:0:0:50:D5S_s.wav
302,192,169371,1,0,0:0:0:50:E6S_s.wav
229,192,169543,1,0,0:0:0:50:F4S_s.wav
375,192,169543,1,0,0:0:0:50:E5S_s.wav
448,192,169543,1,0,0:0:0:50:D6S_s.wav
83,192,169714,1,0,0:0:0:50:A#3S_Bb3S_s.wav
156,192,169714,1,0,0:0:0:50:F5S_s.wav
302,192,169714,1,0,0:0:0:50:C6S_s.wav
10,192,169886,1,0,0:0:0:50:F4S_s.wav
229,192,169886,1,0,0:0:0:50:G5S_s.wav
448,192,169886,1,0,0:0:0:50:A#5S_Bb5S_s.wav
83,192,170057,1,0,0:0:0:50:B3S_s.wav
302,192,170057,1,0,0:0:0:50:D#5S_Eb5S_s.wav
375,192,170057,1,0,0:0:0:50:B5S.wav
156,192,170143,1,0,0:0:0:50:E5S_s.wav
10,192,170229,1,0,0:0:0:50:F#4S_Gb4S_s.wav
448,192,170229,1,0,0:0:0:50:F5S_s.wav
229,192,170314,1,0,0:0:0:50:F#5S_Gb5S_s.wav
302,192,170400,1,0,0:0:0:50:B3S_s.wav
83,192,170486,1,0,0:0:0:50:F5S_s.wav
156,192,170571,1,0,0:0:0:50:F#4S_Gb4S_s.wav
375,192,170571,1,0,0:0:0:50:E5S_s.wav
448,192,170657,1,0,0:0:0:50:D#5S_Eb5S_s.wav
10,192,170743,1,0,0:0:0:50:B3S_s.wav
229,192,170743,1,0,0:0:0:50:D5S_s.wav
302,192,170914,1,0,0:0:0:50:F#4S_Gb4S_s.wav
83,192,171086,1,0,0:0:0:50:B3S_s.wav
375,192,171257,1,0,0:0:0:50:F#4S_Gb4S_s.wav
156,192,171429,1,0,0:0:0:50:B3S_s.wav
10,192,171600,1,0,0:0:0:50:F#4S_Gb4S_s.wav
229,192,171600,1,0,0:0:0:50:F#5S_Gb5S_s.wav
448,192,171600,1,0,0:0:0:50:B5S_s.wav
83,192,171771,1,0,0:0:0:50:B3S_s.wav
302,192,171771,1,0,0:0:0:50:E5S_s.wav
375,192,171771,1,0,0:0:0:50:C#6S_Db6S_s.wav
156,192,171943,1,0,0:0:0:50:F#4S_Gb4S_s.wav
448,192,171943,1,0,0:0:0:50:G6S_s.wav
10,192,172114,1,0,0:0:0:50:B3S_s.wav
229,192,172114,1,0,0:0:0:50:D#5S_Eb5S_s.wav
302,192,172114,1,0,0:0:0:50:F#6S_Gb6S_s.wav
83,192,172286,1,0,0:0:0:50:F#4S_Gb4S_s.wav
156,192,172286,1,0,0:0:0:50:E5S_s.wav
375,192,172286,1,0,0:0:0:50:E6S_s.wav
10,192,172457,1,0,0:0:0:50:B3S_s.wav
229,192,172457,1,0,0:0:0:50:F#5S_Gb5S_s.wav
448,192,172457,1,0,0:0:0:50:D6S_s.wav
83,192,172628,1,0,0:0:0:50:F#4S_Gb4S_s.wav
302,192,172628,1,0,0:0:0:50:G5S_s.wav
375,192,172628,1,0,0:0:0:50:B5S_s.wav
10,192,172800,1,0,0:0:0:50:C4S_s.wav
156,192,172800,1,0,0:0:0:50:E5S.wav
448,192,172800,1,0,0:0:0:50:C6S.wav
229,192,172971,1,0,0:0:0:50:G4S_s.wav
302,192,173143,1,0,0:0:0:50:C4S_s.wav
83,192,173314,1,0,0:0:0:50:G4S_s.wav
156,192,173486,1,0,0:0:0:50:C4S_s.wav
375,192,173486,1,0,0:0:0:50:F#5S_Gb5S.wav
448,192,173657,1,0,0:0:0:50:G4S_s.wav
10,192,173828,1,0,0:0:0:50:C4S_s.wav
229,192,174000,1,0,0:0:0:50:G4S_s.wav
83,192,174171,1,0,0:0:0:50:C4S_s.wav
302,192,174171,1,0,0:0:0:50:G5S.wav
375,192,174171,1,0,0:0:0:50:E6S.wav
156,192,174343,1,0,0:0:0:50:G4S_s.wav
448,192,174514,1,0,0:0:0:50:F#4S_Gb4S_s.wav
10,192,174686,1,0,0:0:0:50:E4S_s.wav
83,192,174857,1,0,0:0:0:50:F#4S_Gb4S_s.wav
229,192,174857,1,0,0:0:0:50:C6S.wav
375,192,174857,1,0,0:0:0:50:G6S.wav
302,192,175028,1,0,0:0:0:50:E4S_s.wav
156,192,175200,1,0,0:0:0:50:D4S_s.wav
448,192,175200,1,0,0:0:0:50:F#5S_Gb5S_s.wav
10,192,175286,1,0,0:0:0:50:G5S_s.wav
229,192,175371,1,0,0:0:0:50:C#4S_Db4S_s.wav
375,192,175371,1,0,0:0:0:50:A5S_s.wav
83,192,175457,1,0,0:0:0:50:A#5S_Bb5S_s.wav
