osu file format v14

[General]
AudioFilename: audio.mp3
AudioLeadIn: 0
PreviewTime: 124
Countdown: 0
SampleSet: Soft
StackLeniency: 0.7
Mode: 0
LetterboxInBreaks: 0
WidescreenStoryboard: 0

[Editor]
Bookmarks: 5694,39390,49148
DistanceSpacing: 1
BeatDivisor: 4
GridSize: 8
TimelineZoom: 1

[Metadata]
Title:Pallet Town Theme
TitleUnicode:マサラタウンのテーマ
Artist:Junichi Masuda
ArtistUnicode:増田順一
Creator:Chompy
Version:Your Journey Awaits!
Source:ポケットモンスター Let's Go! ピカチュウ・Let's Go! イーブイ
Tags:Pokémon Let's Go Pikachu Eevee pokemon nintendo gamefreak 増田順一 Junichi Masuda 景山将太 Shota Kageyama leo16834
BeatmapID:2147448
BeatmapSetID:1026872

[Difficulty]
HPDrainRate:5
CircleSize:4
OverallDifficulty:5
ApproachRate:7
SliderMultiplier:1.8
SliderTickRate:1

[Events]
//Background and Video events
0,0,"971712.jpg",0,0
//Break Periods
//Storyboard Layer 0 (Background)
//Storyboard Layer 1 (Fail)
//Storyboard Layer 2 (Pass)
//Storyboard Layer 3 (Foreground)
//Storyboard Layer 4 (Overlay)
//Storyboard Sound Samples

[TimingPoints]
166,618.301731244847,4,2,2,43,1,0
3870,606.060606060606,4,2,2,43,1,0
5085,609.137055837563,4,2,2,43,1,0
7524,615.384615384615,4,2,2,43,1,0
8753,612.244897959184,4,2,2,43,1,0
13344,606.060606060606,4,2,2,43,1,0
14864,615.384615384615,4,2,2,43,1,0
17327,603.015075376884,4,2,2,43,1,0
18834,610.376398779247,4,2,2,43,1,0
21888,645.161290322581,4,2,2,43,1,0
22211,610.252237591538,4,2,2,43,1,0
27095,612.244897959184,4,2,2,43,1,0
29543,-100,4,2,2,64,0,0
30770,594.059405940594,4,2,2,64,1,0
31364,631.578947368421,4,2,2,64,1,0
31994,615.384615384615,4,2,2,64,1,0
34455,606.060606060606,4,2,2,64,1,0
36270,618.556701030928,4,2,2,64,1,0
36890,606.060606060606,4,2,2,64,1,0
38105,645.161290322581,4,2,2,64,1,0
39390,600,4,2,2,43,1,0
40589,612.244897959184,4,2,2,43,1,0
42731,652.173913043478,4,2,2,43,1,0
43056,594.059405940594,4,2,2,43,1,0
43655,618.556701030928,4,2,2,43,1,0
44275,609.756097560976,4,2,2,43,1,0
47936,606.060606060606,4,2,2,43,1,0
49148,-100,4,2,2,43,0,0
50972,612.244897959184,4,2,2,43,1,0
55256,612.244897959184,4,2,2,43,1,0
56484,612.244897959184,4,2,2,43,1,0
58938,-100,4,2,2,43,0,0
61076,625,4,2,2,43,1,0
61387,609.137055837563,4,2,2,43,1,0
64437,612.244897959184,4,2,2,43,1,0
66273,618.556701030928,4,2,2,43,1,0
67820,606.060606060606,4,2,2,43,1,0
68729,-100,4,2,2,43,0,0
70549,621.761658031088,4,2,2,43,1,0
72408,600,4,2,2,43,1,0
73007,625,4,2,2,43,1,0
73632,606.060606060606,4,2,2,43,1,0
75445,625,4,2,2,43,1,0
76070,606.060606060606,4,2,2,43,1,0
77285,638.297872340426,4,2,2,43,1,0
78560,606.060606060606,4,2,2,43,1,0
79770,612.870275791624,4,2,2,43,1,0
80979,-100,4,2,2,43,0,0
82203,-100,4,2,2,43,0,0
83428,-100,4,2,2,43,0,0
85877,-100,4,2,2,43,0,0

[Colours]
Combo1 : 252,122,145
Combo2 : 145,145,200
Combo3 : 133,194,197

[HitObjects]
144,32,166,6,0,P|110:64|53:55,1,90,2|2,2:0|2:0,2:0:0:0:
65,171,784,2,0,P|99:139|156:148,1,90,10|2,2:0|2:0,2:0:0:0:
241,103,1402,1,2,2:0:0:0:
175,187,1711,1,2,2:0:0:0:
282,187,2020,1,10,2:0:0:0:
206,264,2330,1,2,2:0:0:0:
98,259,2639,6,0,P|133:337|214:322,1,180,6|10,2:0|2:0,2:0:0:0:
253,242,3566,1,0,2:0:0:0:
294,321,3870,1,2,2:0:0:0:
294,321,4173,1,2,2:0:0:0:
365,266,4476,2,0,P|389:230|433:226,1,90,10|0,2:0|2:0,2:0:0:0:
456,328,5085,6,0,B|444:332|423:358|423:358|428:308|405:261|385:230|385:230|323:127|356:87|356:87|381:130,1,360,6|8,2:0|2:0,2:0:0:0:
437,166,6607,1,2,2:0:0:0:
439,66,6912,1,2,2:0:0:0:
344,16,7216,1,2,2:0:0:0:
240,72,7524,6,0,B|226:113|281:171|296:196|296:196|275:182|250:186,1,180,6|8,2:0|2:0,2:0:0:0:
184,232,8447,1,0,2:0:0:0:
212,260,8600,1,0,2:0:0:0:
252,261,8753,2,0,B|292:277|299:356|308:384|308:384|312:359|325:349,1,180,6|8,2:0|2:0,2:0:0:0:
382,25,9977,6,0,P|416:57|473:48,1,90,2|2,2:0|2:0,2:0:0:0:
461,164,10589,2,0,P|427:132|370:141,1,90,10|2,2:0|2:0,2:0:0:0:
283,98,11201,1,2,2:0:0:0:
380,191,11508,1,2,2:0:0:0:
380,191,11814,1,10,2:0:0:0:
283,98,12120,1,2,2:0:0:0:
175,111,12426,6,0,B|162:182|50:120|25:181,1,180,6|8,2:0|2:0,2:0:0:0:
122,230,13344,1,2,2:0:0:0:
122,230,13647,2,0,B|159:260|189:224|222:222|250:255|260:302|229:330|185:316|190:298,1,180,6|8,2:0|2:0,2:0:0:0:
2,353,14864,6,0,P|36:321|93:330,1,90,2|2,2:0|2:0,2:0:0:0:
81,214,15479,2,0,P|47:246|-10:237,1,90,10|2,2:0|2:0,2:0:0:0:
67,157,16094,6,0,P|101:125|158:134,1,90,2|2,2:0|2:0,2:0:0:0:
146,19,16710,2,0,P|112:51|55:42,1,90,10|2,2:0|2:0,2:0:0:0:
7,130,17327,2,0,B|21:73|48:54|85:61|109:79|157:105|133:151|40:196|46:235|136:253|115:315,1,360,6|8,2:0|2:0,2:0:0:0:
35,344,18834,5,2,2:0:0:0:
126,382,19139,1,2,2:0:0:0:
210,314,19444,1,2,2:0:0:0:
192,198,19749,6,0,P|229:103|397:100,1,270,6|0,2:0|2:0,2:0:0:0:
307,178,20970,2,0,P|339:277|412:303,1,180,6|8,2:0|2:0,2:0:0:0:
418,192,21888,1,2,2:0:0:0:
320,268,22211,6,0,B|258:259|206:235|162:398|108:385|24:334|50:266|50:266|53:258,1,360,6|8,2:0|2:0,2:0:0:0:
86,179,23736,1,2,2:0:0:0:
181,153,24041,1,2,2:0:0:0:
263,222,24346,1,2,2:0:0:0:
222,332,24652,6,0,P|176:340|135:276,1,90,6|0,2:0|2:0,2:0:0:0:
126,209,25262,2,0,P|171:200|212:264,1,90,10|0,2:0|2:0,2:0:0:0:
295,282,25872,2,0,B|367:285|372:341|413:351|446:300|419:281|404:279,1,180,14|8,2:0|2:0,2:0:0:0:
343,188,26787,1,0,2:0:0:0:
306,170,26940,1,0,2:0:0:0:
267,184,27095,6,0,B|168:80|89:165|13:129|22:5|90:8|128:32,1,360,6|8,2:0|2:0,2:0:0:0:
224,75,28625,1,2,2:0:0:0:
232,173,28931,1,2,2:0:0:0:
160,228,29237,1,2,2:0:0:0:
53,211,29543,6,0,P|65:176|264:221,1,270,6|0,2:0|2:0,2:0:0:0:
164,264,30770,2,0,P|217:310|265:297,1,90,2|0,2:0|2:0,2:0:0:0:
333,266,31364,2,0,P|277:218|230:231,1,90,2|0,2:0|2:0,2:0:0:0:
221,329,31994,6,0,P|191:350|48:205,1,270,6|0,2:0|2:0,2:0:0:0:
155,236,33224,2,0,P|134:166|88:151,1,90,2|0,2:0|2:0,2:0:0:0:
6,146,33840,2,0,P|25:214|71:229,1,90,2|0,2:0|2:0,2:0:0:0:
153,196,34455,6,0,B|191:140|268:208|268:208|345:275|384:220,1,270,6|0,2:0|2:0,2:0:0:0:
316,113,35667,2,0,P|347:83|391:80,1,90,2|0,2:0|2:0,2:0:0:0:
390,202,36270,2,0,P|356:230|312:232,1,90,2|0,2:0|2:0,2:0:0:0:
327,94,36890,6,0,P|493:124|510:201,1,270,6|0,2:0|2:0,2:0:0:0:
448,312,38105,2,0,P|320:319|263:205,1,270,6|0,2:0|2:0,2:0:0:0:
330,113,39390,6,0,P|364:145|421:136,1,90,2|2,2:0|2:0,2:0:0:0:
409,252,39990,2,0,P|375:220|318:229,1,90,10|2,2:0|2:0,2:0:0:0:
233,184,40590,1,2,2:0:0:0:
299,268,40895,1,2,2:0:0:0:
192,268,41201,1,10,2:0:0:0:
268,345,41507,1,2,2:0:0:0:
375,341,41813,6,0,P|453:305|438:225,1,180,6|10,2:0|2:0,2:0:0:0:
356,185,42731,1,0,2:0:0:0:
435,144,43056,1,2,2:0:0:0:
435,144,43353,1,2,2:0:0:0:
380,73,43655,2,0,P|344:48|340:4,1,90,10|0,2:0|2:0,2:0:0:0:
449,5,44275,2,0,B|448:6|448:6|391:52|325:45|325:45|274:39|216:55|161:83|161:83|205:89|229:103,1,360,6|8,0:0|0:0,0:0:0:0:
296,137,45799,1,2,0:0:0:0:
240,218,46104,1,2,0:0:0:0:
134,204,46409,1,2,0:0:0:0:
77,101,46714,6,0,B|77:100|77:100|98:69|152:68|152:68|194:68|226:40|226:40|203:17,1,180,6|0,0:0|0:0,0:0:0:0:
307,31,47628,1,0,2:0:0:0:
305,70,47781,1,0,2:0:0:0:
276,98,47936,2,0,B|275:98|275:98|277:136|233:168|233:168|199:192|188:233|188:233|202:235,1,180,6|0,0:0|0:0,0:0:0:0:
130,359,49148,6,0,P|96:327|39:336,1,90,2|2,2:0|2:0,2:0:0:0:
51,220,49754,2,0,P|85:252|142:243,1,90,10|2,2:0|2:0,2:0:0:0:
229,286,50360,1,2,2:0:0:0:
132,193,50663,1,2,2:0:0:0:
132,193,50966,1,10,2:0:0:0:
229,286,51278,1,2,2:0:0:0:
337,273,51584,6,0,B|350:202|462:264|487:203,1,180,6|8,2:0|2:0,2:0:0:0:
390,154,52502,1,2,2:0:0:0:
390,154,52808,2,0,B|353:124|323:160|290:162|262:129|252:82|283:54|327:68|322:86,1,180,6|8,2:0|2:0,2:0:0:0:
510,31,54033,6,0,P|476:63|419:54,1,90,2|2,2:0|2:0,2:0:0:0:
431,170,54645,2,0,P|465:138|522:147,1,90,10|2,2:0|2:0,2:0:0:0:
445,227,55257,6,0,P|411:259|354:250,1,90,2|2,2:0|2:0,2:0:0:0:
366,365,55868,2,0,P|400:333|457:342,1,90,10|2,2:0|2:0,2:0:0:0:
505,254,56484,2,0,B|491:311|464:330|427:323|403:305|355:279|379:233|472:188|466:149|376:131|397:69,1,360,6|8,2:0|2:0,2:0:0:0:
477,40,58014,5,2,2:0:0:0:
386,2,58320,1,2,2:0:0:0:
302,70,58626,1,2,2:0:0:0:
320,186,58932,6,0,P|283:281|115:284,1,270,6|0,2:0|2:0,2:0:0:0:
205,206,60157,2,0,P|173:107|100:81,1,180,6|8,2:0|2:0,2:0:0:0:
94,192,61076,1,2,2:0:0:0:
192,116,61388,6,0,B|254:125|306:149|350:-14|404:-1|488:50|462:118|462:118|459:126,1,360,6|8,2:0|2:0,2:0:0:0:
426,205,62909,1,2,2:0:0:0:
331,231,63214,1,2,2:0:0:0:
249,162,63518,1,2,2:0:0:0:
290,52,63823,6,0,P|336:44|377:108,1,90,6|0,2:0|2:0,2:0:0:0:
386,175,64437,2,0,P|341:184|300:120,1,90,10|0,2:0|2:0,2:0:0:0:
217,102,65049,2,0,B|145:99|140:43|99:33|66:84|93:103|108:105,1,180,14|8,2:0|2:0,2:0:0:0:
169,196,65967,1,0,2:0:0:0:
206,214,66120,1,0,2:0:0:0:
245,200,66273,6,0,B|344:304|423:219|499:255|490:379|422:376|384:352,1,360,6|8,2:0|2:0,2:0:0:0:
288,309,67820,1,2,2:0:0:0:
280,211,68123,1,2,2:0:0:0:
352,156,68426,1,2,2:0:0:0:
459,173,68729,6,0,P|447:208|248:163,1,270,6|0,2:0|2:0,2:0:0:0:
348,120,69941,2,0,P|295:74|247:87,1,90,2|0,2:0|2:0,2:0:0:0:
179,118,70549,2,0,P|235:166|282:153,1,90,2|0,2:0|2:0,2:0:0:0:
291,55,71170,6,0,P|321:34|464:179,1,270,6|0,2:0|2:0,2:0:0:0:
357,148,72408,2,0,P|378:218|424:233,1,90,2|0,2:0|2:0,2:0:0:0:
506,238,73007,2,0,P|487:170|441:155,1,90,2|0,2:0|2:0,2:0:0:0:
359,188,73632,6,0,B|321:244|244:176|244:176|167:109|128:164,1,270,6|0,2:0|2:0,2:0:0:0:
196,271,74844,2,0,P|165:301|121:304,1,90,2|0,2:0|2:0,2:0:0:0:
122,182,75445,2,0,P|156:154|200:152,1,90,2|0,2:0|2:0,2:0:0:0:
185,290,76070,6,0,P|19:260|2:183,1,270,6|0,2:0|2:0,2:0:0:0:
64,72,77285,2,0,P|192:65|249:179,1,270,6|0,2:0|2:0,2:0:0:0:
128,184,78561,5,14,0:0:0:0:
256,192,78711,12,0,83447,2:0:0:0:
