osu file format v14

[General]
AudioFilename: audio.mp3
AudioLeadIn: 0
PreviewTime: -1
Countdown: 0
SampleSet: None
StackLeniency: 0.7
Mode: 3
LetterboxInBreaks: 0
SpecialStyle: 0
WidescreenStoryboard: 0

[Editor]
DistanceSpacing: 1.2
BeatDivisor: 4
GridSize: 4
TimelineZoom: 1

[Metadata]
Title:Mezase Pokemon Master
TitleUnicode:めざせポケモンマスター(目标是神奇宝贝大师)
Artist:Junichi Masuda
ArtistUnicode:Junichi Masuda
Creator:pikechu
Version:Mezase Pokemon Master
Source:Pokemon
Tags:
BeatmapID:1577099
BeatmapSetID:748653

[Difficulty]
HPDrainRate:8
CircleSize:7
OverallDifficulty:8
ApproachRate:5
SliderMultiplier:1.4
SliderTickRate:1

[Events]
//Background and Video events
0,0,"background.jpg",0,0
//Break Periods
//Storyboard Layer 0 (Background)
//Storyboard Layer 1 (Fail)
//Storyboard Layer 2 (Pass)
//Storyboard Layer 3 (Foreground)
//Storyboard Sound Samples

[TimingPoints]
0,363.636,4,1,1,100,1,0

[HitObjects]
302,192,2636,5,0,0:0:0:86:A4S_s.wav
156,192,2670,1,0,0:0:0:86:B4S_s.wav
375,192,2697,1,0,0:0:0:86:C5S_s.wav
83,192,2727,1,0,0:0:0:86:D5S_s.wav
448,192,2755,1,0,0:0:0:86:E5S_s.wav
229,192,2776,1,0,0:0:0:86:F5S_s.wav
10,192,2797,1,0,0:0:0:86:G5S_s.wav
302,192,2809,1,0,0:0:0:86:A5S_s.wav
156,192,2824,1,0,0:0:0:86:B5S_s.wav
375,192,2836,1,0,0:0:0:86:C6S_s.wav
83,192,2845,1,0,0:0:0:86:D6S_s.wav
448,192,2909,1,0,0:0:0:100:A5S.wav
229,192,3727,1,0,0:0:0:100:A4S_s.wav
10,192,3818,1,0,0:0:0:100:E5S_s.wav
302,192,4000,1,0,0:0:0:100:C5S_s.wav
156,192,4091,1,0,0:0:0:100:B4S_s.wav
375,192,4182,1,0,0:0:0:100:A4S_s.wav
83,192,4273,1,0,0:0:0:100:E4S_s.wav
10,192,4364,1,0,0:0:0:86:E4S.wav
229,192,4364,1,0,0:0:0:86:A4S.wav
448,192,4364,1,0,0:0:0:100:A5S_s.wav
302,192,4370,1,0,0:0:0:86:A3S.wav
156,192,4455,1,0,0:0:0:100:E5S_s.wav
375,192,4545,1,0,0:0:0:100:A5S_s.wav
83,192,4636,1,0,0:0:0:100:B5S_s.wav
302,192,4727,1,0,0:0:0:100:C6S_s.wav
10,192,4818,1,0,0:0:0:100:B5S_s.wav
229,192,4909,1,0,0:0:0:100:C6S_s.wav
448,192,5000,1,0,0:0:0:100:D6S_s.wav
83,192,5091,1,0,0:0:0:86:G3S.wav
156,192,5091,1,0,0:0:0:86:D4S.wav
302,192,5091,1,0,0:0:0:86:G4S.wav
375,192,5091,1,0,0:0:0:100:E6S.wav
10,192,5818,1,0,0:0:0:86:F3S.wav
229,192,5818,1,0,0:0:0:86:F4S.wav
448,192,5818,1,0,0:0:0:86:A4S.wav
83,192,6000,1,0,0:0:0:100:A5S_s.wav
302,192,6091,1,0,0:0:0:100:B5S_s.wav
156,192,6182,1,0,0:0:0:100:C6S_s.wav
375,192,6364,1,0,0:0:0:100:E6S_s.wav
10,192,6545,1,0,0:0:0:86:G3S.wav
83,192,6545,1,0,0:0:0:86:D4S.wav
229,192,6545,1,0,0:0:0:86:G4S.wav
448,192,6545,1,0,0:0:0:100:D6S_s.wav
302,192,6727,1,0,0:0:0:100:C6S_s.wav
156,192,6788,1,0,0:0:0:100:D6S_s.wav
375,192,6848,1,0,0:0:0:100:C6S_s.wav
10,192,6909,1,0,0:0:0:100:B5S_s.wav
448,192,7091,1,0,0:0:0:100:G5S_s.wav
83,192,7273,1,0,0:0:0:86:E4S.wav
229,192,7273,1,0,0:0:0:86:A4S.wav
302,192,7273,1,0,0:0:0:100:A5S_s.wav
156,192,7279,1,0,0:0:0:86:A3S.wav
375,192,7364,1,0,0:0:0:100:E5S_s.wav
10,192,7455,1,0,0:0:0:100:A5S_s.wav
448,192,7545,1,0,0:0:0:100:B5S_s.wav
156,192,7636,1,0,0:0:0:100:C6S_s.wav
302,192,7727,1,0,0:0:0:100:B5S_s.wav
83,192,7818,1,0,0:0:0:100:C6S_s.wav
229,192,7909,1,0,0:0:0:100:D6S_s.wav
10,192,8000,1,0,0:0:0:86:G3S.wav
156,192,8000,1,0,0:0:0:86:D4S.wav
375,192,8000,1,0,0:0:0:86:G4S.wav
448,192,8000,1,0,0:0:0:100:E6S.wav
83,192,8727,1,0,0:0:0:86:F3S.wav
229,192,8727,1,0,0:0:0:86:C4S.wav
302,192,8727,1,0,0:0:0:86:F4S.wav
448,192,8909,1,0,0:0:0:100:A5S_s.wav
156,192,9091,1,0,0:0:0:100:C6S_s.wav
10,192,9182,1,0,0:0:0:86:F4S_s.wav
229,192,9182,1,0,0:0:0:86:A4S_s.wav
302,192,9182,1,0,0:0:0:86:C5S_s.wav
375,192,9182,1,0,0:0:0:100:E6S_s.wav
10,192,9364,1,0,0:0:0:86:E4S_s.wav
83,192,9364,1,0,0:0:0:86:G#4S_Ab4S_s.wav
156,192,9364,1,0,0:0:0:86:B4S_s.wav
302,192,9364,1,0,0:0:0:100:G#5S_Ab5S_s.wav
375,192,9364,1,0,0:0:0:100:D6S_s.wav
448,192,9364,1,0,0:0:0:100:G6S_s.wav
83,192,9818,1,0,0:0:0:100:A4S_s.wav
229,192,9818,1,0,0:0:0:100:A5S_s.wav
10,192,9909,1,0,0:0:0:100:B4S_s.wav
448,192,9909,1,0,0:0:0:100:B5S_s.wav
156,192,10000,1,0,0:0:0:100:A4S_s.wav
375,192,10000,1,0,0:0:0:100:A5S_s.wav
83,192,10182,1,0,0:0:0:86:E4S.wav
229,192,10182,1,0,0:0:0:86:A4S.wav
302,192,10182,1,0,0:0:0:100:C5S_s.wav
448,192,10182,1,0,0:0:0:100:C6S_s.wav
10,192,10188,1,0,0:0:0:86:A3S.wav
156,192,10273,1,0,0:0:0:100:A4S_s.wav
375,192,10273,1,0,0:0:0:100:A5S_s.wav
83,192,10364,1,0,0:0:0:100:C5S_s.wav
302,192,10364,1,0,0:0:0:100:C6S_s.wav
229,192,10455,1,0,0:0:0:100:A4S_s.wav
448,192,10455,1,0,0:0:0:100:A5S_s.wav
10,192,10545,1,0,0:0:0:100:C5S_s.wav
375,192,10545,1,0,0:0:0:100:C6S_s.wav
156,192,10636,1,0,0:0:0:100:A4S_s.wav
302,192,10636,1,0,0:0:0:100:A5S_s.wav
83,192,10727,1,0,0:0:0:100:C5S_s.wav
229,192,10727,1,0,0:0:0:100:C6S_s.wav
10,192,10818,1,0,0:0:0:100:A4S_s.wav
448,192,10818,1,0,0:0:0:100:A5S_s.wav
83,192,10909,1,0,0:0:0:86:G3S.wav
156,192,10909,1,0,0:0:0:86:D4S.wav
229,192,10909,1,0,0:0:0:86:G4S.wav
302,192,10909,1,0,0:0:0:100:C5S_s.wav
375,192,10909,1,0,0:0:0:100:C6S_s.wav
10,192,11000,1,0,0:0:0:100:A4S_s.wav
448,192,11000,1,0,0:0:0:100:A5S_s.wav
156,192,11091,1,0,0:0:0:100:C5S_s.wav
375,192,11091,1,0,0:0:0:100:C6S_s.wav
83,192,11182,1,0,0:0:0:100:A4S_s.wav
302,192,11182,1,0,0:0:0:100:A5S_s.wav
10,192,11273,1,0,0:0:0:100:C5S_s.wav
229,192,11273,1,0,0:0:0:100:C6S_s.wav
156,192,11364,1,0,0:0:0:100:A4S_s.wav
448,192,11364,1,0,0:0:0:100:A5S_s.wav
83,192,11455,1,0,0:0:0:100:C5S_s.wav
375,192,11455,1,0,0:0:0:100:C6S_s.wav
229,192,11545,1,0,0:0:0:100:A4S_s.wav
302,192,11545,1,0,0:0:0:100:A5S_s.wav
10,192,11636,1,0,0:0:0:86:F3S.wav
83,192,11636,1,0,0:0:0:86:F4S.wav
156,192,11636,1,0,0:0:0:100:A4S_s.wav
375,192,11636,1,0,0:0:0:86:A4S.wav
448,192,11636,1,0,0:0:0:100:A5S_s.wav
229,192,11818,1,0,0:0:0:100:C5S_s.wav
302,192,11818,1,0,0:0:0:100:C6S_s.wav
10,192,12000,1,0,0:0:0:100:C5S_s.wav
448,192,12000,1,0,0:0:0:100:C6S_s.wav
156,192,12091,1,0,0:0:0:100:E5S_s.wav
375,192,12091,1,0,0:0:0:100:C6S_s.wav
83,192,12273,1,0,0:0:0:100:B4S.wav
229,192,12273,1,0,0:0:0:100:B5S.wav
10,192,12364,1,0,0:0:0:86:G3S.wav
302,192,12364,1,0,0:0:0:86:D4S.wav
448,192,12364,1,0,0:0:0:86:G4S.wav
83,192,13091,1,0,0:0:0:86:E4S.wav
156,192,13091,1,0,0:0:0:86:A4S.wav
229,192,13091,1,0,0:0:0:100:C5S_s.wav
375,192,13091,1,0,0:0:0:100:C6S_s.wav
448,192,13097,1,0,0:0:0:86:A3S.wav
10,192,13182,1,0,0:0:0:100:A4S_s.wav
302,192,13182,1,0,0:0:0:100:A5S_s.wav
83,192,13273,1,0,0:0:0:100:C5S_s.wav
375,192,13273,1,0,0:0:0:100:C6S_s.wav
156,192,13364,1,0,0:0:0:100:A4S_s.wav
229,192,13364,1,0,0:0:0:100:A5S_s.wav
10,192,13455,1,0,0:0:0:100:C5S_s.wav
448,192,13455,1,0,0:0:0:100:C6S_s.wav
83,192,13545,1,0,0:0:0:100:A4S_s.wav
302,192,13545,1,0,0:0:0:100:A5S_s.wav
229,192,13636,1,0,0:0:0:100:C5S_s.wav
375,192,13636,1,0,0:0:0:100:C6S_s.wav
156,192,13727,1,0,0:0:0:100:A4S_s.wav
448,192,13727,1,0,0:0:0:100:A5S_s.wav
10,192,13818,1,0,0:0:0:86:G3S.wav
83,192,13818,1,0,0:0:0:86:D4S.wav
229,192,13818,1,0,0:0:0:86:G4S.wav
302,192,13818,1,0,0:0:0:100:C5S_s.wav
375,192,13818,1,0,0:0:0:100:C6S_s.wav
156,192,13909,1,0,0:0:0:100:A4S_s.wav
448,192,13909,1,0,0:0:0:100:A5S_s.wav
10,192,14000,1,0,0:0:0:100:C5S_s.wav
375,192,14000,1,0,0:0:0:100:C6S_s.wav
83,192,14091,1,0,0:0:0:100:A4S_s.wav
229,192,14091,1,0,0:0:0:100:A5S_s.wav
156,192,14182,1,0,0:0:0:100:C5S_s.wav
302,192,14182,1,0,0:0:0:100:C6S_s.wav
10,192,14273,1,0,0:0:0:100:A4S_s.wav
448,192,14273,1,0,0:0:0:100:A5S_s.wav
83,192,14364,1,0,0:0:0:100:C5S_s.wav
375,192,14364,1,0,0:0:0:100:C6S_s.wav
229,192,14455,1,0,0:0:0:100:A4S_s.wav
302,192,14455,1,0,0:0:0:100:A5S_s.wav
10,192,14545,1,0,0:0:0:86:F3S.wav
83,192,14545,1,0,0:0:0:86:F4S.wav
156,192,14545,1,0,0:0:0:86:A4S.wav
375,192,14545,1,0,0:0:0:100:E5S_s.wav
448,192,14545,1,0,0:0:0:100:E6S_s.wav
229,192,14727,1,0,0:0:0:100:E5S_s.wav
302,192,14727,1,0,0:0:0:100:E6S_s.wav
10,192,14909,1,0,0:0:0:100:D5S_s.wav
448,192,14909,1,0,0:0:0:100:D6S_s.wav
156,192,15000,1,0,0:0:0:100:C5S_s.wav
375,192,15000,1,0,0:0:0:100:C6S_s.wav
83,192,15182,1,0,0:0:0:100:B4S.wav
302,192,15182,1,0,0:0:0:100:B5S.wav
10,192,15273,1,0,0:0:0:86:G3S.wav
229,192,15273,1,0,0:0:0:86:D4S.wav
448,192,15273,1,0,0:0:0:86:G4S.wav
83,192,16000,1,0,0:0:0:86:E4S.wav
156,192,16000,1,0,0:0:0:86:A4S.wav
302,192,16000,1,0,0:0:0:100:C5S_s.wav
375,192,16000,1,0,0:0:0:100:C6S_s.wav
448,192,16006,1,0,0:0:0:86:A3S.wav
10,192,16091,1,0,0:0:0:100:A4S_s.wav
229,192,16091,1,0,0:0:0:100:A5S_s.wav
83,192,16182,1,0,0:0:0:100:C5S_s.wav
375,192,16182,1,0,0:0:0:100:C6S_s.wav
156,192,16273,1,0,0:0:0:100:A4S_s.wav
302,192,16273,1,0,0:0:0:100:A5S_s.wav
10,192,16364,1,0,0:0:0:100:C5S_s.wav
448,192,16364,1,0,0:0:0:100:C6S_s.wav
83,192,16455,1,0,0:0:0:100:A4S_s.wav
229,192,16455,1,0,0:0:0:100:A5S_s.wav
156,192,16545,1,0,0:0:0:100:C5S_s.wav
375,192,16545,1,0,0:0:0:100:C6S_s.wav
10,192,16636,1,0,0:0:0:100:A4S_s.wav
302,192,16636,1,0,0:0:0:100:A5S_s.wav
83,192,16727,1,0,0:0:0:86:G3S.wav
156,192,16727,1,0,0:0:0:86:D4S.wav
229,192,16727,1,0,0:0:0:86:G4S.wav
375,192,16727,1,0,0:0:0:100:C5S_s.wav
448,192,16727,1,0,0:0:0:100:C6S_s.wav
10,192,16818,1,0,0:0:0:100:A4S_s.wav
302,192,16818,1,0,0:0:0:100:A5S_s.wav
156,192,16909,1,0,0:0:0:100:C5S_s.wav
375,192,16909,1,0,0:0:0:100:C6S_s.wav
83,192,17000,1,0,0:0:0:100:A4S_s.wav
229,192,17000,1,0,0:0:0:100:A5S_s.wav
10,192,17091,1,0,0:0:0:100:C5S_s.wav
448,192,17091,1,0,0:0:0:100:C6S_s.wav
156,192,17182,1,0,0:0:0:100:A4S_s.wav
302,192,17182,1,0,0:0:0:100:A5S_s.wav
83,192,17273,1,0,0:0:0:100:C5S_s.wav
375,192,17273,1,0,0:0:0:100:C6S_s.wav
229,192,17364,1,0,0:0:0:100:A4S_s.wav
448,192,17364,1,0,0:0:0:100:A5S_s.wav
10,192,17455,1,0,0:0:0:86:F3S.wav
83,192,17455,1,0,0:0:0:86:F4S.wav
156,192,17455,1,0,0:0:0:100:A4S_s.wav
302,192,17455,1,0,0:0:0:86:A4S.wav
375,192,17455,1,0,0:0:0:100:A5S_s.wav
229,192,17636,1,0,0:0:0:100:C5S_s.wav
448,192,17636,1,0,0:0:0:100:C6S_s.wav
83,192,17818,1,0,0:0:0:100:C5S_s.wav
302,192,17818,1,0,0:0:0:100:C6S_s.wav
10,192,17909,1,0,0:0:0:100:D5S_s.wav
375,192,17909,1,0,0:0:0:100:D6S_s.wav
156,192,18091,1,0,0:0:0:100:B4S.wav
448,192,18091,1,0,0:0:0:100:B5S.wav
83,192,18182,1,0,0:0:0:86:G3S.wav
229,192,18182,1,0,0:0:0:86:D4S.wav
302,192,18182,1,0,0:0:0:86:G4S.wav
375,192,18673,1,0,0:0:0:100:A4S_s.wav
10,192,18685,1,0,0:0:0:100:A5S_s.wav
156,192,18818,1,0,0:0:0:100:A4S_s.wav
448,192,18818,1,0,0:0:0:100:A5S_s.wav
83,192,18909,1,0,0:0:0:86:E4S.wav
229,192,18909,1,0,0:0:0:86:A4S.wav
302,192,18909,1,0,0:0:0:100:C5S_s.wav
375,192,18909,1,0,0:0:0:100:C6S_s.wav
10,192,18915,1,0,0:0:0:86:A3S.wav
448,192,19045,1,0,0:0:0:100:A4S_s.wav
156,192,19051,1,0,0:0:0:100:A5S_s.wav
83,192,19182,1,0,0:0:0:100:A4S_s.wav
375,192,19182,1,0,0:0:0:100:A5S_s.wav
229,192,19273,1,0,0:0:0:100:E5S_s.wav
302,192,19273,1,0,0:0:0:100:E6S_s.wav
10,192,19455,1,0,0:0:0:100:D5S_s.wav
448,192,19455,1,0,0:0:0:100:D6S_s.wav
83,192,19636,1,0,0:0:0:86:G3S.wav
156,192,19636,1,0,0:0:0:86:D4S.wav
229,192,19636,1,0,0:0:0:86:G4S.wav
302,192,19636,1,0,0:0:0:100:C5S_s.wav
375,192,19636,1,0,0:0:0:100:C6S_s.wav
10,192,19727,1,0,0:0:0:100:A4S_s.wav
448,192,19727,1,0,0:0:0:100:A5S_s.wav
156,192,20091,1,0,0:0:0:100:A4S_s.wav
375,192,20091,1,0,0:0:0:100:A5S_s.wav
83,192,20230,1,0,0:0:0:100:A4S_s.wav
229,192,20233,1,0,0:0:0:100:A5S_s.wav
10,192,20364,1,0,0:0:0:86:F3S.wav
156,192,20364,1,0,0:0:0:86:F4S.wav
302,192,20364,1,0,0:0:0:86:A4S.wav
375,192,20364,1,0,0:0:0:100:C5S_s.wav
448,192,20364,1,0,0:0:0:100:C6S_s.wav
83,192,20494,1,0,0:0:0:100:A4S_s.wav
229,192,20500,1,0,0:0:0:100:A5S_s.wav
10,192,21091,1,0,0:0:0:86:G3S.wav
156,192,21091,1,0,0:0:0:86:D4S.wav
302,192,21091,1,0,0:0:0:86:G4S.wav
375,192,21091,1,0,0:0:0:100:A5S_s.wav
448,192,21091,1,0,0:0:0:100:A6S_s.wav
83,192,21273,1,0,0:0:0:100:G5S_s.wav
229,192,21273,1,0,0:0:0:100:G6S_s.wav
156,192,21455,1,0,0:0:0:100:E5S_s.wav
302,192,21455,1,0,0:0:0:100:E6S_s.wav
10,192,21636,1,0,0:0:0:100:D5S_s.wav
448,192,21636,1,0,0:0:0:100:D6S_s.wav
83,192,21818,1,0,0:0:0:86:A4S.wav
229,192,21818,1,0,0:0:0:100:A5S_s.wav
375,192,21818,1,0,0:0:0:100:E6S_s.wav
156,192,22000,1,0,0:0:0:100:F#6S_Gb6S_s.wav
10,192,22182,1,0,0:0:0:100:A5S_s.wav
302,192,22182,1,0,0:0:0:100:E6S_s.wav
448,192,22364,1,0,0:0:0:100:F#6S_Gb6S_s.wav
83,192,22545,1,0,0:0:0:100:G#5S_Ab5S_s.wav
375,192,22545,1,0,0:0:0:100:E6S_s.wav
229,192,22727,1,0,0:0:0:100:F#6S_Gb6S_s.wav
156,192,22909,1,0,0:0:0:100:G#5S_Ab5S_s.wav
302,192,22909,1,0,0:0:0:100:E6S_s.wav
10,192,23091,1,0,0:0:0:100:F#6S_Gb6S_s.wav
83,192,23273,1,0,0:0:0:86:A3S.wav
375,192,23273,1,0,0:0:0:100:F#5S_Gb5S_s.wav
448,192,23273,1,0,0:0:0:100:E6S_s.wav
229,192,23455,1,0,0:0:0:100:F#6S_Gb6S_s.wav
156,192,23636,1,0,0:0:0:100:F#5S_Gb5S_s.wav
302,192,23636,1,0,0:0:0:100:E6S_s.wav
10,192,23818,1,0,0:0:0:100:F#6S_Gb6S_s.wav
83,192,24000,1,0,0:0:0:86:A3S_s.wav
375,192,24000,1,0,0:0:0:100:E5S.wav
448,192,24000,1,0,0:0:0:100:E6S.wav
10,192,24727,1,0,0:0:0:86:A3S.wav
156,192,24727,1,0,0:0:0:86:D4S.wav
229,192,24727,1,0,0:0:0:86:F#4S_Gb4S.wav
302,192,24727,1,0,0:0:0:100:C#6S_Db6S_s.wav
375,192,24818,1,0,0:0:0:100:C#6S_Db6S_s.wav
83,192,24909,1,0,0:0:0:100:C#6S_Db6S_s.wav
448,192,25091,1,0,0:0:0:100:C#6S_Db6S_s.wav
156,192,25182,1,0,0:0:0:100:C#6S_Db6S_s.wav
302,192,25273,1,0,0:0:0:100:C#6S_Db6S_s.wav
10,192,25364,1,0,0:0:0:100:C#6S_Db6S.wav
229,192,25818,1,0,0:0:0:100:A5S_s.wav
375,192,25909,1,0,0:0:0:100:A5S_s.wav
83,192,26000,1,0,0:0:0:100:A5S_s.wav
448,192,26091,1,0,0:0:0:100:C#6S_Db6S_s.wav
10,192,26182,1,0,0:0:0:86:G#3S_Ab3S.wav
156,192,26182,1,0,0:0:0:86:B3S.wav
229,192,26182,1,0,0:0:0:86:E4S.wav
302,192,26182,1,0,0:0:0:100:B5S_s.wav
375,192,26364,1,0,0:0:0:100:E6S.wav
83,192,27636,1,0,0:0:0:86:A3S.wav
156,192,27636,1,0,0:0:0:86:D4S.wav
302,192,27636,1,0,0:0:0:86:F#4S_Gb4S.wav
448,192,27636,1,0,0:0:0:100:C#6S_Db6S_s.wav
10,192,27727,1,0,0:0:0:100:C#6S_Db6S_s.wav
229,192,27818,1,0,0:0:0:100:C#6S_Db6S_s.wav
375,192,27909,1,0,0:0:0:100:C#6S_Db6S_s.wav
83,192,28000,1,0,0:0:0:100:C#6S_Db6S_s.wav
302,192,28091,1,0,0:0:0:100:C#6S_Db6S_s.wav
156,192,28182,1,0,0:0:0:100:C#6S_Db6S_s.wav
448,192,28273,1,0,0:0:0:100:C#6S_Db6S.wav
10,192,28727,1,0,0:0:0:100:A5S_s.wav
229,192,28818,1,0,0:0:0:100:A5S_s.wav
375,192,28909,1,0,0:0:0:100:A5S_s.wav
83,192,29000,1,0,0:0:0:100:C#6S_Db6S_s.wav
10,192,29091,1,0,0:0:0:86:B3S.wav
156,192,29091,1,0,0:0:0:86:E4S.wav
302,192,29091,1,0,0:0:0:86:G#4S_Ab4S.wav
448,192,29091,1,0,0:0:0:100:B5S_s.wav
229,192,30364,1,0,0:0:0:100:B5S_s.wav
83,192,30545,1,0,0:0:0:86:C#4S_Db4S.wav
156,192,30545,1,0,0:0:0:86:F#4S_Gb4S.wav
375,192,30545,1,0,0:0:0:86:A4S.wav
448,192,30545,1,0,0:0:0:100:A5S_s.wav
302,192,30727,1,0,0:0:0:100:F#5S_Gb5S_s.wav
10,192,30909,1,0,0:0:0:100:A5S_s.wav
229,192,31091,1,0,0:0:0:100:B5S_s.wav
83,192,31273,1,0,0:0:0:86:B3S.wav
156,192,31273,1,0,0:0:0:86:F4S.wav
375,192,31273,1,0,0:0:0:86:G#4S_Ab4S.wav
448,192,31273,1,0,0:0:0:100:C#6S_Db6S_s.wav
302,192,31455,1,0,0:0:0:100:A5S.wav
10,192,32000,1,0,0:0:0:86:B3S.wav
156,192,32000,1,0,0:0:0:86:E4S.wav
229,192,32000,1,0,0:0:0:86:F#4S_Gb4S.wav
448,192,32000,1,0,0:0:0:100:A5S_s.wav
375,192,32182,1,0,0:0:0:100:A5S_s.wav
83,192,32364,1,0,0:0:0:100:A5S_s.wav
302,192,32545,1,0,0:0:0:100:E6S_s.wav
10,192,32727,1,0,0:0:0:86:A3S.wav
156,192,32727,1,0,0:0:0:86:D#4S_Eb4S.wav
229,192,32727,1,0,0:0:0:86:F#4S_Gb4S.wav
448,192,32727,1,0,0:0:0:100:C#6S_Db6S_s.wav
375,192,33273,1,0,0:0:0:100:A5S_s.wav
83,192,33455,1,0,0:0:0:86:B3S.wav
156,192,33455,1,0,0:0:0:86:D4S.wav
302,192,33455,1,0,0:0:0:86:F#4S_Gb4S.wav
448,192,33455,1,0,0:0:0:100:C#6S_Db6S_s.wav
229,192,33636,1,0,0:0:0:100:C#6S_Db6S_s.wav
10,192,33818,1,0,0:0:0:100:B5S_s.wav
375,192,34000,1,0,0:0:0:100:A5S_s.wav
83,192,34182,1,0,0:0:0:86:C#4S_Db4S.wav
156,192,34182,1,0,0:0:0:86:E4S.wav
302,192,34182,1,0,0:0:0:86:G#4S_Ab4S.wav
448,192,34182,1,0,0:0:0:100:G#5S_Ab5S_s.wav
229,192,34364,1,0,0:0:0:100:A5S_s.wav
10,192,34545,1,0,0:0:0:100:B5S_s.wav
375,192,34727,1,0,0:0:0:100:A5S_s.wav
83,192,34909,1,0,0:0:0:86:D4S.wav
156,192,34909,1,0,0:0:0:86:F#4S_Gb4S.wav
302,192,34909,1,0,0:0:0:86:A4S.wav
448,192,34909,1,0,0:0:0:100:B5S_s.wav
229,192,35091,1,0,0:0:0:100:A5S_s.wav
10,192,35273,1,0,0:0:0:100:G#5S_Ab5S_s.wav
375,192,35455,1,0,0:0:0:100:A5S_s.wav
83,192,35636,1,0,0:0:0:86:B3S.wav
156,192,35636,1,0,0:0:0:86:E4S.wav
229,192,35636,1,0,0:0:0:86:G#4S_Ab4S.wav
302,192,35636,1,0,0:0:0:100:G#5S_Ab5S_s.wav
448,192,35636,1,0,0:0:0:100:B5S_s.wav
10,192,36000,1,0,0:0:0:100:C#6S_Db6S_s.wav
375,192,36182,1,0,0:0:0:100:D6S_s.wav
83,192,36364,1,0,0:0:0:86:E4S.wav
156,192,36364,1,0,0:0:0:86:A4S.wav
302,192,36364,1,0,0:0:0:86:C#5S_Db5S.wav
448,192,36364,1,0,0:0:0:100:E6S_s.wav
229,192,36545,1,0,0:0:0:100:A6S_s.wav
10,192,36727,1,0,0:0:0:100:A6S_s.wav
375,192,36909,1,0,0:0:0:100:B6S_s.wav
83,192,37091,1,0,0:0:0:86:E4S.wav
156,192,37091,1,0,0:0:0:86:G#4S_Ab4S.wav
302,192,37091,1,0,0:0:0:86:B4S.wav
448,192,37091,1,0,0:0:0:100:G#6S_Ab6S_s.wav
229,192,37273,1,0,0:0:0:100:F#6S_Gb6S_s.wav
10,192,37455,1,0,0:0:0:100:F#6S_Gb6S_s.wav
375,192,37636,1,0,0:0:0:100:E6S_s.wav
83,192,37818,1,0,0:0:0:86:C#4S_Db4S.wav
156,192,37818,1,0,0:0:0:86:E4S.wav
302,192,37818,1,0,0:0:0:86:A4S.wav
448,192,37818,1,0,0:0:0:100:F#6S_Gb6S_s.wav
229,192,38000,1,0,0:0:0:100:E6S_s.wav
10,192,38182,1,0,0:0:0:100:E6S_s.wav
375,192,38364,1,0,0:0:0:100:C#6S_Db6S_s.wav
83,192,38545,1,0,0:0:0:86:C#4S_Db4S.wav
156,192,38545,1,0,0:0:0:86:E4S.wav
302,192,38545,1,0,0:0:0:86:A4S.wav
448,192,38545,1,0,0:0:0:100:A5S_s.wav
229,192,38909,1,0,0:0:0:100:A5S_s.wav
10,192,39091,1,0,0:0:0:100:B5S_s.wav
83,192,39273,1,0,0:0:0:86:C#4S_Db4S.wav
156,192,39273,1,0,0:0:0:86:F#4S_Gb4S.wav
375,192,39273,1,0,0:0:0:86:A4S.wav
448,192,39273,1,0,0:0:0:100:C#6S_Db6S_s.wav
302,192,39455,1,0,0:0:0:100:C#6S_Db6S_s.wav
229,192,39636,1,0,0:0:0:100:C#6S_Db6S_s.wav
10,192,39818,1,0,0:0:0:100:D6S_s.wav
83,192,40000,1,0,0:0:0:86:A3S.wav
156,192,40000,1,0,0:0:0:86:C#4S_Db4S.wav
375,192,40000,1,0,0:0:0:86:E4S.wav
448,192,40000,1,0,0:0:0:100:E6S_s.wav
302,192,40182,1,0,0:0:0:100:E6S_s.wav
229,192,40364,1,0,0:0:0:100:D6S_s.wav
10,192,40545,1,0,0:0:0:100:C#6S_Db6S_s.wav
83,192,40727,1,0,0:0:0:86:B3S.wav
156,192,40727,1,0,0:0:0:86:D4S.wav
302,192,40727,1,0,0:0:0:86:F#4S_Gb4S.wav
375,192,40727,1,0,0:0:0:100:A5S_s.wav
448,192,40727,1,0,0:0:0:100:C#6S_Db6S_s.wav
10,192,40909,1,0,0:0:0:100:A5S.wav
229,192,40909,1,0,0:0:0:100:B5S.wav
83,192,41455,1,0,0:0:0:86:B3S.wav
156,192,41455,1,0,0:0:0:86:E4S.wav
302,192,41455,1,0,0:0:0:86:A4S.wav
375,192,41455,1,0,0:0:0:100:B5S_s.wav
229,192,41818,1,0,0:0:0:86:G#4S_Ab4S.wav
448,192,41818,1,0,0:0:0:100:C#6S_Db6S_s.wav
10,192,42000,1,0,0:0:0:100:D6S_s.wav
83,192,42182,1,0,0:0:0:86:C#4S_Db4S.wav
156,192,42182,1,0,0:0:0:86:E4S.wav
302,192,42182,1,0,0:0:0:86:A4S.wav
375,192,42182,1,0,0:0:0:100:E6S_s.wav
229,192,42364,1,0,0:0:0:100:A6S_s.wav
448,192,42545,1,0,0:0:0:100:A6S_s.wav
10,192,42727,1,0,0:0:0:100:B6S_s.wav
83,192,42909,1,0,0:0:0:86:C#4S_Db4S.wav
156,192,42909,1,0,0:0:0:86:E4S.wav
302,192,42909,1,0,0:0:0:86:G#4S_Ab4S.wav
375,192,42909,1,0,0:0:0:100:G#6S_Ab6S_s.wav
229,192,43091,1,0,0:0:0:100:F#6S_Gb6S_s.wav
448,192,43273,1,0,0:0:0:100:F#6S_Gb6S_s.wav
10,192,43455,1,0,0:0:0:100:E6S_s.wav
156,192,43636,1,0,0:0:0:100:F#4S_Gb4S_s.wav
375,192,43636,1,0,0:0:0:100:F#6S_Gb6S_s.wav
83,192,43818,1,0,0:0:0:100:F#4S_Gb4S_s.wav
302,192,43818,1,0,0:0:0:100:E6S_s.wav
229,192,44000,1,0,0:0:0:100:E4S_s.wav
448,192,44000,1,0,0:0:0:100:E6S_s.wav
10,192,44182,1,0,0:0:0:100:E4S_s.wav
375,192,44182,1,0,0:0:0:100:C#6S_Db6S_s.wav
156,192,44273,1,0,0:0:0:100:D4S_s.wav
302,192,44364,1,0,0:0:0:100:A5S_s.wav
83,192,44455,1,0,0:0:0:100:D4S_s.wav
229,192,44545,1,0,0:0:0:100:D4S_s.wav
448,192,44545,1,0,0:0:0:100:A5S_s.wav
10,192,44727,1,0,0:0:0:100:C#4S_Db4S_s.wav
375,192,44727,1,0,0:0:0:100:C#6S_Db6S_s.wav
156,192,44909,1,0,0:0:0:100:C#4S_Db4S_s.wav
302,192,44909,1,0,0:0:0:100:B5S_s.wav
83,192,45091,1,0,0:0:0:100:G4S_s.wav
229,192,45091,1,0,0:0:0:100:F#5S_Gb5S_s.wav
448,192,45091,1,0,0:0:0:100:A5S_s.wav
375,192,45273,1,0,0:0:0:100:G4S_s.wav
10,192,45455,1,0,0:0:0:100:G4S_s.wav
302,192,45455,1,0,0:0:0:100:C#6S_Db6S_s.wav
156,192,45636,1,0,0:0:0:100:G4S_s.wav
448,192,45727,1,0,0:0:0:100:E4S_s.wav
83,192,45818,1,0,0:0:0:100:F#5S_Gb5S_s.wav
229,192,45818,1,0,0:0:0:100:B5S_s.wav
375,192,45909,1,0,0:0:0:100:E4S_s.wav
10,192,46000,1,0,0:0:0:100:E4S_s.wav
302,192,46000,1,0,0:0:0:100:A5S_s.wav
156,192,46182,1,0,0:0:0:100:E4S_s.wav
448,192,46182,1,0,0:0:0:100:A5S_s.wav
229,192,46364,1,0,0:0:0:100:E4S_s.wav
10,192,46545,1,0,0:0:0:100:C#4S_Db4S.wav
83,192,46545,1,0,0:0:0:100:A4S.wav
302,192,46545,1,0,0:0:0:100:E5S.wav
375,192,46545,1,0,0:0:0:100:A5S.wav
10,192,48000,1,0,0:0:0:86:A5S.wav
156,192,48000,1,0,0:0:0:86:C#6S_Db6S.wav
229,192,48000,1,0,0:0:0:86:E6S.wav
448,192,48000,1,0,0:0:0:86:A6S.wav
10,192,49454,1,0,0:0:0:100:A3S.wav
83,192,49454,1,0,0:0:0:100:D4S.wav
156,192,49454,1,0,0:0:0:100:F4S.wav
229,192,49454,1,0,0:0:0:86:A5S.wav
302,192,49454,1,0,0:0:0:86:D6S.wav
375,192,49454,1,0,0:0:0:86:F6S.wav
448,192,49454,1,0,0:0:0:86:A6S.wav
302,192,52091,1,0,0:0:0:100:A5S_s.wav
10,192,52182,1,0,0:0:0:100:A5S_s.wav
375,192,52273,1,0,0:0:0:100:A5S_s.wav
83,192,52364,1,0,0:0:0:86:E4S.wav
156,192,52364,1,0,0:0:0:86:A4S.wav
229,192,52364,1,0,0:0:0:100:C5S_s.wav
448,192,52364,1,0,0:0:0:100:C6S_s.wav
302,192,52370,1,0,0:0:0:86:A3S.wav
10,192,52454,1,0,0:0:0:100:A4S_s.wav
375,192,52454,1,0,0:0:0:100:A5S_s.wav
156,192,52545,1,0,0:0:0:100:C5S_s.wav
448,192,52545,1,0,0:0:0:100:C6S_s.wav
83,192,52636,1,0,0:0:0:100:A4S_s.wav
302,192,52636,1,0,0:0:0:100:A5S_s.wav
10,192,52727,1,0,0:0:0:100:C5S_s.wav
229,192,52727,1,0,0:0:0:100:C6S_s.wav
156,192,52818,1,0,0:0:0:100:A4S_s.wav
375,192,52818,1,0,0:0:0:100:A5S_s.wav
83,192,52909,1,0,0:0:0:100:C5S_s.wav
448,192,52909,1,0,0:0:0:100:C6S_s.wav
229,192,53000,1,0,0:0:0:100:A4S_s.wav
302,192,53000,1,0,0:0:0:100:A5S_s.wav
10,192,53091,1,0,0:0:0:86:G3S.wav
83,192,53091,1,0,0:0:0:86:D4S.wav
156,192,53091,1,0,0:0:0:86:G4S.wav
375,192,53091,1,0,0:0:0:100:C5S_s.wav
448,192,53091,1,0,0:0:0:100:C6S_s.wav
229,192,53182,1,0,0:0:0:100:A4S_s.wav
302,192,53182,1,0,0:0:0:100:A5S_s.wav
83,192,53273,1,0,0:0:0:100:C5S_s.wav
448,192,53273,1,0,0:0:0:100:C6S_s.wav
10,192,53364,1,0,0:0:0:100:A4S_s.wav
375,192,53364,1,0,0:0:0:100:A5S_s.wav
156,192,53454,1,0,0:0:0:100:C5S_s.wav
302,192,53454,1,0,0:0:0:100:C6S_s.wav
83,192,53545,1,0,0:0:0:100:A4S_s.wav
229,192,53545,1,0,0:0:0:100:A5S_s.wav
10,192,53636,1,0,0:0:0:100:C5S_s.wav
448,192,53636,1,0,0:0:0:100:C6S_s.wav
156,192,53727,1,0,0:0:0:100:A4S_s.wav
375,192,53727,1,0,0:0:0:100:A5S_s.wav
10,192,53818,1,0,0:0:0:86:F3S.wav
83,192,53818,1,0,0:0:0:86:F4S.wav
229,192,53818,1,0,0:0:0:100:A4S_s.wav
302,192,53818,1,0,0:0:0:86:A4S.wav
448,192,53818,1,0,0:0:0:100:A5S_s.wav
156,192,54000,1,0,0:0:0:100:C5S_s.wav
375,192,54000,1,0,0:0:0:100:C6S_s.wav
83,192,54182,1,0,0:0:0:100:C5S_s.wav
448,192,54182,1,0,0:0:0:100:C6S_s.wav
10,192,54273,1,0,0:0:0:100:E5S_s.wav
229,192,54273,1,0,0:0:0:100:C6S_s.wav
156,192,54454,1,0,0:0:0:100:B4S.wav
302,192,54454,1,0,0:0:0:100:B5S.wav
83,192,54545,1,0,0:0:0:86:G3S.wav
375,192,54545,1,0,0:0:0:86:D4S.wav
448,192,54545,1,0,0:0:0:86:G4S.wav
10,192,55273,1,0,0:0:0:86:E4S.wav
156,192,55273,1,0,0:0:0:86:A4S.wav
229,192,55273,1,0,0:0:0:100:C5S_s.wav
302,192,55273,1,0,0:0:0:100:C6S_s.wav
448,192,55279,1,0,0:0:0:86:A3S.wav
83,192,55364,1,0,0:0:0:100:A4S_s.wav
375,192,55364,1,0,0:0:0:100:A5S_s.wav
10,192,55454,1,0,0:0:0:100:C5S_s.wav
302,192,55454,1,0,0:0:0:100:C6S_s.wav
156,192,55545,1,0,0:0:0:100:A4S_s.wav
229,192,55545,1,0,0:0:0:100:A5S_s.wav
83,192,55636,1,0,0:0:0:100:C5S_s.wav
448,192,55636,1,0,0:0:0:100:C6S_s.wav
10,192,55727,1,0,0:0:0:100:A4S_s.wav
375,192,55727,1,0,0:0:0:100:A5S_s.wav
156,192,55818,1,0,0:0:0:100:C5S_s.wav
302,192,55818,1,0,0:0:0:100:C6S_s.wav
229,192,55909,1,0,0:0:0:100:A4S_s.wav
448,192,55909,1,0,0:0:0:100:A5S_s.wav
10,192,56000,1,0,0:0:0:86:G3S.wav
83,192,56000,1,0,0:0:0:86:D4S.wav
156,192,56000,1,0,0:0:0:86:G4S.wav
302,192,56000,1,0,0:0:0:100:C5S_s.wav
375,192,56000,1,0,0:0:0:100:C6S_s.wav
229,192,56091,1,0,0:0:0:100:A4S_s.wav
448,192,56091,1,0,0:0:0:100:A5S_s.wav
156,192,56182,1,0,0:0:0:100:C5S_s.wav
302,192,56182,1,0,0:0:0:100:C6S_s.wav
83,192,56273,1,0,0:0:0:100:A4S_s.wav
375,192,56273,1,0,0:0:0:100:A5S_s.wav
10,192,56364,1,0,0:0:0:100:C5S_s.wav
229,192,56364,1,0,0:0:0:100:C6S_s.wav
156,192,56454,1,0,0:0:0:100:A4S_s.wav
448,192,56454,1,0,0:0:0:100:A5S_s.wav
83,192,56545,1,0,0:0:0:100:C5S_s.wav
302,192,56545,1,0,0:0:0:100:C6S_s.wav
10,192,56636,1,0,0:0:0:100:A4S_s.wav
375,192,56636,1,0,0:0:0:100:A5S_s.wav
156,192,56727,1,0,0:0:0:100:F3S_s.wav
229,192,56727,1,0,0:0:0:100:E5S_s.wav
448,192,56727,1,0,0:0:0:100:E6S_s.wav
10,192,56909,1,0,0:0:0:100:F3S_s.wav
83,192,56909,1,0,0:0:0:100:E5S_s.wav
302,192,56909,1,0,0:0:0:100:E6S_s.wav
156,192,57091,1,0,0:0:0:100:F3S_s.wav
375,192,57091,1,0,0:0:0:100:D5S_s.wav
448,192,57091,1,0,0:0:0:100:D6S_s.wav
10,192,57182,1,0,0:0:0:100:C5S_s.wav
229,192,57182,1,0,0:0:0:100:C6S_s.wav
83,192,57364,1,0,0:0:0:100:G3S_s.wav
302,192,57364,1,0,0:0:0:100:B4S.wav
375,192,57364,1,0,0:0:0:100:B5S.wav
156,192,57636,1,0,0:0:0:100:G3S_s.wav
448,192,57818,1,0,0:0:0:100:G3S_s.wav
10,192,58000,1,0,0:0:0:100:G3S_s.wav
83,192,58182,1,0,0:0:0:100:A3S_s.wav
229,192,58182,1,0,0:0:0:100:C5S_s.wav
375,192,58182,1,0,0:0:0:100:C6S_s.wav
156,192,58273,1,0,0:0:0:100:A4S_s.wav
302,192,58273,1,0,0:0:0:100:A5S_s.wav
10,192,58364,1,0,0:0:0:100:A3S_s.wav
375,192,58364,1,0,0:0:0:100:C5S_s.wav
448,192,58364,1,0,0:0:0:100:C6S_s.wav
83,192,58454,1,0,0:0:0:100:A4S_s.wav
229,192,58454,1,0,0:0:0:100:A5S_s.wav
10,192,58545,1,0,0:0:0:100:A3S_s.wav
156,192,58545,1,0,0:0:0:100:C5S_s.wav
302,192,58545,1,0,0:0:0:100:C6S_s.wav
375,192,58636,1,0,0:0:0:100:A4S_s.wav
448,192,58636,1,0,0:0:0:100:A5S_s.wav
83,192,58727,1,0,0:0:0:100:C5S_s.wav
229,192,58727,1,0,0:0:0:100:C6S_s.wav
10,192,58818,1,0,0:0:0:100:G3S_s.wav
156,192,58818,1,0,0:0:0:100:A4S_s.wav
302,192,58818,1,0,0:0:0:100:A5S_s.wav
375,192,58909,1,0,0:0:0:100:C5S_s.wav
448,192,58909,1,0,0:0:0:100:C6S_s.wav
83,192,59000,1,0,0:0:0:100:A4S_s.wav
229,192,59000,1,0,0:0:0:100:A5S_s.wav
10,192,59091,1,0,0:0:0:100:G3S_s.wav
156,192,59091,1,0,0:0:0:100:C5S_s.wav
302,192,59091,1,0,0:0:0:100:C6S_s.wav
375,192,59182,1,0,0:0:0:100:A4S_s.wav
448,192,59182,1,0,0:0:0:100:A5S_s.wav
10,192,59273,1,0,0:0:0:100:G3S_s.wav
83,192,59273,1,0,0:0:0:100:C5S_s.wav
229,192,59273,1,0,0:0:0:100:C6S_s.wav
156,192,59364,1,0,0:0:0:100:A4S_s.wav
302,192,59364,1,0,0:0:0:100:A5S_s.wav
229,192,59454,1,0,0:0:0:100:G3S_s.wav
375,192,59454,1,0,0:0:0:100:C5S_s.wav
448,192,59454,1,0,0:0:0:100:C6S_s.wav
10,192,59545,1,0,0:0:0:100:A4S_s.wav
83,192,59545,1,0,0:0:0:100:A5S_s.wav
156,192,59636,1,0,0:0:0:100:F3S_s.wav
302,192,59636,1,0,0:0:0:100:A4S_s.wav
375,192,59636,1,0,0:0:0:100:A5S_s.wav
83,192,59818,1,0,0:0:0:100:F3S_s.wav
229,192,59818,1,0,0:0:0:100:C5S_s.wav
448,192,59818,1,0,0:0:0:100:C6S_s.wav
10,192,60000,1,0,0:0:0:100:F3S_s.wav
156,192,60000,1,0,0:0:0:100:C5S_s.wav
375,192,60000,1,0,0:0:0:100:C6S_s.wav
83,192,60091,1,0,0:0:0:100:D5S_s.wav
302,192,60091,1,0,0:0:0:100:D6S_s.wav
10,192,60273,1,0,0:0:0:100:G3S_s.wav
229,192,60273,1,0,0:0:0:100:B4S.wav
448,192,60273,1,0,0:0:0:100:B5S.wav
375,192,60545,1,0,0:0:0:100:G3S_s.wav
156,192,60727,1,0,0:0:0:100:G3S_s.wav
302,192,60854,1,0,0:0:0:100:A4S_s.wav
83,192,60867,1,0,0:0:0:100:A5S_s.wav
448,192,60909,1,0,0:0:0:100:G3S_s.wav
10,192,61000,1,0,0:0:0:100:A4S_s.wav
229,192,61000,1,0,0:0:0:100:A5S_s.wav
156,192,61091,1,0,0:0:0:100:A3S_s.wav
302,192,61091,1,0,0:0:0:100:C5S_s.wav
375,192,61091,1,0,0:0:0:100:C6S_s.wav
83,192,61227,1,0,0:0:0:100:A4S_s.wav
448,192,61233,1,0,0:0:0:100:A5S_s.wav
229,192,61273,1,0,0:0:0:100:A3S_s.wav
10,192,61364,1,0,0:0:0:100:A4S_s.wav
302,192,61364,1,0,0:0:0:100:A5S_s.wav
83,192,61454,1,0,0:0:0:100:A3S_s.wav
156,192,61454,1,0,0:0:0:100:E5S_s.wav
375,192,61454,1,0,0:0:0:100:E6S_s.wav
229,192,61636,1,0,0:0:0:100:D5S_s.wav
448,192,61636,1,0,0:0:0:100:D6S_s.wav
302,192,61727,1,0,0:0:0:100:G3S_s.wav
10,192,61818,1,0,0:0:0:100:C5S_s.wav
375,192,61818,1,0,0:0:0:100:C6S_s.wav
83,192,61909,1,0,0:0:0:100:A4S_s.wav
156,192,61909,1,0,0:0:0:100:A5S_s.wav
229,192,62000,1,0,0:0:0:100:G3S_s.wav
448,192,62182,1,0,0:0:0:100:G3S_s.wav
10,192,62273,1,0,0:0:0:100:A4S_s.wav
302,192,62273,1,0,0:0:0:100:A5S_s.wav
375,192,62364,1,0,0:0:0:100:G3S_s.wav
83,192,62412,1,0,0:0:0:100:A4S_s.wav
156,192,62415,1,0,0:0:0:100:A5S_s.wav
10,192,62545,1,0,0:0:0:100:F3S_s.wav
229,192,62545,1,0,0:0:0:100:C5S_s.wav
448,192,62545,1,0,0:0:0:100:C6S_s.wav
302,192,62676,1,0,0:0:0:100:A4S_s.wav
375,192,62682,1,0,0:0:0:100:A5S_s.wav
156,192,62727,1,0,0:0:0:100:F3S_s.wav
83,192,62909,1,0,0:0:0:100:F3S_s.wav
448,192,63182,1,0,0:0:0:100:G3S_s.wav
10,192,63273,1,0,0:0:0:100:A5S_s.wav
229,192,63273,1,0,0:0:0:100:A6S_s.wav
156,192,63454,1,0,0:0:0:100:G3S_s.wav
302,192,63454,1,0,0:0:0:100:G5S_s.wav
375,192,63454,1,0,0:0:0:100:G6S_s.wav
83,192,63636,1,0,0:0:0:100:G3S_s.wav
229,192,63636,1,0,0:0:0:100:E5S_s.wav
448,192,63636,1,0,0:0:0:100:E6S_s.wav
10,192,63818,1,0,0:0:0:100:G3S_s.wav
156,192,63818,1,0,0:0:0:100:D5S_s.wav
375,192,63818,1,0,0:0:0:100:D6S_s.wav
83,192,64000,1,0,0:0:0:100:A3S.wav
229,192,64000,1,0,0:0:0:100:A5S_s.wav
302,192,64000,1,0,0:0:0:100:E6S_s.wav
448,192,64182,1,0,0:0:0:100:F#6S_Gb6S_s.wav
156,192,64364,1,0,0:0:0:100:A5S_s.wav
375,192,64364,1,0,0:0:0:100:E6S_s.wav
10,192,64545,1,0,0:0:0:100:F#6S_Gb6S_s.wav
229,192,64727,1,0,0:0:0:100:G#5S_Ab5S_s.wav
302,192,64727,1,0,0:0:0:100:E6S_s.wav
83,192,64909,1,0,0:0:0:100:F#6S_Gb6S_s.wav
156,192,65091,1,0,0:0:0:100:G#5S_Ab5S_s.wav
448,192,65091,1,0,0:0:0:100:E6S_s.wav
10,192,65273,1,0,0:0:0:100:E4S_s.wav
375,192,65273,1,0,0:0:0:100:F#6S_Gb6S_s.wav
83,192,65454,1,0,0:0:0:100:A4S.wav
229,192,65454,1,0,0:0:0:100:F#5S_Gb5S_s.wav
302,192,65454,1,0,0:0:0:100:E6S_s.wav
448,192,65636,1,0,0:0:0:100:F#6S_Gb6S_s.wav
156,192,65818,1,0,0:0:0:100:F#5S_Gb5S_s.wav
375,192,65818,1,0,0:0:0:100:E6S_s.wav
10,192,66000,1,0,0:0:0:100:F#6S_Gb6S_s.wav
83,192,66182,1,0,0:0:0:100:E5S.wav
302,192,66182,1,0,0:0:0:100:E6S.wav
229,192,66545,1,0,0:0:0:100:B3S_s.wav
448,192,66727,1,0,0:0:0:100:C#4S_Db4S_s.wav
156,192,66909,1,0,0:0:0:100:D4S_s.wav
375,192,66909,1,0,0:0:0:100:C#6S_Db6S_s.wav
10,192,67000,1,0,0:0:0:100:C#6S_Db6S_s.wav
83,192,67091,1,0,0:0:0:100:D4S_s.wav
302,192,67091,1,0,0:0:0:100:C#6S_Db6S_s.wav
229,192,67273,1,0,0:0:0:100:A3S_s.wav
448,192,67273,1,0,0:0:0:100:C#6S_Db6S_s.wav
156,192,67364,1,0,0:0:0:100:A3S_s.wav
375,192,67364,1,0,0:0:0:100:C#6S_Db6S_s.wav
10,192,67454,1,0,0:0:0:100:C#6S_Db6S_s.wav
83,192,67545,1,0,0:0:0:100:A3S_s.wav
302,192,67545,1,0,0:0:0:100:C#6S_Db6S.wav
229,192,67727,1,0,0:0:0:100:A3S_s.wav
448,192,67818,1,0,0:0:0:100:A3S_s.wav
156,192,68000,1,0,0:0:0:100:D4S_s.wav
375,192,68000,1,0,0:0:0:100:A5S_s.wav
10,192,68091,1,0,0:0:0:100:A5S_s.wav
83,192,68182,1,0,0:0:0:100:D#4S_Eb4S_s.wav
302,192,68182,1,0,0:0:0:100:A5S_s.wav
229,192,68273,1,0,0:0:0:100:C#6S_Db6S_s.wav
156,192,68364,1,0,0:0:0:100:E4S_s.wav
448,192,68364,1,0,0:0:0:100:B5S_s.wav
10,192,68545,1,0,0:0:0:100:E4S_s.wav
375,192,68545,1,0,0:0:0:100:E5S.wav
302,192,68727,1,0,0:0:0:100:G#3S_Ab3S_s.wav
83,192,68818,1,0,0:0:0:100:G#3S_Ab3S_s.wav
229,192,69000,1,0,0:0:0:100:A3S_s.wav
448,192,69182,1,0,0:0:0:100:A3S_s.wav
156,192,69273,1,0,0:0:0:100:A#3S_Bb3S_s.wav
375,192,69454,1,0,0:0:0:100:B3S_s.wav
10,192,69636,1,0,0:0:0:100:E4S_s.wav
83,192,69818,1,0,0:0:0:100:D4S_s.wav
302,192,69818,1,0,0:0:0:100:C#6S_Db6S_s.wav
229,192,69909,1,0,0:0:0:100:C#6S_Db6S_s.wav
156,192,70000,1,0,0:0:0:100:D4S_s.wav
448,192,70000,1,0,0:0:0:100:C#6S_Db6S_s.wav
375,192,70091,1,0,0:0:0:100:C#6S_Db6S_s.wav
10,192,70182,1,0,0:0:0:100:A3S_s.wav
302,192,70182,1,0,0:0:0:100:C#6S_Db6S_s.wav
83,192,70273,1,0,0:0:0:100:A3S_s.wav
229,192,70273,1,0,0:0:0:100:C#6S_Db6S_s.wav
448,192,70364,1,0,0:0:0:100:C#6S_Db6S_s.wav
156,192,70454,1,0,0:0:0:100:A3S_s.wav
375,192,70454,1,0,0:0:0:100:C#6S_Db6S.wav
10,192,70636,1,0,0:0:0:100:A3S_s.wav
302,192,70727,1,0,0:0:0:100:A3S_s.wav
83,192,70909,1,0,0:0:0:100:D4S_s.wav
229,192,70909,1,0,0:0:0:100:A5S_s.wav
448,192,71000,1,0,0:0:0:100:A5S_s.wav
156,192,71091,1,0,0:0:0:100:D#4S_Eb4S_s.wav
375,192,71091,1,0,0:0:0:100:A5S_s.wav
10,192,71182,1,0,0:0:0:100:C#6S_Db6S_s.wav
229,192,71273,1,0,0:0:0:100:E4S_s.wav
302,192,71273,1,0,0:0:0:100:B5S_s.wav
83,192,71454,1,0,0:0:0:100:E4S_s.wav
448,192,71636,1,0,0:0:0:100:G#3S_Ab3S_s.wav
156,192,71727,1,0,0:0:0:100:G#3S_Ab3S_s.wav
375,192,71909,1,0,0:0:0:100:A3S_s.wav
10,192,72091,1,0,0:0:0:100:A3S_s.wav
229,192,72182,1,0,0:0:0:100:A#3S_Bb3S_s.wav
302,192,72364,1,0,0:0:0:100:B3S_s.wav
83,192,72545,1,0,0:0:0:100:E4S_s.wav
448,192,72545,1,0,0:0:0:100:B5S_s.wav
10,192,72727,1,0,0:0:0:86:C#4S_Db4S.wav
156,192,72727,1,0,0:0:0:86:F#4S_Gb4S.wav
229,192,72727,1,0,0:0:0:86:A4S.wav
375,192,72727,1,0,0:0:0:100:A5S_s.wav
302,192,72909,1,0,0:0:0:100:F#5S_Gb5S_s.wav
83,192,73091,1,0,0:0:0:100:A5S_s.wav
448,192,73273,1,0,0:0:0:100:B5S_s.wav
10,192,73454,1,0,0:0:0:86:B3S.wav
156,192,73454,1,0,0:0:0:86:F4S.wav
229,192,73454,1,0,0:0:0:86:G#4S_Ab4S.wav
375,192,73454,1,0,0:0:0:100:C#6S_Db6S_s.wav
302,192,73636,1,0,0:0:0:100:A5S.wav
10,192,74182,1,0,0:0:0:86:B3S.wav
83,192,74182,1,0,0:0:0:86:E4S.wav
375,192,74182,1,0,0:0:0:86:F#4S_Gb4S.wav
448,192,74182,1,0,0:0:0:100:A5S_s.wav
156,192,74364,1,0,0:0:0:100:A5S_s.wav
229,192,74545,1,0,0:0:0:100:A5S_s.wav
302,192,74727,1,0,0:0:0:100:E6S_s.wav
10,192,74909,1,0,0:0:0:86:A3S.wav
83,192,74909,1,0,0:0:0:86:D#4S_Eb4S.wav
375,192,74909,1,0,0:0:0:86:F#4S_Gb4S.wav
448,192,74909,1,0,0:0:0:100:C#6S_Db6S_s.wav
156,192,75454,1,0,0:0:0:100:A5S_s.wav
10,192,75636,1,0,0:0:0:86:B3S.wav
229,192,75636,1,0,0:0:0:86:D4S.wav
302,192,75636,1,0,0:0:0:86:F#4S_Gb4S.wav
375,192,75636,1,0,0:0:0:100:C#6S_Db6S_s.wav
83,192,75818,1,0,0:0:0:100:C#6S_Db6S_s.wav
448,192,76000,1,0,0:0:0:100:B5S_s.wav
156,192,76182,1,0,0:0:0:100:A5S_s.wav
10,192,76364,1,0,0:0:0:86:C#4S_Db4S.wav
229,192,76364,1,0,0:0:0:86:E4S.wav
302,192,76364,1,0,0:0:0:86:G#4S_Ab4S.wav
375,192,76364,1,0,0:0:0:100:G#5S_Ab5S_s.wav
83,192,76545,1,0,0:0:0:100:A5S_s.wav
448,192,76727,1,0,0:0:0:100:B5S_s.wav
156,192,76909,1,0,0:0:0:100:A5S_s.wav
10,192,77091,1,0,0:0:0:100:D4S_s.wav
375,192,77091,1,0,0:0:0:100:B5S_s.wav
229,192,77273,1,0,0:0:0:100:D4S_s.wav
302,192,77273,1,0,0:0:0:100:A5S_s.wav
83,192,77454,1,0,0:0:0:100:D4S_s.wav
448,192,77454,1,0,0:0:0:100:G#5S_Ab5S_s.wav
156,192,77636,1,0,0:0:0:100:D4S_s.wav
375,192,77636,1,0,0:0:0:100:A5S_s.wav
10,192,77727,1,0,0:0:0:100:D4S_s.wav
83,192,77818,1,0,0:0:0:100:E4S_s.wav
229,192,77818,1,0,0:0:0:100:G#5S_Ab5S_s.wav
302,192,77818,1,0,0:0:0:100:B5S_s.wav
448,192,78182,1,0,0:0:0:100:C#6S_Db6S_s.wav
156,192,78364,1,0,0:0:0:100:D6S_s.wav
10,192,78545,1,0,0:0:0:100:A3S_s.wav
375,192,78545,1,0,0:0:0:100:E6S_s.wav
83,192,78727,1,0,0:0:0:100:A3S_s.wav
302,192,78727,1,0,0:0:0:100:A6S_s.wav
229,192,78909,1,0,0:0:0:100:A3S_s.wav
448,192,78909,1,0,0:0:0:100:A6S_s.wav
156,192,79091,1,0,0:0:0:100:A3S_s.wav
375,192,79091,1,0,0:0:0:100:B6S_s.wav
10,192,79182,1,0,0:0:0:100:C#4S_Db4S_s.wav
302,192,79273,1,0,0:0:0:100:G#6S_Ab6S_s.wav
83,192,79364,1,0,0:0:0:100:C#4S_Db4S_s.wav
448,192,79454,1,0,0:0:0:100:C#4S_Db4S_s.wav
156,192,79636,1,0,0:0:0:100:C#4S_Db4S_s.wav
229,192,79636,1,0,0:0:0:100:F#6S_Gb6S_s.wav
10,192,79818,1,0,0:0:0:100:C#4S_Db4S_s.wav
375,192,79818,1,0,0:0:0:100:E6S_s.wav
83,192,80000,1,0,0:0:0:100:E4S_s.wav
302,192,80000,1,0,0:0:0:100:F#6S_Gb6S_s.wav
229,192,80182,1,0,0:0:0:100:E4S_s.wav
448,192,80182,1,0,0:0:0:100:E6S_s.wav
156,192,80364,1,0,0:0:0:100:E4S_s.wav
375,192,80364,1,0,0:0:0:100:E6S_s.wav
10,192,80545,1,0,0:0:0:100:E4S_s.wav
302,192,80545,1,0,0:0:0:100:C#6S_Db6S_s.wav
83,192,80636,1,0,0:0:0:100:A3S_s.wav
229,192,80727,1,0,0:0:0:100:A3S_s.wav
448,192,80727,1,0,0:0:0:100:A5S_s.wav
156,192,80818,1,0,0:0:0:100:A3S_s.wav
375,192,80909,1,0,0:0:0:100:A3S_s.wav
10,192,81091,1,0,0:0:0:100:A4S_s.wav
302,192,81091,1,0,0:0:0:100:A5S_s.wav
83,192,81273,1,0,0:0:0:100:E4S_s.wav
448,192,81273,1,0,0:0:0:100:B5S_s.wav
156,192,81454,1,0,0:0:0:100:F#4S_Gb4S_s.wav
229,192,81454,1,0,0:0:0:100:C#6S_Db6S_s.wav
10,192,81636,1,0,0:0:0:100:F#4S_Gb4S_s.wav
375,192,81636,1,0,0:0:0:100:C#6S_Db6S_s.wav
83,192,81818,1,0,0:0:0:100:F#4S_Gb4S_s.wav
302,192,81818,1,0,0:0:0:100:C#6S_Db6S_s.wav
229,192,82000,1,0,0:0:0:100:F#4S_Gb4S_s.wav
448,192,82000,1,0,0:0:0:100:D6S_s.wav
156,192,82091,1,0,0:0:0:100:E4S_s.wav
375,192,82182,1,0,0:0:0:100:E6S_s.wav
10,192,82273,1,0,0:0:0:100:E4S_s.wav
302,192,82364,1,0,0:0:0:100:E4S_s.wav
83,192,82545,1,0,0:0:0:100:E4S_s.wav
229,192,82545,1,0,0:0:0:100:D6S_s.wav
156,192,82727,1,0,0:0:0:100:E4S_s.wav
448,192,82727,1,0,0:0:0:100:C#6S_Db6S_s.wav
10,192,82909,1,0,0:0:0:100:B3S_s.wav
302,192,82909,1,0,0:0:0:100:A5S_s.wav
375,192,82909,1,0,0:0:0:100:C#6S_Db6S_s.wav
83,192,83091,1,0,0:0:0:100:B3S_s.wav
156,192,83091,1,0,0:0:0:100:A5S.wav
229,192,83091,1,0,0:0:0:100:B5S.wav
448,192,83273,1,0,0:0:0:100:B3S_s.wav
10,192,83454,1,0,0:0:0:100:B3S_s.wav
302,192,83545,1,0,0:0:0:100:E4S_s.wav
375,192,83636,1,0,0:0:0:100:B5S_s.wav
229,192,83727,1,0,0:0:0:100:E4S_s.wav
156,192,83818,1,0,0:0:0:100:B3S_s.wav
83,192,84000,1,0,0:0:0:100:E4S_s.wav
448,192,84000,1,0,0:0:0:100:C#6S_Db6S_s.wav
10,192,84182,1,0,0:0:0:100:B3S_s.wav
302,192,84182,1,0,0:0:0:100:D6S_s.wav
229,192,84364,1,0,0:0:0:100:A3S_s.wav
375,192,84364,1,0,0:0:0:100:E6S_s.wav
156,192,84545,1,0,0:0:0:100:A3S_s.wav
448,192,84545,1,0,0:0:0:100:A6S_s.wav
83,192,84727,1,0,0:0:0:100:A3S_s.wav
302,192,84727,1,0,0:0:0:100:A6S_s.wav
10,192,84909,1,0,0:0:0:100:A3S_s.wav
229,192,84909,1,0,0:0:0:100:B6S_s.wav
375,192,85000,1,0,0:0:0:100:C#4S_Db4S_s.wav
156,192,85091,1,0,0:0:0:100:G#6S_Ab6S_s.wav
448,192,85182,1,0,0:0:0:100:C#4S_Db4S_s.wav
83,192,85273,1,0,0:0:0:100:C#4S_Db4S_s.wav
302,192,85273,1,0,0:0:0:100:F#6S_Gb6S_s.wav
10,192,85454,1,0,0:0:0:100:C#4S_Db4S_s.wav
229,192,85454,1,0,0:0:0:100:F#6S_Gb6S_s.wav
156,192,85636,1,0,0:0:0:100:C#4S_Db4S_s.wav
375,192,85636,1,0,0:0:0:100:E6S_s.wav
83,192,85818,1,0,0:0:0:100:F#4S_Gb4S_s.wav
448,192,85818,1,0,0:0:0:100:F#6S_Gb6S_s.wav
229,192,86000,1,0,0:0:0:100:F#4S_Gb4S_s.wav
302,192,86000,1,0,0:0:0:100:E6S_s.wav
10,192,86182,1,0,0:0:0:100:E4S_s.wav
375,192,86182,1,0,0:0:0:100:E6S_s.wav
156,192,86364,1,0,0:0:0:100:E4S_s.wav
448,192,86364,1,0,0:0:0:100:C#6S_Db6S_s.wav
83,192,86454,1,0,0:0:0:100:D4S_s.wav
229,192,86545,1,0,0:0:0:100:A5S_s.wav
302,192,86636,1,0,0:0:0:100:D4S_s.wav
10,192,86727,1,0,0:0:0:100:D4S_s.wav
375,192,86727,1,0,0:0:0:100:A5S_s.wav
156,192,86909,1,0,0:0:0:100:C#4S_Db4S_s.wav
448,192,86909,1,0,0:0:0:100:C#6S_Db6S_s.wav
83,192,87091,1,0,0:0:0:100:C#4S_Db4S_s.wav
229,192,87091,1,0,0:0:0:100:B5S_s.wav
10,192,87273,1,0,0:0:0:100:G4S_s.wav
302,192,87273,1,0,0:0:0:100:F#5S_Gb5S_s.wav
375,192,87273,1,0,0:0:0:100:A5S_s.wav
156,192,87454,1,0,0:0:0:100:G4S_s.wav
83,192,87636,1,0,0:0:0:100:G4S_s.wav
448,192,87636,1,0,0:0:0:100:C#6S_Db6S_s.wav
229,192,87818,1,0,0:0:0:100:G4S_s.wav
375,192,87909,1,0,0:0:0:100:E4S_s.wav
10,192,88000,1,0,0:0:0:100:F#5S_Gb5S_s.wav
302,192,88000,1,0,0:0:0:100:B5S_s.wav
156,192,88091,1,0,0:0:0:100:E4S_s.wav
83,192,88182,1,0,0:0:0:100:E4S_s.wav
448,192,88182,1,0,0:0:0:100:A5S_s.wav
229,192,88364,1,0,0:0:0:100:E4S_s.wav
375,192,88364,1,0,0:0:0:100:A5S_s.wav
10,192,88545,1,0,0:0:0:100:E4S_s.wav
156,192,88727,1,0,0:0:0:100:A4S.wav
302,192,88727,1,0,0:0:0:100:C#5S_Db5S.wav
448,192,88727,1,0,0:0:0:100:A5S.wav
83,192,90000,1,0,0:0:0:100:E5S_s.wav
10,192,90182,1,0,0:0:0:86:A4S.wav
229,192,90182,1,0,0:0:0:86:E5S.wav
375,192,90182,1,0,0:0:0:86:A5S.wav
83,192,91636,1,0,0:0:0:100:C#5S_Db5S_s.wav
156,192,91636,1,0,0:0:0:100:C#6S_Db6S.wav
302,192,91636,1,0,0:0:0:100:E6S.wav
448,192,91636,1,0,0:0:0:100:G#6S_Ab6S.wav
375,192,91909,1,0,0:0:0:100:A4S.wav
10,192,93091,1,0,0:0:0:100:A4S_s.wav
83,192,93091,1,0,0:0:0:100:C6S_s.wav
229,192,93091,1,0,0:0:0:100:E6S_s.wav
302,192,93091,1,0,0:0:0:100:A6S_s.wav
10,192,93818,1,0,0:0:0:100:G4S_s.wav
156,192,93818,1,0,0:0:0:100:B5S_s.wav
375,192,93818,1,0,0:0:0:100:D6S_s.wav
448,192,93818,1,0,0:0:0:100:G6S_s.wav
83,192,94091,1,0,0:0:0:100:G4S_s.wav
229,192,94091,1,0,0:0:0:100:B5S_s.wav
302,192,94091,1,0,0:0:0:100:D6S_s.wav
448,192,94091,1,0,0:0:0:100:G6S_s.wav
10,192,94364,1,0,0:0:0:100:G4S_s.wav
156,192,94364,1,0,0:0:0:100:B5S_s.wav
302,192,94364,1,0,0:0:0:100:D6S_s.wav
375,192,94364,1,0,0:0:0:100:G6S_s.wav
83,192,94545,1,0,0:0:0:100:F3S_s.wav
156,192,94545,1,0,0:0:0:100:C6S.wav
229,192,94545,1,0,0:0:0:100:F6S.wav
448,192,94545,1,0,0:0:0:100:A6S.wav
302,192,94727,1,0,0:0:0:100:F3S_s.wav
10,192,94909,1,0,0:0:0:100:F3S_s.wav
375,192,95000,1,0,0:0:0:100:A3S_s.wav
83,192,95091,1,0,0:0:0:100:B3S_s.wav
448,192,95182,1,0,0:0:0:100:C4S_s.wav
229,192,95273,1,0,0:0:0:100:G6S_s.wav
156,192,95364,1,0,0:0:0:100:C4S_s.wav
302,192,95454,1,0,0:0:0:100:G6S_s.wav
10,192,95545,1,0,0:0:0:100:E3S_s.wav
83,192,95636,1,0,0:0:0:100:F3S_s.wav
375,192,95636,1,0,0:0:0:100:G6S_s.wav
448,192,95727,1,0,0:0:0:100:A6S_s.wav
229,192,95818,1,0,0:0:0:100:F#3S_Gb3S_s.wav
10,192,96000,1,0,0:0:0:100:G3S_s.wav
156,192,96000,1,0,0:0:0:100:B5S.wav
302,192,96000,1,0,0:0:0:100:D6S.wav
375,192,96000,1,0,0:0:0:100:G6S.wav
83,192,96182,1,0,0:0:0:100:G3S_s.wav
448,192,96364,1,0,0:0:0:100:G3S_s.wav
229,192,96454,1,0,0:0:0:100:B3S_s.wav
156,192,96545,1,0,0:0:0:100:C4S_s.wav
375,192,96636,1,0,0:0:0:100:D4S_s.wav
10,192,96818,1,0,0:0:0:100:D4S_s.wav
302,192,97000,1,0,0:0:0:100:D4S_s.wav
83,192,97091,1,0,0:0:0:100:D4S_s.wav
229,192,97273,1,0,0:0:0:100:G3S_s.wav
448,192,97273,1,0,0:0:0:100:G6S_s.wav
156,192,97454,1,0,0:0:0:100:F3S_s.wav
375,192,97454,1,0,0:0:0:100:A6S_s.wav
10,192,97636,1,0,0:0:0:100:F3S_s.wav
302,192,97636,1,0,0:0:0:100:A6S_s.wav
83,192,97818,1,0,0:0:0:100:F3S_s.wav
229,192,97818,1,0,0:0:0:100:A6S_s.wav
448,192,97909,1,0,0:0:0:100:A3S_s.wav
156,192,98000,1,0,0:0:0:100:B3S_s.wav
375,192,98000,1,0,0:0:0:100:A6S_s.wav
10,192,98091,1,0,0:0:0:100:C4S_s.wav
302,192,98182,1,0,0:0:0:100:G6S_s.wav
229,192,98273,1,0,0:0:0:100:C4S_s.wav
83,192,98364,1,0,0:0:0:100:G6S_s.wav
448,192,98454,1,0,0:0:0:100:E3S_s.wav
156,192,98545,1,0,0:0:0:100:F3S_s.wav
375,192,98545,1,0,0:0:0:100:A6S_s.wav
10,192,98727,1,0,0:0:0:100:F#3S_Gb3S_s.wav
302,192,98727,1,0,0:0:0:100:G6S_s.wav
83,192,98909,1,0,0:0:0:100:G3S_s.wav
229,192,98909,1,0,0:0:0:100:G6S.wav
448,192,99091,1,0,0:0:0:100:G3S_s.wav
156,192,99273,1,0,0:0:0:100:G3S_s.wav
375,192,99364,1,0,0:0:0:100:B3S_s.wav
10,192,99454,1,0,0:0:0:100:C4S_s.wav
302,192,99545,1,0,0:0:0:100:D4S_s.wav
83,192,99727,1,0,0:0:0:100:D4S_s.wav
229,192,99818,1,0,0:0:0:100:D4S_s.wav
448,192,100000,1,0,0:0:0:100:D4S_s.wav
156,192,100182,1,0,0:0:0:100:G3S_s.wav
375,192,100182,1,0,0:0:0:100:G6S_s.wav
10,192,100364,1,0,0:0:0:100:F3S_s.wav
302,192,100364,1,0,0:0:0:100:A6S_s.wav
83,192,100545,1,0,0:0:0:100:F3S_s.wav
229,192,100545,1,0,0:0:0:100:G6S_s.wav
156,192,100727,1,0,0:0:0:100:F3S_s.wav
448,192,100727,1,0,0:0:0:100:A6S_s.wav
375,192,100818,1,0,0:0:0:100:A3S_s.wav
10,192,100909,1,0,0:0:0:100:B3S_s.wav
302,192,100909,1,0,0:0:0:100:G6S.wav
83,192,101000,1,0,0:0:0:100:C4S_s.wav
229,192,101182,1,0,0:0:0:100:C4S_s.wav
156,192,101364,1,0,0:0:0:100:E3S_s.wav
448,192,101454,1,0,0:0:0:100:F3S_s.wav
10,192,101636,1,0,0:0:0:100:F#3S_Gb3S_s.wav
375,192,101636,1,0,0:0:0:100:G6S_s.wav
83,192,101818,1,0,0:0:0:86:G4S.wav
156,192,101818,1,0,0:0:0:86:C5S.wav
229,192,101818,1,0,0:0:0:86:D5S.wav
302,192,101818,1,0,0:0:0:100:G6S_s.wav
448,192,102000,1,0,0:0:0:100:G6S_s.wav
10,192,102182,1,0,0:0:0:100:E6S_s.wav
83,192,102364,1,0,0:0:0:86:B4S.wav
375,192,102364,1,0,0:0:0:100:G6S.wav
302,192,103091,1,0,0:0:0:100:G6S_s.wav
10,192,103273,1,0,0:0:0:86:A4S.wav
156,192,103273,1,0,0:0:0:86:C5S.wav
229,192,103273,1,0,0:0:0:86:F5S.wav
448,192,103273,1,0,0:0:0:100:A6S_s.wav
375,192,103454,1,0,0:0:0:100:G6S_s.wav
83,192,103636,1,0,0:0:0:100:A6S_s.wav
302,192,103818,1,0,0:0:0:100:G6S.wav
10,192,104000,1,0,0:0:0:86:G4S.wav
156,192,104000,1,0,0:0:0:86:C5S.wav
448,192,104000,1,0,0:0:0:86:E5S.wav
229,192,104364,1,0,0:0:0:100:C7S_s.wav
375,192,104545,1,0,0:0:0:100:B6S_s.wav
83,192,104727,1,0,0:0:0:100:G3S_s.wav
302,192,104727,1,0,0:0:0:100:B6S.wav
156,192,104909,1,0,0:0:0:100:G3S_s.wav
448,192,105091,1,0,0:0:0:100:G3S_s.wav
10,192,105182,1,0,0:0:0:100:G3S_s.wav
229,192,105273,1,0,0:0:0:100:G3S_s.wav
375,192,105364,1,0,0:0:0:100:A#3S_Bb3S_s.wav
83,192,105454,1,0,0:0:0:100:B3S_s.wav
302,192,105545,1,0,0:0:0:100:B3S_s.wav
156,192,105636,1,0,0:0:0:100:C4S_s.wav
448,192,105818,1,0,0:0:0:100:D4S_s.wav
10,192,106000,1,0,0:0:0:100:F4S_s.wav
229,192,106182,1,0,0:0:0:100:G4S_s.wav
375,192,106182,1,0,0:0:0:100:B6S.wav
83,192,106273,1,0,0:0:0:100:G4S_s.wav
302,192,106364,1,0,0:0:0:100:B4S_s.wav
156,192,106727,1,0,0:0:0:100:G4S_s.wav
448,192,106909,1,0,0:0:0:100:D4S_s.wav
10,192,107273,1,0,0:0:0:100:G3S_s.wav
83,192,107636,1,0,0:0:0:100:A3S_s.wav
229,192,107636,1,0,0:0:0:100:E5S_s.wav
375,192,107636,1,0,0:0:0:100:A5S_s.wav
302,192,107818,1,0,0:0:0:100:A3S_s.wav
156,192,107909,1,0,0:0:0:100:G5S_s.wav
448,192,107909,1,0,0:0:0:100:C6S_s.wav
10,192,108000,1,0,0:0:0:100:A3S_s.wav
229,192,108091,1,0,0:0:0:100:E5S_s.wav
375,192,108091,1,0,0:0:0:100:A5S_s.wav
83,192,108182,1,0,0:0:0:100:E5S_s.wav
302,192,108182,1,0,0:0:0:100:A5S_s.wav
10,192,108273,1,0,0:0:0:100:G3S_s.wav
156,192,108273,1,0,0:0:0:100:G5S_s.wav
448,192,108273,1,0,0:0:0:100:C6S_s.wav
229,192,108454,1,0,0:0:0:100:E5S_s.wav
375,192,108454,1,0,0:0:0:100:A5S_s.wav
83,192,108545,1,0,0:0:0:100:G3S_s.wav
10,192,108636,1,0,0:0:0:100:G5S_s.wav
302,192,108636,1,0,0:0:0:100:C6S_s.wav
448,192,108727,1,0,0:0:0:100:G3S_s.wav
156,192,108818,1,0,0:0:0:100:E5S_s.wav
229,192,108818,1,0,0:0:0:100:A5S_s.wav
83,192,108909,1,0,0:0:0:100:G3S_s.wav
302,192,108909,1,0,0:0:0:100:E5S_s.wav
375,192,108909,1,0,0:0:0:100:A5S_s.wav
10,192,109000,1,0,0:0:0:100:G5S_s.wav
448,192,109000,1,0,0:0:0:100:C6S_s.wav
156,192,109091,1,0,0:0:0:100:F3S_s.wav
229,192,109091,1,0,0:0:0:100:C5S_s.wav
302,192,109091,1,0,0:0:0:100:F5S_s.wav
83,192,109273,1,0,0:0:0:100:F3S_s.wav
10,192,109364,1,0,0:0:0:100:E5S_s.wav
375,192,109364,1,0,0:0:0:100:A5S_s.wav
448,192,109454,1,0,0:0:0:100:F3S_s.wav
156,192,109545,1,0,0:0:0:100:C5S_s.wav
229,192,109545,1,0,0:0:0:100:F5S_s.wav
83,192,109636,1,0,0:0:0:100:C5S_s.wav
302,192,109636,1,0,0:0:0:100:F5S_s.wav
10,192,109727,1,0,0:0:0:100:G3S_s.wav
375,192,109727,1,0,0:0:0:100:E5S_s.wav
448,192,109727,1,0,0:0:0:100:A5S_s.wav
156,192,109909,1,0,0:0:0:100:D5S_s.wav
229,192,109909,1,0,0:0:0:100:G5S_s.wav
302,192,110000,1,0,0:0:0:100:G3S_s.wav
83,192,110091,1,0,0:0:0:100:F5S_s.wav
375,192,110091,1,0,0:0:0:100:B5S_s.wav
10,192,110182,1,0,0:0:0:100:G3S_s.wav
229,192,110182,1,0,0:0:0:100:F5S_s.wav
448,192,110182,1,0,0:0:0:100:B5S_s.wav
156,192,110273,1,0,0:0:0:100:D5S_s.wav
302,192,110273,1,0,0:0:0:100:G5S_s.wav
10,192,110364,1,0,0:0:0:100:G3S_s.wav
83,192,110364,1,0,0:0:0:100:D5S_s.wav
375,192,110364,1,0,0:0:0:100:G5S_s.wav
229,192,110454,1,0,0:0:0:100:F5S_s.wav
448,192,110454,1,0,0:0:0:100:B5S_s.wav
10,192,110545,1,0,0:0:0:100:A3S_s.wav
156,192,110545,1,0,0:0:0:100:E5S_s.wav
302,192,110545,1,0,0:0:0:100:A5S_s.wav
375,192,110727,1,0,0:0:0:100:A3S_s.wav
83,192,110818,1,0,0:0:0:100:G5S_s.wav
229,192,110818,1,0,0:0:0:100:C6S_s.wav
448,192,110909,1,0,0:0:0:100:A3S_s.wav
10,192,111000,1,0,0:0:0:100:E5S_s.wav
302,192,111000,1,0,0:0:0:100:A5S_s.wav
156,192,111091,1,0,0:0:0:100:E5S_s.wav
375,192,111091,1,0,0:0:0:100:A5S_s.wav
83,192,111182,1,0,0:0:0:100:G3S_s.wav
229,192,111182,1,0,0:0:0:100:G5S_s.wav
448,192,111182,1,0,0:0:0:100:C6S_s.wav
10,192,111364,1,0,0:0:0:100:E5S_s.wav
302,192,111364,1,0,0:0:0:100:A5S_s.wav
156,192,111454,1,0,0:0:0:100:G3S_s.wav
83,192,111545,1,0,0:0:0:100:G5S_s.wav
375,192,111545,1,0,0:0:0:100:C6S_s.wav
229,192,111636,1,0,0:0:0:100:G3S_s.wav
10,192,111727,1,0,0:0:0:100:E5S_s.wav
448,192,111727,1,0,0:0:0:100:A5S_s.wav
156,192,111818,1,0,0:0:0:100:G3S_s.wav
302,192,111818,1,0,0:0:0:100:E5S_s.wav
375,192,111818,1,0,0:0:0:100:A5S_s.wav
83,192,111909,1,0,0:0:0:100:G5S_s.wav
229,192,111909,1,0,0:0:0:100:C6S_s.wav
10,192,112000,1,0,0:0:0:100:F3S_s.wav
156,192,112000,1,0,0:0:0:100:C5S_s.wav
448,192,112000,1,0,0:0:0:100:F5S_s.wav
302,192,112182,1,0,0:0:0:100:F3S_s.wav
229,192,112273,1,0,0:0:0:100:E5S_s.wav
375,192,112273,1,0,0:0:0:100:A5S_s.wav
83,192,112364,1,0,0:0:0:100:F3S_s.wav
10,192,112454,1,0,0:0:0:100:C5S_s.wav
448,192,112454,1,0,0:0:0:100:F5S_s.wav
156,192,112545,1,0,0:0:0:100:C5S_s.wav
302,192,112545,1,0,0:0:0:100:F5S_s.wav
83,192,112636,1,0,0:0:0:100:G3S_s.wav
229,192,112636,1,0,0:0:0:100:E5S_s.wav
375,192,112636,1,0,0:0:0:100:A5S_s.wav
10,192,112818,1,0,0:0:0:100:D5S_s.wav
448,192,112818,1,0,0:0:0:100:G5S_s.wav
302,192,112909,1,0,0:0:0:100:G3S_s.wav
156,192,113000,1,0,0:0:0:100:F5S_s.wav
375,192,113000,1,0,0:0:0:100:B5S_s.wav
83,192,113091,1,0,0:0:0:100:G3S_s.wav
229,192,113091,1,0,0:0:0:100:F5S_s.wav
448,192,113091,1,0,0:0:0:100:B5S_s.wav
10,192,113182,1,0,0:0:0:100:D5S_s.wav
302,192,113182,1,0,0:0:0:100:G5S_s.wav
83,192,113273,1,0,0:0:0:100:G3S_s.wav
156,192,113273,1,0,0:0:0:100:D5S_s.wav
375,192,113273,1,0,0:0:0:100:G5S_s.wav
229,192,113364,1,0,0:0:0:100:F5S_s.wav
448,192,113364,1,0,0:0:0:100:B5S_s.wav
10,192,113454,1,0,0:0:0:100:F#4S_Gb4S_s.wav
83,192,113454,1,0,0:0:0:86:C#6S_Db6S.wav
302,192,113454,1,0,0:0:0:86:F#6S_Gb6S.wav
375,192,113454,1,0,0:0:0:86:A6S.wav
156,192,113636,1,0,0:0:0:100:F#4S_Gb4S_s.wav
229,192,113818,1,0,0:0:0:100:C#4S_Db4S_s.wav
448,192,114000,1,0,0:0:0:100:F#4S_Gb4S_s.wav
10,192,114091,1,0,0:0:0:100:F4S_s.wav
83,192,114182,1,0,0:0:0:86:B5S.wav
302,192,114182,1,0,0:0:0:86:F6S.wav
375,192,114182,1,0,0:0:0:86:G#6S_Ab6S.wav
156,192,114273,1,0,0:0:0:100:F4S_s.wav
229,192,114454,1,0,0:0:0:100:F4S_s.wav
448,192,114545,1,0,0:0:0:100:C#4S_Db4S_s.wav
10,192,114727,1,0,0:0:0:100:F4S_s.wav
83,192,114909,1,0,0:0:0:100:E4S_s.wav
156,192,114909,1,0,0:0:0:86:B5S.wav
302,192,114909,1,0,0:0:0:86:E6S.wav
375,192,114909,1,0,0:0:0:86:F#6S_Gb6S.wav
229,192,115091,1,0,0:0:0:100:E4S_s.wav
448,192,115273,1,0,0:0:0:100:C#4S_Db4S_s.wav
10,192,115454,1,0,0:0:0:100:E4S_s.wav
375,192,115545,1,0,0:0:0:100:D#4S_Eb4S_s.wav
83,192,115636,1,0,0:0:0:86:A5S.wav
156,192,115636,1,0,0:0:0:86:D#6S_Eb6S.wav
302,192,115636,1,0,0:0:0:86:F#6S_Gb6S.wav
229,192,115727,1,0,0:0:0:100:D#4S_Eb4S_s.wav
448,192,115909,1,0,0:0:0:100:D#4S_Eb4S_s.wav
10,192,116000,1,0,0:0:0:100:D#4S_Eb4S_s.wav
375,192,116182,1,0,0:0:0:100:D#4S_Eb4S_s.wav
83,192,116364,1,0,0:0:0:100:B3S_s.wav
156,192,116364,1,0,0:0:0:86:B5S.wav
229,192,116364,1,0,0:0:0:86:D6S.wav
302,192,116364,1,0,0:0:0:86:F#6S_Gb6S.wav
448,192,116545,1,0,0:0:0:100:B3S_s.wav
10,192,116727,1,0,0:0:0:100:B3S_s.wav
375,192,116909,1,0,0:0:0:100:B3S_s.wav
156,192,117000,1,0,0:0:0:100:C#4S_Db4S_s.wav
83,192,117091,1,0,0:0:0:86:C#6S_Db6S.wav
229,192,117091,1,0,0:0:0:86:E6S.wav
302,192,117091,1,0,0:0:0:86:G#6S_Ab6S.wav
448,192,117182,1,0,0:0:0:100:C#4S_Db4S_s.wav
10,192,117364,1,0,0:0:0:100:C#4S_Db4S_s.wav
375,192,117454,1,0,0:0:0:100:C#4S_Db4S_s.wav
156,192,117636,1,0,0:0:0:100:C#4S_Db4S_s.wav
302,192,117818,1,0,0:0:0:100:D4S_s.wav
229,192,118000,1,0,0:0:0:100:D4S_s.wav
83,192,118182,1,0,0:0:0:100:D4S_s.wav
448,192,118364,1,0,0:0:0:100:D4S_s.wav
10,192,118454,1,0,0:0:0:100:D4S_s.wav
375,192,118545,1,0,0:0:0:100:E4S_s.wav
156,192,118909,1,0,0:0:0:100:C#6S_Db6S_s.wav
302,192,119091,1,0,0:0:0:100:D6S_s.wav
83,192,119273,1,0,0:0:0:78:C#5S_Db5S.wav
229,192,119273,1,0,0:0:0:100:A5S_s.wav
448,192,119273,1,0,0:0:0:100:E6S_s.wav
10,192,119454,1,0,0:0:0:100:C#6S_Db6S_s.wav
156,192,119636,1,0,0:0:0:100:E6S_s.wav
375,192,119636,1,0,0:0:0:100:A6S_s.wav
83,192,119818,1,0,0:0:0:100:E6S_s.wav
302,192,119818,1,0,0:0:0:100:B6S_s.wav
10,192,120000,1,0,0:0:0:78:B4S.wav
229,192,120000,1,0,0:0:0:100:E6S_s.wav
448,192,120000,1,0,0:0:0:100:G#6S_Ab6S_s.wav
156,192,120182,1,0,0:0:0:100:C#6S_Db6S_s.wav
375,192,120182,1,0,0:0:0:100:F#6S_Gb6S_s.wav
83,192,120364,1,0,0:0:0:100:C#6S_Db6S_s.wav
302,192,120364,1,0,0:0:0:100:F#6S_Gb6S_s.wav
229,192,120545,1,0,0:0:0:100:C#6S_Db6S_s.wav
448,192,120545,1,0,0:0:0:100:E6S_s.wav
10,192,120727,1,0,0:0:0:78:A4S.wav
156,192,120727,1,0,0:0:0:100:E6S_s.wav
375,192,120727,1,0,0:0:0:100:F#6S_Gb6S_s.wav
83,192,120909,1,0,0:0:0:100:C#6S_Db6S_s.wav
302,192,120909,1,0,0:0:0:100:E6S_s.wav
229,192,121091,1,0,0:0:0:100:C#6S_Db6S_s.wav
448,192,121091,1,0,0:0:0:100:E6S_s.wav
10,192,121273,1,0,0:0:0:100:B5S_s.wav
375,192,121273,1,0,0:0:0:100:C#6S_Db6S_s.wav
156,192,121454,1,0,0:0:0:100:E5S.wav
302,192,121454,1,0,0:0:0:100:A5S_s.wav
83,192,121818,1,0,0:0:0:100:E5S_s.wav
448,192,121818,1,0,0:0:0:100:A5S_s.wav
10,192,122000,1,0,0:0:0:100:F#5S_Gb5S_s.wav
229,192,122000,1,0,0:0:0:100:B5S_s.wav
156,192,122182,1,0,0:0:0:78:F#4S_Gb4S.wav
302,192,122182,1,0,0:0:0:100:A5S_s.wav
375,192,122182,1,0,0:0:0:100:C#6S_Db6S_s.wav
83,192,122364,1,0,0:0:0:100:A5S_s.wav
448,192,122364,1,0,0:0:0:100:C#6S_Db6S_s.wav
10,192,122545,1,0,0:0:0:100:A5S_s.wav
229,192,122545,1,0,0:0:0:100:C#6S_Db6S_s.wav
156,192,122727,1,0,0:0:0:100:B5S_s.wav
302,192,122727,1,0,0:0:0:100:D6S_s.wav
83,192,122909,1,0,0:0:0:78:E4S.wav
375,192,122909,1,0,0:0:0:100:C#6S_Db6S_s.wav
448,192,122909,1,0,0:0:0:100:E6S_s.wav
10,192,123091,1,0,0:0:0:100:B5S_s.wav
229,192,123091,1,0,0:0:0:100:E6S_s.wav
156,192,123273,1,0,0:0:0:100:A5S_s.wav
302,192,123273,1,0,0:0:0:100:D6S_s.wav
83,192,123454,1,0,0:0:0:100:A5S_s.wav
448,192,123454,1,0,0:0:0:100:C#6S_Db6S_s.wav
10,192,123636,1,0,0:0:0:78:F#4S_Gb4S.wav
229,192,123636,1,0,0:0:0:100:F#5S_Gb5S_s.wav
302,192,123636,1,0,0:0:0:100:A5S_s.wav
375,192,123636,1,0,0:0:0:100:C#6S_Db6S_s.wav
83,192,123818,1,0,0:0:0:100:F#5S_Gb5S_s.wav
156,192,123818,1,0,0:0:0:100:A5S.wav
448,192,123818,1,0,0:0:0:100:B5S.wav
375,192,124000,1,0,0:0:0:100:F#5S_Gb5S_s.wav
10,192,124182,1,0,0:0:0:100:F#5S_Gb5S_s.wav
156,192,124364,1,0,0:0:0:78:A4S.wav
229,192,124364,1,0,0:0:0:100:G#5S_Ab5S.wav
302,192,124364,1,0,0:0:0:100:B5S_s.wav
83,192,124727,1,0,0:0:0:78:G#4S_Ab4S.wav
448,192,124727,1,0,0:0:0:100:C#6S_Db6S_s.wav
375,192,124909,1,0,0:0:0:100:D6S_s.wav
10,192,125091,1,0,0:0:0:86:C#4S_Db4S.wav
83,192,125091,1,0,0:0:0:86:E4S.wav
156,192,125091,1,0,0:0:0:86:A4S.wav
229,192,125091,1,0,0:0:0:86:E5S_s.wav
302,192,125091,1,0,0:0:0:100:A5S_s.wav
448,192,125091,1,0,0:0:0:100:E6S_s.wav
10,192,125273,1,0,0:0:0:86:D5S_s.wav
375,192,125273,1,0,0:0:0:100:C#6S_Db6S_s.wav
448,192,125273,1,0,0:0:0:100:A6S_s.wav
83,192,125454,1,0,0:0:0:86:C#5S_Db5S_s.wav
156,192,125454,1,0,0:0:0:100:C#6S_Db6S_s.wav
302,192,125454,1,0,0:0:0:100:A6S_s.wav
10,192,125636,1,0,0:0:0:86:B4S_s.wav
229,192,125636,1,0,0:0:0:100:E6S_s.wav
448,192,125636,1,0,0:0:0:100:B6S_s.wav
10,192,125818,1,0,0:0:0:86:C#4S_Db4S.wav
83,192,125818,1,0,0:0:0:86:E4S.wav
156,192,125818,1,0,0:0:0:86:G#4S_Ab4S.wav
302,192,125818,1,0,0:0:0:86:C#5S_Db5S_s.wav
375,192,125818,1,0,0:0:0:100:E6S_s.wav
448,192,125818,1,0,0:0:0:100:G#6S_Ab6S_s.wav
10,192,126000,1,0,0:0:0:86:B4S_s.wav
229,192,126000,1,0,0:0:0:100:C#6S_Db6S_s.wav
375,192,126000,1,0,0:0:0:100:F#6S_Gb6S_s.wav
83,192,126182,1,0,0:0:0:86:A4S_s.wav
156,192,126182,1,0,0:0:0:100:C#6S_Db6S_s.wav
302,192,126182,1,0,0:0:0:100:F#6S_Gb6S_s.wav
10,192,126364,1,0,0:0:0:86:B4S_s.wav
375,192,126364,1,0,0:0:0:100:A5S_s.wav
448,192,126364,1,0,0:0:0:100:E6S_s.wav
10,192,126545,1,0,0:0:0:86:A3S.wav
83,192,126545,1,0,0:0:0:86:C#4S_Db4S.wav
156,192,126545,1,0,0:0:0:86:F#4S_Gb4S.wav
229,192,126545,1,0,0:0:0:86:A4S_s.wav
302,192,126545,1,0,0:0:0:100:A5S_s.wav
448,192,126545,1,0,0:0:0:100:F#6S_Gb6S_s.wav
156,192,126727,1,0,0:0:0:86:C#5S_Db5S_s.wav
375,192,126727,1,0,0:0:0:100:A5S_s.wav
448,192,126727,1,0,0:0:0:100:E6S_s.wav
10,192,126909,1,0,0:0:0:86:E4S.wav
83,192,126909,1,0,0:0:0:86:G#4S_Ab4S_s.wav
229,192,126909,1,0,0:0:0:100:C#6S_Db6S_s.wav
302,192,126909,1,0,0:0:0:100:E6S_s.wav
156,192,127091,1,0,0:0:0:86:B4S_s.wav
375,192,127091,1,0,0:0:0:100:A5S_s.wav
448,192,127091,1,0,0:0:0:100:C#6S_Db6S_s.wav
10,192,127273,1,0,0:0:0:86:A3S.wav
83,192,127273,1,0,0:0:0:86:D4S.wav
156,192,127273,1,0,0:0:0:86:F#4S_Gb4S.wav
229,192,127273,1,0,0:0:0:86:A4S.wav
302,192,127273,1,0,0:0:0:100:F#5S_Gb5S_s.wav
375,192,127273,1,0,0:0:0:100:A5S_s.wav
83,192,127454,1,0,0:0:0:100:F#5S_Gb5S_s.wav
448,192,127454,1,0,0:0:0:100:A5S_s.wav
302,192,127636,1,0,0:0:0:100:C#6S_Db6S_s.wav
10,192,127818,1,0,0:0:0:100:B5S_s.wav
83,192,128000,1,0,0:0:0:86:A3S.wav
156,192,128000,1,0,0:0:0:86:D4S.wav
229,192,128000,1,0,0:0:0:86:G4S.wav
375,192,128000,1,0,0:0:0:100:F#5S_Gb5S_s.wav
448,192,128000,1,0,0:0:0:100:A5S_s.wav
302,192,128364,1,0,0:0:0:100:C#6S_Db6S_s.wav
10,192,128545,1,0,0:0:0:86:G#3S_Ab3S.wav
83,192,128545,1,0,0:0:0:86:B3S.wav
375,192,128545,1,0,0:0:0:86:E4S.wav
448,192,128545,1,0,0:0:0:86:G#4S_Ab4S.wav
156,192,128727,1,0,0:0:0:100:G#5S_Ab5S_s.wav
229,192,128727,1,0,0:0:0:100:B5S_s.wav
302,192,128909,1,0,0:0:0:100:A5S_s.wav
83,192,129091,1,0,0:0:0:86:E4S_s.wav
448,192,129091,1,0,0:0:0:100:A5S_s.wav
10,192,129273,1,0,0:0:0:86:F#4S_Gb4S_s.wav
83,192,129454,1,0,0:0:0:86:A3S.wav
156,192,129454,1,0,0:0:0:86:C#4S_Db4S.wav
229,192,129454,1,0,0:0:0:86:E4S.wav
302,192,129454,1,0,0:0:0:100:E5S.wav
375,192,129454,1,0,0:0:0:100:A5S.wav
10,192,130182,1,0,0:0:0:100:F#3S_Gb3S_s.wav
156,192,130182,1,0,0:0:0:100:F#4S_Gb4S_s.wav
302,192,130182,1,0,0:0:0:100:B5S_s.wav
375,192,130182,1,0,0:0:0:100:D6S_s.wav
448,192,130182,1,0,0:0:0:100:F#6S_Gb6S_s.wav
10,192,130454,1,0,0:0:0:100:F#3S_Gb3S_s.wav
83,192,130454,1,0,0:0:0:100:F#4S_Gb4S_s.wav
229,192,130454,1,0,0:0:0:100:B5S_s.wav
375,192,130454,1,0,0:0:0:100:D6S_s.wav
448,192,130454,1,0,0:0:0:100:F#6S_Gb6S_s.wav
10,192,130727,1,0,0:0:0:100:F#3S_Gb3S_s.wav
83,192,130727,1,0,0:0:0:100:F#4S_Gb4S_s.wav
156,192,130727,1,0,0:0:0:100:B5S_s.wav
302,192,130727,1,0,0:0:0:100:D6S_s.wav
375,192,130727,1,0,0:0:0:100:F#6S_Gb6S_s.wav
229,192,130909,1,0,0:0:0:100:A3S_s.wav
448,192,130909,1,0,0:0:0:100:E6S_s.wav
10,192,131091,1,0,0:0:0:100:A3S_s.wav
375,192,131091,1,0,0:0:0:100:A6S_s.wav
83,192,131273,1,0,0:0:0:100:A3S_s.wav
302,192,131273,1,0,0:0:0:100:A6S_s.wav
156,192,131454,1,0,0:0:0:100:A3S_s.wav
448,192,131454,1,0,0:0:0:100:B6S_s.wav
229,192,131545,1,0,0:0:0:100:C#4S_Db4S_s.wav
10,192,131636,1,0,0:0:0:100:G#6S_Ab6S_s.wav
375,192,131727,1,0,0:0:0:100:C#4S_Db4S_s.wav
83,192,131818,1,0,0:0:0:100:C#4S_Db4S_s.wav
302,192,131818,1,0,0:0:0:100:F#6S_Gb6S_s.wav
156,192,132000,1,0,0:0:0:100:C#4S_Db4S_s.wav
448,192,132000,1,0,0:0:0:100:F#6S_Gb6S_s.wav
10,192,132182,1,0,0:0:0:100:C#4S_Db4S_s.wav
229,192,132182,1,0,0:0:0:100:E6S_s.wav
83,192,132364,1,0,0:0:0:100:E4S_s.wav
375,192,132364,1,0,0:0:0:100:F#6S_Gb6S_s.wav
156,192,132545,1,0,0:0:0:100:E4S_s.wav
302,192,132545,1,0,0:0:0:100:E6S_s.wav
229,192,132727,1,0,0:0:0:100:E4S_s.wav
448,192,132727,1,0,0:0:0:100:E6S_s.wav
10,192,132909,1,0,0:0:0:100:E4S_s.wav
375,192,132909,1,0,0:0:0:100:C#6S_Db6S_s.wav
83,192,133000,1,0,0:0:0:100:A3S_s.wav
302,192,133091,1,0,0:0:0:100:A5S_s.wav
156,192,133182,1,0,0:0:0:100:A3S_s.wav
229,192,133273,1,0,0:0:0:100:A3S_s.wav
10,192,133454,1,0,0:0:0:100:A4S_s.wav
448,192,133454,1,0,0:0:0:100:A5S_s.wav
83,192,133636,1,0,0:0:0:100:E4S_s.wav
375,192,133636,1,0,0:0:0:100:B5S_s.wav
156,192,133818,1,0,0:0:0:100:F#4S_Gb4S_s.wav
302,192,133818,1,0,0:0:0:100:C#6S_Db6S_s.wav
229,192,134000,1,0,0:0:0:100:F#4S_Gb4S_s.wav
448,192,134000,1,0,0:0:0:100:C#6S_Db6S_s.wav
10,192,134182,1,0,0:0:0:100:F#4S_Gb4S_s.wav
375,192,134182,1,0,0:0:0:100:C#6S_Db6S_s.wav
83,192,134364,1,0,0:0:0:100:F#4S_Gb4S_s.wav
302,192,134364,1,0,0:0:0:100:D6S_s.wav
156,192,134454,1,0,0:0:0:100:E4S_s.wav
229,192,134545,1,0,0:0:0:100:E6S_s.wav
448,192,134636,1,0,0:0:0:100:E4S_s.wav
10,192,134727,1,0,0:0:0:100:E4S_s.wav
375,192,134727,1,0,0:0:0:100:E6S_s.wav
83,192,134909,1,0,0:0:0:100:E4S_s.wav
302,192,134909,1,0,0:0:0:100:D6S_s.wav
156,192,135091,1,0,0:0:0:100:E4S_s.wav
229,192,135091,1,0,0:0:0:100:C#6S_Db6S_s.wav
10,192,135273,1,0,0:0:0:100:B3S_s.wav
375,192,135273,1,0,0:0:0:100:A5S_s.wav
448,192,135273,1,0,0:0:0:100:C#6S_Db6S_s.wav
83,192,135454,1,0,0:0:0:100:B3S_s.wav
229,192,135454,1,0,0:0:0:100:A5S.wav
302,192,135454,1,0,0:0:0:100:B5S.wav
156,192,135636,1,0,0:0:0:100:B3S_s.wav
448,192,135818,1,0,0:0:0:100:B3S_s.wav
10,192,135909,1,0,0:0:0:100:E4S_s.wav
375,192,136000,1,0,0:0:0:100:B5S_s.wav
83,192,136091,1,0,0:0:0:100:E4S_s.wav
302,192,136182,1,0,0:0:0:100:B3S_s.wav
156,192,136364,1,0,0:0:0:100:E4S_s.wav
229,192,136364,1,0,0:0:0:100:C#6S_Db6S_s.wav
10,192,136545,1,0,0:0:0:100:B3S_s.wav
448,192,136545,1,0,0:0:0:100:D6S_s.wav
83,192,136727,1,0,0:0:0:100:A3S_s.wav
375,192,136727,1,0,0:0:0:100:E6S_s.wav
156,192,136909,1,0,0:0:0:100:A3S_s.wav
302,192,136909,1,0,0:0:0:100:A6S_s.wav
10,192,137091,1,0,0:0:0:100:A3S_s.wav
229,192,137091,1,0,0:0:0:100:A6S_s.wav
83,192,137273,1,0,0:0:0:100:A3S_s.wav
448,192,137273,1,0,0:0:0:100:B6S_s.wav
375,192,137363,1,0,0:0:0:100:C#4S_Db4S_s.wav
156,192,137454,1,0,0:0:0:100:G#6S_Ab6S_s.wav
302,192,137545,1,0,0:0:0:100:C#4S_Db4S_s.wav
10,192,137636,1,0,0:0:0:100:C#4S_Db4S_s.wav
229,192,137636,1,0,0:0:0:100:F#6S_Gb6S_s.wav
83,192,137818,1,0,0:0:0:100:C#4S_Db4S_s.wav
448,192,137818,1,0,0:0:0:100:F#6S_Gb6S_s.wav
156,192,138000,1,0,0:0:0:100:C#4S_Db4S_s.wav
375,192,138000,1,0,0:0:0:100:E6S_s.wav
229,192,138182,1,0,0:0:0:100:F#4S_Gb4S_s.wav
302,192,138182,1,0,0:0:0:100:F#6S_Gb6S_s.wav
10,192,138363,1,0,0:0:0:100:F#4S_Gb4S_s.wav
448,192,138363,1,0,0:0:0:100:E6S_s.wav
83,192,138545,1,0,0:0:0:100:E4S_s.wav
375,192,138545,1,0,0:0:0:100:E6S_s.wav
156,192,138727,1,0,0:0:0:100:E4S_s.wav
302,192,138727,1,0,0:0:0:100:C#6S_Db6S_s.wav
229,192,138818,1,0,0:0:0:100:D4S_s.wav
448,192,138909,1,0,0:0:0:100:A5S_s.wav
10,192,139000,1,0,0:0:0:100:D4S_s.wav
83,192,139091,1,0,0:0:0:100:D4S_s.wav
375,192,139091,1,0,0:0:0:100:A5S_s.wav
156,192,139273,1,0,0:0:0:100:C#4S_Db4S_s.wav
302,192,139273,1,0,0:0:0:100:C#6S_Db6S_s.wav
229,192,139454,1,0,0:0:0:100:C#4S_Db4S_s.wav
448,192,139454,1,0,0:0:0:100:B5S_s.wav
10,192,139636,1,0,0:0:0:100:G4S_s.wav
83,192,139636,1,0,0:0:0:100:F#5S_Gb5S_s.wav
375,192,139636,1,0,0:0:0:100:A5S_s.wav
302,192,139818,1,0,0:0:0:100:G4S_s.wav
156,192,140000,1,0,0:0:0:100:G4S_s.wav
229,192,140000,1,0,0:0:0:100:C#6S_Db6S_s.wav
448,192,140182,1,0,0:0:0:100:G4S_s.wav
10,192,140273,1,0,0:0:0:100:E4S_s.wav
83,192,140363,1,0,0:0:0:100:F#5S_Gb5S_s.wav
375,192,140363,1,0,0:0:0:100:B5S_s.wav
302,192,140454,1,0,0:0:0:100:E4S_s.wav
156,192,140545,1,0,0:0:0:100:E4S_s.wav
229,192,140545,1,0,0:0:0:100:A5S_s.wav
10,192,140727,1,0,0:0:0:100:E4S_s.wav
448,192,140727,1,0,0:0:0:100:A5S_s.wav
375,192,140909,1,0,0:0:0:100:E4S_s.wav
83,192,141091,1,0,0:0:0:100:A4S.wav
229,192,141091,1,0,0:0:0:100:E5S.wav
302,192,141091,1,0,0:0:0:100:A5S.wav
156,192,142363,1,0,0:0:0:100:E5S_s.wav
10,192,142545,1,0,0:0:0:100:C#5S_Db5S.wav
375,192,142545,1,0,0:0:0:100:A5S.wav
448,192,142545,1,0,0:0:0:100:A5S.wav
83,192,144000,1,0,0:0:0:100:C#5S_Db5S_s.wav
156,192,144000,1,0,0:0:0:100:C#6S_Db6S.wav
229,192,144000,1,0,0:0:0:100:E6S.wav
302,192,144000,1,0,0:0:0:100:G#6S_Ab6S.wav
448,192,144273,1,0,0:0:0:100:A4S.wav
10,192,145454,1,0,0:0:0:100:A4S_s.wav
156,192,145454,1,0,0:0:0:100:C6S_s.wav
302,192,145454,1,0,0:0:0:100:E6S_s.wav
375,192,145454,1,0,0:0:0:100:A6S_s.wav
10,192,146182,1,0,0:0:0:100:G4S_s.wav
83,192,146182,1,0,0:0:0:100:B5S_s.wav
229,192,146182,1,0,0:0:0:100:D6S_s.wav
448,192,146182,1,0,0:0:0:100:G6S_s.wav
83,192,146454,1,0,0:0:0:100:G4S_s.wav
156,192,146454,1,0,0:0:0:100:B5S_s.wav
302,192,146454,1,0,0:0:0:100:D6S_s.wav
375,192,146454,1,0,0:0:0:100:G6S_s.wav
10,192,146727,1,0,0:0:0:100:G4S_s.wav
229,192,146727,1,0,0:0:0:100:B5S_s.wav
375,192,146727,1,0,0:0:0:100:D6S_s.wav
448,192,146727,1,0,0:0:0:100:G6S_s.wav
83,192,146909,1,0,0:0:0:100:F3S_s.wav
156,192,146909,1,0,0:0:0:100:C6S.wav
302,192,146909,1,0,0:0:0:100:F6S.wav
448,192,146909,1,0,0:0:0:100:A6S.wav
10,192,147091,1,0,0:0:0:100:F3S_s.wav
229,192,147273,1,0,0:0:0:100:F3S_s.wav
375,192,147363,1,0,0:0:0:100:A3S_s.wav
156,192,147454,1,0,0:0:0:100:B3S_s.wav
302,192,147545,1,0,0:0:0:100:C4S_s.wav
83,192,147636,1,0,0:0:0:100:G6S_s.wav
448,192,147727,1,0,0:0:0:100:C4S_s.wav
10,192,147818,1,0,0:0:0:100:G6S_s.wav
229,192,147909,1,0,0:0:0:100:E3S_s.wav
156,192,148000,1,0,0:0:0:100:F3S_s.wav
375,192,148000,1,0,0:0:0:100:G6S_s.wav
302,192,148091,1,0,0:0:0:100:A6S_s.wav
83,192,148182,1,0,0:0:0:100:F#3S_Gb3S_s.wav
10,192,148363,1,0,0:0:0:100:G3S_s.wav
229,192,148363,1,0,0:0:0:100:B5S.wav
375,192,148363,1,0,0:0:0:100:D6S.wav
448,192,148363,1,0,0:0:0:100:G6S.wav
156,192,148545,1,0,0:0:0:100:G3S_s.wav
302,192,148727,1,0,0:0:0:100:G3S_s.wav
83,192,148818,1,0,0:0:0:100:B3S_s.wav
448,192,148909,1,0,0:0:0:100:C4S_s.wav
10,192,149000,1,0,0:0:0:100:D4S_s.wav
375,192,149182,1,0,0:0:0:100:D4S_s.wav
229,192,149363,1,0,0:0:0:100:D4S_s.wav
156,192,149454,1,0,0:0:0:100:D4S_s.wav
83,192,149636,1,0,0:0:0:100:G3S_s.wav
302,192,149636,1,0,0:0:0:100:G6S_s.wav
10,192,149818,1,0,0:0:0:100:F3S_s.wav
448,192,149818,1,0,0:0:0:100:A6S_s.wav
229,192,150000,1,0,0:0:0:100:F3S_s.wav
375,192,150000,1,0,0:0:0:100:A6S_s.wav
156,192,150182,1,0,0:0:0:100:F3S_s.wav
302,192,150182,1,0,0:0:0:100:A6S_s.wav
83,192,150273,1,0,0:0:0:100:A3S_s.wav
10,192,150363,1,0,0:0:0:100:B3S_s.wav
448,192,150363,1,0,0:0:0:100:A6S_s.wav
375,192,150454,1,0,0:0:0:100:C4S_s.wav
229,192,150545,1,0,0:0:0:100:G6S_s.wav
156,192,150636,1,0,0:0:0:100:C4S_s.wav
302,192,150727,1,0,0:0:0:100:G6S_s.wav
83,192,150818,1,0,0:0:0:100:E3S_s.wav
10,192,150909,1,0,0:0:0:100:F3S_s.wav
448,192,150909,1,0,0:0:0:100:A6S_s.wav
229,192,151091,1,0,0:0:0:100:F#3S_Gb3S_s.wav
375,192,151091,1,0,0:0:0:100:G6S.wav
156,192,151273,1,0,0:0:0:100:G3S_s.wav
302,192,151454,1,0,0:0:0:100:G3S_s.wav
83,192,151636,1,0,0:0:0:100:G3S_s.wav
448,192,151727,1,0,0:0:0:100:B3S_s.wav
10,192,151818,1,0,0:0:0:100:C4S_s.wav
375,192,151909,1,0,0:0:0:100:D4S_s.wav
229,192,152091,1,0,0:0:0:100:D4S_s.wav
156,192,152182,1,0,0:0:0:100:D4S_s.wav
302,192,152363,1,0,0:0:0:100:D4S_s.wav
83,192,152545,1,0,0:0:0:100:G3S_s.wav
448,192,152545,1,0,0:0:0:100:G6S_s.wav
10,192,152727,1,0,0:0:0:100:F3S_s.wav
375,192,152727,1,0,0:0:0:100:A6S_s.wav
156,192,152909,1,0,0:0:0:100:F3S_s.wav
229,192,152909,1,0,0:0:0:100:G6S_s.wav
83,192,153091,1,0,0:0:0:100:F3S_s.wav
302,192,153091,1,0,0:0:0:100:A6S_s.wav
448,192,153182,1,0,0:0:0:100:A3S_s.wav
10,192,153273,1,0,0:0:0:100:B3S_s.wav
375,192,153273,1,0,0:0:0:100:G6S.wav
229,192,153363,1,0,0:0:0:100:C4S_s.wav
156,192,153545,1,0,0:0:0:100:C4S_s.wav
302,192,153727,1,0,0:0:0:100:E3S_s.wav
83,192,153818,1,0,0:0:0:100:F3S_s.wav
10,192,154000,1,0,0:0:0:100:F#3S_Gb3S_s.wav
448,192,154000,1,0,0:0:0:100:G6S_s.wav
229,192,154182,1,0,0:0:0:100:G3S_s.wav
375,192,154182,1,0,0:0:0:100:G6S_s.wav
156,192,154363,1,0,0:0:0:100:G3S_s.wav
302,192,154363,1,0,0:0:0:100:G6S_s.wav
83,192,154545,1,0,0:0:0:100:G3S_s.wav
448,192,154545,1,0,0:0:0:100:E6S_s.wav
10,192,154636,1,0,0:0:0:100:B3S_s.wav
229,192,154727,1,0,0:0:0:100:C4S_s.wav
375,192,154727,1,0,0:0:0:100:G6S.wav
156,192,154818,1,0,0:0:0:100:D4S_s.wav
302,192,155000,1,0,0:0:0:100:D4S_s.wav
83,192,155182,1,0,0:0:0:100:D4S_s.wav
448,192,155273,1,0,0:0:0:100:D4S_s.wav
10,192,155454,1,0,0:0:0:100:G3S_s.wav
229,192,155454,1,0,0:0:0:100:G6S_s.wav
83,192,155636,1,0,0:0:0:86:A4S.wav
156,192,155636,1,0,0:0:0:86:C5S.wav
302,192,155636,1,0,0:0:0:86:F5S.wav
375,192,155636,1,0,0:0:0:100:A6S_s.wav
448,192,155818,1,0,0:0:0:100:G6S_s.wav
229,192,156000,1,0,0:0:0:100:A6S_s.wav
10,192,156182,1,0,0:0:0:100:G6S.wav
156,192,156363,1,0,0:0:0:86:G4S.wav
302,192,156363,1,0,0:0:0:86:C5S.wav
375,192,156363,1,0,0:0:0:86:E5S.wav
83,192,156727,1,0,0:0:0:100:C7S_s.wav
448,192,156909,1,0,0:0:0:100:B6S.wav
229,192,157091,1,0,0:0:0:100:G3S_s.wav
10,192,157273,1,0,0:0:0:100:G3S_s.wav
375,192,157454,1,0,0:0:0:100:G3S_s.wav
156,192,157545,1,0,0:0:0:100:G3S_s.wav
302,192,157636,1,0,0:0:0:100:G3S_s.wav
83,192,157727,1,0,0:0:0:100:A#3S_Bb3S_s.wav
448,192,157818,1,0,0:0:0:100:B3S_s.wav
229,192,157909,1,0,0:0:0:100:B3S_s.wav
10,192,158000,1,0,0:0:0:100:C4S_s.wav
375,192,158182,1,0,0:0:0:100:D4S_s.wav
156,192,158363,1,0,0:0:0:100:F4S_s.wav
83,192,158545,1,0,0:0:0:100:F3S_s.wav
229,192,158545,1,0,0:0:0:100:C6S.wav
302,192,158545,1,0,0:0:0:100:F6S.wav
448,192,158545,1,0,0:0:0:100:A6S.wav
10,192,158727,1,0,0:0:0:100:F3S_s.wav
375,192,158909,1,0,0:0:0:100:F3S_s.wav
156,192,159000,1,0,0:0:0:100:A3S_s.wav
448,192,159091,1,0,0:0:0:100:B3S_s.wav
83,192,159182,1,0,0:0:0:100:C4S_s.wav
229,192,159273,1,0,0:0:0:100:G6S_s.wav
302,192,159363,1,0,0:0:0:100:C4S_s.wav
10,192,159454,1,0,0:0:0:100:G6S_s.wav
375,192,159545,1,0,0:0:0:100:E3S_s.wav
156,192,159636,1,0,0:0:0:100:F3S_s.wav
448,192,159636,1,0,0:0:0:100:G6S_s.wav
83,192,159727,1,0,0:0:0:100:A6S_s.wav
229,192,159818,1,0,0:0:0:100:F#3S_Gb3S_s.wav
10,192,160000,1,0,0:0:0:100:G3S_s.wav
156,192,160000,1,0,0:0:0:100:B5S.wav
302,192,160000,1,0,0:0:0:100:D6S.wav
375,192,160000,1,0,0:0:0:100:G6S.wav
448,192,160182,1,0,0:0:0:100:G3S_s.wav
83,192,160363,1,0,0:0:0:100:G3S_s.wav
229,192,160454,1,0,0:0:0:100:B3S_s.wav
10,192,160545,1,0,0:0:0:100:C4S_s.wav
302,192,160636,1,0,0:0:0:100:D4S_s.wav
156,192,160818,1,0,0:0:0:100:D4S_s.wav
375,192,161000,1,0,0:0:0:100:D4S_s.wav
448,192,161091,1,0,0:0:0:100:D4S_s.wav
83,192,161273,1,0,0:0:0:100:G3S_s.wav
229,192,161273,1,0,0:0:0:100:G6S_s.wav
10,192,161454,1,0,0:0:0:100:F3S_s.wav
302,192,161454,1,0,0:0:0:100:A6S_s.wav
156,192,161636,1,0,0:0:0:100:F3S_s.wav
375,192,161636,1,0,0:0:0:100:A6S_s.wav
83,192,161818,1,0,0:0:0:100:F3S_s.wav
448,192,161818,1,0,0:0:0:100:A6S_s.wav
229,192,161909,1,0,0:0:0:100:A3S_s.wav
10,192,162000,1,0,0:0:0:100:B3S_s.wav
302,192,162000,1,0,0:0:0:100:A6S_s.wav
156,192,162091,1,0,0:0:0:100:C4S_s.wav
375,192,162182,1,0,0:0:0:100:G6S_s.wav
83,192,162273,1,0,0:0:0:100:C4S_s.wav
448,192,162363,1,0,0:0:0:100:G6S_s.wav
229,192,162454,1,0,0:0:0:100:E3S_s.wav
10,192,162545,1,0,0:0:0:100:F3S_s.wav
302,192,162545,1,0,0:0:0:100:A6S_s.wav
156,192,162727,1,0,0:0:0:100:F#3S_Gb3S_s.wav
375,192,162727,1,0,0:0:0:100:G6S.wav
83,192,162909,1,0,0:0:0:100:G3S_s.wav
448,192,163091,1,0,0:0:0:100:G3S_s.wav
229,192,163273,1,0,0:0:0:100:G3S_s.wav
10,192,163363,1,0,0:0:0:100:B3S_s.wav
302,192,163454,1,0,0:0:0:100:C4S_s.wav
156,192,163545,1,0,0:0:0:100:D4S_s.wav
375,192,163727,1,0,0:0:0:100:D4S_s.wav
83,192,163818,1,0,0:0:0:100:D4S_s.wav
448,192,164000,1,0,0:0:0:100:D4S_s.wav
10,192,164182,1,0,0:0:0:100:G3S_s.wav
229,192,164182,1,0,0:0:0:100:G6S_s.wav
156,192,164363,1,0,0:0:0:100:F3S_s.wav
302,192,164363,1,0,0:0:0:100:A6S_s.wav
83,192,164545,1,0,0:0:0:100:F3S_s.wav
375,192,164545,1,0,0:0:0:100:G6S_s.wav
229,192,164727,1,0,0:0:0:100:F3S_s.wav
448,192,164727,1,0,0:0:0:100:A6S_s.wav
10,192,164818,1,0,0:0:0:100:A3S_s.wav
156,192,164909,1,0,0:0:0:100:B3S_s.wav
302,192,164909,1,0,0:0:0:100:G6S.wav
375,192,165000,1,0,0:0:0:100:C4S_s.wav
83,192,165182,1,0,0:0:0:100:C4S_s.wav
448,192,165363,1,0,0:0:0:100:E3S_s.wav
229,192,165454,1,0,0:0:0:100:F3S_s.wav
10,192,165636,1,0,0:0:0:100:F#3S_Gb3S_s.wav
302,192,165636,1,0,0:0:0:100:G6S_s.wav
156,192,165818,1,0,0:0:0:100:G3S_s.wav
375,192,165818,1,0,0:0:0:100:G6S_s.wav
83,192,166000,1,0,0:0:0:100:G3S_s.wav
448,192,166000,1,0,0:0:0:100:G6S_s.wav
10,192,166182,1,0,0:0:0:100:G3S_s.wav
229,192,166182,1,0,0:0:0:100:E6S_s.wav
302,192,166273,1,0,0:0:0:100:B3S_s.wav
156,192,166363,1,0,0:0:0:100:C4S_s.wav
375,192,166363,1,0,0:0:0:100:G6S.wav
83,192,166454,1,0,0:0:0:100:D4S_s.wav
448,192,166636,1,0,0:0:0:100:D4S_s.wav
229,192,166818,1,0,0:0:0:100:D4S_s.wav
10,192,166909,1,0,0:0:0:100:D4S_s.wav
156,192,167091,1,0,0:0:0:100:G3S_s.wav
302,192,167091,1,0,0:0:0:100:G6S_s.wav
83,192,167273,1,0,0:0:0:100:F3S_s.wav
375,192,167273,1,0,0:0:0:100:A6S_s.wav
229,192,167454,1,0,0:0:0:100:F3S_s.wav
448,192,167454,1,0,0:0:0:100:G6S_s.wav
10,192,167636,1,0,0:0:0:100:F3S_s.wav
302,192,167636,1,0,0:0:0:100:A6S_s.wav
156,192,167727,1,0,0:0:0:100:A3S_s.wav
83,192,167818,1,0,0:0:0:100:B3S_s.wav
375,192,167818,1,0,0:0:0:100:G6S.wav
229,192,167909,1,0,0:0:0:100:C4S_s.wav
448,192,168091,1,0,0:0:0:100:C4S_s.wav
10,192,168273,1,0,0:0:0:100:E3S_s.wav
156,192,168363,1,0,0:0:0:100:F3S_s.wav
302,192,168363,1,0,0:0:0:100:C7S_s.wav
83,192,168545,1,0,0:0:0:100:F#3S_Gb3S_s.wav
375,192,168545,1,0,0:0:0:100:B6S_s.wav
229,192,168673,1,0,0:0:0:100:G6S.wav
448,192,168700,1,0,0:0:0:100:B6S.wav
10,192,168727,1,0,0:0:0:100:G3S_s.wav
302,192,168727,1,0,0:0:0:100:D7S.wav
156,192,168909,1,0,0:0:0:100:G3S_s.wav
375,192,169091,1,0,0:0:0:100:G3S_s.wav
83,192,169182,1,0,0:0:0:100:G3S_s.wav
229,192,169273,1,0,0:0:0:100:G3S_s.wav
448,192,169363,1,0,0:0:0:100:A#3S_Bb3S_s.wav
10,192,169454,1,0,0:0:0:100:B3S_s.wav
302,192,169545,1,0,0:0:0:100:B3S_s.wav
156,192,169636,1,0,0:0:0:100:C4S_s.wav
375,192,169818,1,0,0:0:0:100:D4S_s.wav
83,192,170000,1,0,0:0:0:100:F4S_s.wav
229,192,170182,1,0,0:0:0:100:G4S_s.wav
448,192,170182,1,0,0:0:0:100:G6S_s.wav
10,192,170273,1,0,0:0:0:100:G4S_s.wav
156,192,170363,1,0,0:0:0:100:B4S_s.wav
302,192,170363,1,0,0:0:0:100:F6S_s.wav
375,192,170545,1,0,0:0:0:100:D6S_s.wav
83,192,170727,1,0,0:0:0:100:G4S_s.wav
448,192,170727,1,0,0:0:0:100:B5S_s.wav
10,192,170909,1,0,0:0:0:100:D4S_s.wav
229,192,170909,1,0,0:0:0:100:G5S_s.wav
302,192,171091,1,0,0:0:0:100:F5S_s.wav
156,192,171273,1,0,0:0:0:100:G3S_s.wav
375,192,171273,1,0,0:0:0:100:D5S_s.wav
83,192,171454,1,0,0:0:0:100:B4S_s.wav
10,192,171636,1,0,0:0:0:100:A3S_s.wav
229,192,171636,1,0,0:0:0:100:A4S.wav
302,192,171636,1,0,0:0:0:100:E5S.wav
448,192,171636,1,0,0:0:0:100:A5S.wav
156,192,171818,1,0,0:0:0:100:A3S_s.wav
375,192,172000,1,0,0:0:0:100:A3S_s.wav
83,192,172273,1,0,0:0:0:100:G3S_s.wav
10,192,172363,1,0,0:0:0:100:G4S.wav
302,192,172363,1,0,0:0:0:100:D5S.wav
448,192,172363,1,0,0:0:0:100:G5S.wav
229,192,172545,1,0,0:0:0:100:G3S_s.wav
156,192,172727,1,0,0:0:0:100:G3S_s.wav
375,192,172909,1,0,0:0:0:100:G3S_s.wav
83,192,173091,1,0,0:0:0:100:F3S_s.wav
448,192,173091,1,0,0:0:0:100:F5S.wav
10,192,173273,1,0,0:0:0:100:F3S_s.wav
302,192,173454,1,0,0:0:0:100:F3S_s.wav
229,192,173727,1,0,0:0:0:100:G3S_s.wav
156,192,173818,1,0,0:0:0:100:G5S.wav
375,192,174000,1,0,0:0:0:100:G3S_s.wav
83,192,174182,1,0,0:0:0:100:G3S_s.wav
448,192,174363,1,0,0:0:0:100:G3S_s.wav
10,192,174545,1,0,0:0:0:100:A3S_s.wav
302,192,174545,1,0,0:0:0:100:A5S.wav
229,192,174727,1,0,0:0:0:100:A3S_s.wav
156,192,174909,1,0,0:0:0:100:A3S_s.wav
375,192,175182,1,0,0:0:0:100:G3S_s.wav
83,192,175363,1,0,0:0:0:100:E5S_s.wav
10,192,175454,1,0,0:0:0:100:G3S_s.wav
448,192,175454,1,0,0:0:0:100:A5S_s.wav
302,192,175545,1,0,0:0:0:100:B5S_s.wav
156,192,175636,1,0,0:0:0:100:G3S_s.wav
229,192,175636,1,0,0:0:0:100:C6S_s.wav
375,192,175727,1,0,0:0:0:100:B5S_s.wav
83,192,175818,1,0,0:0:0:100:G3S_s.wav
448,192,175818,1,0,0:0:0:100:A5S_s.wav
10,192,175909,1,0,0:0:0:100:G5S_s.wav
229,192,176000,1,0,0:0:0:100:F3S_s.wav
302,192,176000,1,0,0:0:0:100:F5S.wav
156,192,176182,1,0,0:0:0:100:F3S_s.wav
375,192,176363,1,0,0:0:0:100:F3S_s.wav
83,192,176636,1,0,0:0:0:100:E3S_s.wav
448,192,176636,1,0,0:0:0:100:E5S_s.wav
10,192,177818,1,0,0:0:0:100:A3S_s.wav
156,192,177818,1,0,0:0:0:100:A4S_s.wav
229,192,177818,1,0,0:0:0:100:A4S_s.wav
302,192,177818,1,0,0:0:0:100:E5S_s.wav
10,192,178091,1,0,0:0:0:100:A3S_s.wav
83,192,178091,1,0,0:0:0:100:A4S_s.wav
375,192,178091,1,0,0:0:0:100:A4S_s.wav
448,192,178091,1,0,0:0:0:100:E5S_s.wav
