osu file format v14

[General]
AudioFilename: audio.mp3
AudioLeadIn: 0
PreviewTime: -1
Countdown: 1
SampleSet: Normal
StackLeniency: 0.7
Mode: 1
LetterboxInBreaks: 0
WidescreenStoryboard: 1

[Editor]
DistanceSpacing: 1.5
BeatDivisor: 4
GridSize: 8
TimelineZoom: 1.8

[Metadata]
Title:Ice Path
TitleUnicode:Ice Path
Artist:Junichi Masuda
ArtistUnicode:Junichi Masuda
Creator:Brames
Version:Muzukashii
Source:Pokémon HeartGold & Pokémon SoulSilver
Tags:Dark Cave
BeatmapID:1359530
BeatmapSetID:641079

[Difficulty]
HPDrainRate:5
CircleSize:5
OverallDifficulty:4
ApproachRate:5
SliderMultiplier:1.4
SliderTickRate:1

[Events]
//Background and Video events
0,0,"darkcave.png",0,0
//Break Periods
//Storyboard Layer 0 (Background)
//Storyboard Layer 1 (Fail)
//Storyboard Layer 2 (Pass)
//Storyboard Layer 3 (Foreground)
//Storyboard Sound Samples

[TimingPoints]
200,375.105498421431,4,1,0,75,1,0
30302,-90.9090909090909,4,1,0,75,0,1
39208,-105.263157894737,4,1,0,75,0,0
42211,-100,4,1,0,75,0,0

[HitObjects]
255,193,200,5,0,0:0:0:0:
255,193,575,1,8,0:0:0:0:
255,193,762,1,0,0:0:0:0:
255,193,1137,1,8,0:0:0:0:
255,193,1325,1,8,0:0:0:0:
255,193,1700,1,0,0:0:0:0:
255,193,2075,1,0,0:0:0:0:
255,193,2450,1,0,0:0:0:0:
255,193,2825,1,8,0:0:0:0:
255,193,3200,1,0,0:0:0:0:
255,193,3575,1,8,0:0:0:0:
255,193,3762,1,0,0:0:0:0:
255,193,4138,1,8,0:0:0:0:
255,193,4325,1,0,0:0:0:0:
255,193,4700,1,8,0:0:0:0:
255,193,5075,1,0,0:0:0:0:
255,193,5450,1,8,0:0:0:0:
255,193,5825,1,8,0:0:0:0:
255,193,6201,1,0,0:0:0:0:
255,193,6576,1,8,0:0:0:0:
255,193,6763,1,0,0:0:0:0:
255,193,7138,1,8,0:0:0:0:
255,193,7326,1,8,0:0:0:0:
255,193,7702,1,0,0:0:0:0:
255,193,8076,1,0,0:0:0:0:
255,193,8451,1,0,0:0:0:0:
255,193,8826,1,8,0:0:0:0:
255,193,9202,5,0,0:0:0:0:
255,193,9577,1,8,0:0:0:0:
255,193,9764,1,0,0:0:0:0:
255,193,10139,1,8,0:0:0:0:
255,193,10327,1,0,0:0:0:0:
255,193,10702,1,8,0:0:0:0:
255,193,11077,1,0,0:0:0:0:
255,193,11452,1,8,0:0:0:0:
255,193,11827,1,8,0:0:0:0:
255,193,12203,1,8,0:0:0:0:
255,193,12390,1,0,0:0:0:0:
255,193,12578,1,0,0:0:0:0:
255,193,12766,1,8,0:0:0:0:
255,193,13141,1,0,0:0:0:0:
255,193,13328,1,8,0:0:0:0:
255,193,13703,1,8,0:0:0:0:
255,193,14078,1,0,0:0:0:0:
255,193,14266,1,8,0:0:0:0:
255,193,14641,1,0,0:0:0:0:
255,193,14828,1,8,0:0:0:0:
255,193,15204,1,8,0:0:0:0:
255,193,15391,1,0,0:0:0:0:
255,193,15579,1,8,0:0:0:0:
255,193,15767,1,8,0:0:0:0:
255,193,16142,1,0,0:0:0:0:
255,193,16329,1,8,0:0:0:0:
255,193,16704,1,8,0:0:0:0:
255,193,16892,1,0,0:0:0:0:
255,193,17079,1,8,0:0:0:0:
255,193,17267,1,8,0:0:0:0:
255,193,17642,1,0,0:0:0:0:
255,193,17829,1,8,0:0:0:0:
255,193,18205,1,8,0:0:0:0:
255,193,18392,1,0,0:0:0:0:
255,193,18580,1,0,0:0:0:0:
255,193,18768,1,8,0:0:0:0:
255,193,18955,1,0,0:0:0:0:
255,193,19142,1,0,0:0:0:0:
255,193,19330,1,8,0:0:0:0:
255,193,19705,1,8,0:0:0:0:
255,193,19892,1,0,0:0:0:0:
255,193,20080,1,0,0:0:0:0:
255,193,20268,1,8,0:0:0:0:
255,193,20643,1,0,0:0:0:0:
255,193,20830,1,8,0:0:0:0:
255,193,21205,1,8,0:0:0:0:
255,193,21392,1,0,0:0:0:0:
255,193,21580,1,8,0:0:0:0:
255,193,21768,1,8,0:0:0:0:
255,193,21955,1,0,0:0:0:0:
255,193,22143,1,8,0:0:0:0:
255,193,22330,1,8,0:0:0:0:
255,193,22706,1,8,0:0:0:0:
255,193,22893,1,0,0:0:0:0:
255,193,23081,1,8,0:0:0:0:
255,193,23269,1,8,0:0:0:0:
255,193,23644,1,0,0:0:0:0:
255,193,23831,1,8,0:0:0:0:
255,193,24019,1,0,0:0:0:0:
255,193,24206,1,8,0:0:0:0:
255,193,24393,1,0,0:0:0:0:
255,193,24581,1,0,0:0:0:0:
255,193,24769,1,8,0:0:0:0:
255,193,24956,1,0,0:0:0:0:
255,193,25144,1,0,0:0:0:0:
255,193,25331,1,8,0:0:0:0:
255,193,25707,1,8,0:0:0:0:
255,193,25894,1,0,0:0:0:0:
255,193,26082,1,8,0:0:0:0:
255,193,26270,1,8,0:0:0:0:
255,193,26457,1,0,0:0:0:0:
255,193,26645,1,8,0:0:0:0:
255,193,26832,1,8,0:0:0:0:
255,193,27207,1,8,0:0:0:0:
255,193,27395,1,0,0:0:0:0:
255,193,27582,1,8,0:0:0:0:
255,193,27770,1,8,0:0:0:0:
255,193,27957,1,0,0:0:0:0:
255,193,28145,1,8,0:0:0:0:
255,193,28332,1,8,0:0:0:0:
255,193,28708,1,8,0:0:0:0:
255,193,28895,1,0,0:0:0:0:
255,193,29083,1,8,0:0:0:0:
255,193,29271,1,8,0:0:0:0:
255,193,29458,1,0,0:0:0:0:
255,193,29646,1,8,0:0:0:0:
255,193,29833,1,8,0:0:0:0:
255,193,30021,1,8,0:0:0:0:
255,193,30114,1,8,0:0:0:0:
255,193,30208,1,8,0:0:0:0:
255,193,30583,1,8,0:0:0:0:
255,193,30771,1,0,0:0:0:0:
255,193,30958,1,8,0:0:0:0:
255,193,31333,1,8,0:0:0:0:
255,193,31521,1,0,0:0:0:0:
255,193,31708,1,8,0:0:0:0:
255,193,31896,1,0,0:0:0:0:
255,193,32083,1,0,0:0:0:0:
255,193,32271,1,8,0:0:0:0:
255,193,32459,1,8,0:0:0:0:
255,193,32834,1,8,0:0:0:0:
255,193,33021,1,0,0:0:0:0:
255,193,33209,1,8,0:0:0:0:
255,193,33584,1,8,0:0:0:0:
255,193,33771,1,8,0:0:0:0:
255,193,33959,1,0,0:0:0:0:
255,193,34334,1,8,0:0:0:0:
255,193,34709,1,8,0:0:0:0:
255,193,34897,1,0,0:0:0:0:
255,193,35084,1,0,0:0:0:0:
255,193,35272,1,0,0:0:0:0:
255,193,35459,1,8,0:0:0:0:
248,200,35835,1,0,0:0:0:0:
248,200,35928,1,0,0:0:0:0:
255,193,36022,1,0,0:0:0:0:
255,193,36210,1,8,0:0:0:0:
256,192,36585,1,8,0:0:0:0:
256,192,36772,1,0,0:0:0:0:
256,192,36960,1,8,0:0:0:0:
256,192,37335,1,8,0:0:0:0:
256,192,37522,1,0,0:0:0:0:
256,192,37710,1,8,0:0:0:0:
256,192,37898,1,0,0:0:0:0:
256,192,38085,1,0,0:0:0:0:
256,192,38273,1,8,0:0:0:0:
256,192,38460,1,8,0:0:0:0:
256,192,38835,1,8,0:0:0:0:
256,192,39023,1,0,0:0:0:0:
256,192,39210,1,12,0:0:0:0:
256,192,39586,1,0,0:0:0:0:
256,192,39773,1,8,0:0:0:0:
256,192,39961,1,0,0:0:0:0:
256,192,40148,1,8,0:0:0:0:
256,192,40336,1,0,0:0:0:0:
256,192,40523,1,8,0:0:0:0:
256,192,40711,1,0,0:0:0:0:
256,192,40898,12,0,42024,0:0:0:0:
255,193,42211,5,8,0:0:0:0:
255,193,42398,1,0,0:0:0:0:
255,193,42586,1,0,0:0:0:0:
255,193,42774,1,8,0:0:0:0:
255,193,42961,1,0,0:0:0:0:
255,193,43149,1,0,0:0:0:0:
255,193,43336,1,8,0:0:0:0:
255,193,43712,1,8,0:0:0:0:
255,193,43899,1,0,0:0:0:0:
255,193,44087,1,8,0:0:0:0:
255,193,44275,1,8,0:0:0:0:
255,193,44462,1,0,0:0:0:0:
255,193,44650,1,8,0:0:0:0:
255,193,44837,1,8,0:0:0:0:
255,193,45212,1,8,0:0:0:0:
255,193,45400,1,0,0:0:0:0:
255,193,45493,1,0,0:0:0:0:
255,193,45587,1,0,0:0:0:0:
255,193,45775,1,8,0:0:0:0:
255,193,45962,1,0,0:0:0:0:
255,193,46150,1,8,0:0:0:0:
255,193,46337,1,8,0:0:0:0:
255,193,46713,1,8,0:0:0:0:
255,193,46900,1,0,0:0:0:0:
255,193,47088,1,8,0:0:0:0:
255,193,47276,1,8,0:0:0:0:
255,193,47463,1,0,0:0:0:0:
255,193,47651,1,8,0:0:0:0:
255,193,47838,1,8,0:0:0:0:
255,193,48026,1,8,0:0:0:0:
255,193,48119,1,8,0:0:0:0:
255,193,48213,1,8,0:0:0:0:
255,193,48400,1,0,0:0:0:0:
255,193,48588,1,0,0:0:0:0:
255,193,48776,1,8,0:0:0:0:
255,193,48963,1,0,0:0:0:0:
255,193,49151,1,0,0:0:0:0:
255,193,49338,1,8,0:0:0:0:
255,193,49526,1,0,0:0:0:0:
255,193,49714,1,8,0:0:0:0:
255,193,49901,1,0,0:0:0:0:
255,193,50089,1,8,0:0:0:0:
255,193,50277,1,8,0:0:0:0:
255,193,50464,1,0,0:0:0:0:
255,193,50652,1,8,0:0:0:0:
255,193,50745,1,8,0:0:0:0:
255,193,50839,1,8,0:0:0:0:
255,193,51214,1,8,0:0:0:0:
255,193,51402,1,0,0:0:0:0:
255,193,51495,1,0,0:0:0:0:
255,193,51589,1,0,0:0:0:0:
255,193,51777,1,8,0:0:0:0:
255,193,51964,1,0,0:0:0:0:
255,193,52152,1,8,0:0:0:0:
255,193,52339,1,8,0:0:0:0:
255,193,52527,1,0,0:0:0:0:
255,193,52715,1,8,0:0:0:0:
255,193,52902,1,0,0:0:0:0:
255,193,53090,1,8,0:0:0:0:
255,193,53278,1,8,0:0:0:0:
255,193,53465,1,0,0:0:0:0:
255,193,53653,1,8,0:0:0:0:
255,193,53840,1,8,0:0:0:0:
255,193,54027,1,8,0:0:0:0:
255,193,54121,1,8,0:0:0:0:
255,193,54215,1,0,0:0:0:0:
255,193,54590,1,8,0:0:0:0:
255,193,54777,1,0,0:0:0:0:
255,193,55152,1,8,0:0:0:0:
255,193,55340,1,8,0:0:0:0:
255,193,55715,1,0,0:0:0:0:
255,193,56090,1,0,0:0:0:0:
255,193,56465,1,8,0:0:0:0:
255,193,56653,1,8,0:0:0:0:
255,193,56840,1,8,0:0:0:0:
255,193,57216,1,0,0:0:0:0:
256,192,57591,1,8,0:0:0:0:
255,193,57778,1,0,0:0:0:0:
255,193,58153,1,8,0:0:0:0:
256,192,58341,1,0,0:0:0:0:
255,193,58716,1,8,0:0:0:0:
255,193,59091,1,0,0:0:0:0:
255,193,59466,1,8,0:0:0:0:
255,193,59654,1,8,0:0:0:0:
255,193,59841,1,8,0:0:0:0:
256,192,60216,1,0,0:0:0:0:
255,193,60591,1,8,0:0:0:0:
255,193,60779,1,0,0:0:0:0:
256,192,61154,1,8,0:0:0:0:
255,193,61342,1,0,0:0:0:0:
255,193,61717,1,0,0:0:0:0:
256,192,62092,1,0,0:0:0:0:
255,193,62467,1,0,0:0:0:0:
255,193,62655,1,8,0:0:0:0:
256,192,62842,1,8,0:0:0:0:
255,193,63217,1,0,0:0:0:0:
255,193,63592,1,8,0:0:0:0:
256,192,63780,1,0,0:0:0:0:
255,193,64155,1,8,0:0:0:0:
255,193,64343,1,0,0:0:0:0:
256,192,64718,1,8,0:0:0:0:
255,193,65093,1,0,0:0:0:0:
256,192,65468,1,8,0:0:0:0:
256,192,65655,1,8,0:0:0:0:
256,192,65749,1,8,0:0:0:0:
255,193,65843,1,8,0:0:0:0:
255,193,66031,1,8,0:0:0:0:
255,193,66218,1,8,0:0:0:0:
255,193,66405,1,0,0:0:0:0:
255,193,66593,1,0,0:0:0:0:
255,193,66781,1,8,0:0:0:0:
255,193,66968,1,0,0:0:0:0:
255,193,67156,1,0,0:0:0:0:
255,193,67343,1,8,0:0:0:0:
255,193,67531,1,0,0:0:0:0:
255,193,67719,1,8,0:0:0:0:
255,193,67906,1,0,0:0:0:0:
255,193,68094,1,8,0:0:0:0:
255,193,68282,1,8,0:0:0:0:
255,193,68469,1,0,0:0:0:0:
255,193,68657,1,8,0:0:0:0:
255,193,68844,1,8,0:0:0:0:
255,193,69031,1,0,0:0:0:0:
255,193,69219,1,8,0:0:0:0:
255,193,69407,1,0,0:0:0:0:
255,193,69594,1,8,0:0:0:0:
255,193,69782,1,8,0:0:0:0:
255,193,69969,1,0,0:0:0:0:
255,193,70157,1,8,0:0:0:0:
255,193,70344,1,8,0:0:0:0:
255,193,70532,1,0,0:0:0:0:
255,193,70720,1,8,0:0:0:0:
255,193,70907,1,0,0:0:0:0:
255,193,71095,1,8,0:0:0:0:
255,193,71283,1,8,0:0:0:0:
255,193,71470,1,0,0:0:0:0:
255,193,71720,1,8,0:0:0:0:
255,193,71970,1,8,0:0:0:0:
255,193,72220,1,12,0:0:0:0:
255,193,72595,1,0,0:0:0:0:
255,193,72782,1,8,0:0:0:0:
264,192,73158,1,0,0:0:0:0:
264,192,73345,1,8,0:0:0:0:
264,192,73533,1,0,0:0:0:0:
256,192,73720,1,12,0:0:0:0:
256,192,74095,1,0,0:0:0:0:
256,192,74283,1,8,0:0:0:0:
256,192,74658,1,0,0:0:0:0:
256,192,74845,1,8,0:0:0:0:
256,192,75033,1,0,0:0:0:0:
256,192,75221,1,12,0:0:0:0:
256,192,75596,1,0,0:0:0:0:
256,192,75783,1,8,0:0:0:0:
256,192,76158,1,0,0:0:0:0:
256,192,76346,1,8,0:0:0:0:
256,192,76533,1,0,0:0:0:0:
256,192,76721,1,12,0:0:0:0:
256,192,76909,1,0,0:0:0:0:
256,192,77096,1,8,0:0:0:0:
248,192,77284,1,8,0:0:0:0:
248,192,77471,1,0,0:0:0:0:
248,192,77659,1,0,0:0:0:0:
248,192,77846,1,8,0:0:0:0:
248,192,78034,1,8,0:0:0:0:
248,192,78128,1,8,0:0:0:0:
255,193,78221,1,8,0:0:0:0:
255,193,78408,1,0,0:0:0:0:
255,193,78596,1,0,0:0:0:0:
255,193,78784,1,8,0:0:0:0:
255,193,78971,1,0,0:0:0:0:
255,193,79159,1,0,0:0:0:0:
255,193,79346,1,8,0:0:0:0:
255,193,79534,1,0,0:0:0:0:
255,193,79722,1,8,0:0:0:0:
255,193,79909,1,0,0:0:0:0:
255,193,80097,1,8,0:0:0:0:
255,193,80285,1,8,0:0:0:0:
255,193,80472,1,0,0:0:0:0:
255,193,80660,1,8,0:0:0:0:
255,193,80847,1,8,0:0:0:0:
255,193,81222,1,8,0:0:0:0:
255,193,81410,1,0,0:0:0:0:
255,193,81504,1,0,0:0:0:0:
255,193,81597,1,0,0:0:0:0:
255,193,81785,1,8,0:0:0:0:
255,193,81972,1,0,0:0:0:0:
255,193,82160,1,8,0:0:0:0:
255,193,82347,1,8,0:0:0:0:
255,193,82723,1,8,0:0:0:0:
255,193,82910,1,0,0:0:0:0:
255,193,83004,1,0,0:0:0:0:
255,193,83098,1,0,0:0:0:0:
255,193,83286,1,8,0:0:0:0:
255,193,83473,1,0,0:0:0:0:
255,193,83661,1,8,0:0:0:0:
255,193,83848,1,8,0:0:0:0:
255,193,84036,1,8,0:0:0:0:
255,193,84129,1,8,0:0:0:0:
255,193,84223,1,8,0:0:0:0:
255,193,84410,1,0,0:0:0:0:
255,193,84598,1,0,0:0:0:0:
255,193,84786,1,8,0:0:0:0:
255,193,84973,1,0,0:0:0:0:
255,193,85161,1,0,0:0:0:0:
255,193,85348,1,8,0:0:0:0:
255,193,85536,1,0,0:0:0:0:
255,193,85724,1,8,0:0:0:0:
255,193,85911,1,0,0:0:0:0:
255,193,86005,1,0,0:0:0:0:
255,193,86099,1,0,0:0:0:0:
255,193,86287,1,8,0:0:0:0:
255,193,86474,1,0,0:0:0:0:
255,193,86662,1,8,0:0:0:0:
255,193,86849,1,8,0:0:0:0:
255,193,87036,1,0,0:0:0:0:
255,193,87224,1,8,0:0:0:0:
255,193,87412,1,8,0:0:0:0:
255,193,87505,1,8,0:0:0:0:
255,193,87599,1,8,0:0:0:0:
255,193,87787,1,8,0:0:0:0:
255,193,87974,1,0,0:0:0:0:
255,193,88162,1,8,0:0:0:0:
255,193,88349,1,8,0:0:0:0:
255,193,88537,1,0,0:0:0:0:
255,193,88725,1,8,0:0:0:0:
255,193,88912,1,0,0:0:0:0:
255,193,89100,1,8,0:0:0:0:
255,193,89193,1,8,0:0:0:0:
255,193,89288,1,8,0:0:0:0:
255,193,89475,1,0,0:0:0:0:
255,193,89568,1,0,0:0:0:0:
255,193,89662,1,0,0:0:0:0:
255,193,89850,1,8,0:0:0:0:
255,193,90038,1,8,0:0:0:0:
256,192,90225,12,0,95401,0:0:0:0:
