osu file format v14

[General]
AudioFilename: audio.mp3
AudioLeadIn: 0
PreviewTime: -1
Countdown: 0
SampleSet: None
StackLeniency: 0.7
Mode: 3
LetterboxInBreaks: 0
SpecialStyle: 0
WidescreenStoryboard: 0

[Editor]
DistanceSpacing: 1.2
BeatDivisor: 4
GridSize: 4
TimelineZoom: 1

[Metadata]
Title:Gold
TitleUnicode:黄金城
Artist:Junichi Masuda
ArtistUnicode:Junichi Masuda
Creator:pikechu
Version:Gold
Source:Pokemon
Tags:
BeatmapID:1577092
BeatmapSetID:748653

[Difficulty]
HPDrainRate:8
CircleSize:7
OverallDifficulty:8
ApproachRate:5
SliderMultiplier:1.4
SliderTickRate:1

[Events]
//Background and Video events
0,0,"background.jpg",0,0
//Break Periods
//Storyboard Layer 0 (Background)
//Storyboard Layer 1 (Fail)
//Storyboard Layer 2 (Pass)
//Storyboard Layer 3 (Foreground)
//Storyboard Sound Samples

[TimingPoints]
0,571.428,4,1,1,100,1,0

[HitObjects]
10,192,0,5,0,0:0:0:62:C#4S_Db4S.wav
302,192,0,1,0,0:0:0:62:C#6S_Db6S_s.wav
375,192,0,1,0,0:0:0:62:F6S.wav
156,192,571,1,0,0:0:0:62:A#5S_Bb5S_s.wav
448,192,571,1,0,0:0:0:62:C#6S_Db6S.wav
83,192,857,1,0,0:0:0:62:C#4S_Db4S_s.wav
10,192,1143,1,0,0:0:0:62:C4S.wav
229,192,1143,1,0,0:0:0:62:C6S_s.wav
375,192,1143,1,0,0:0:0:62:D#6S_Eb6S.wav
156,192,1714,1,0,0:0:0:62:G#5S_Ab5S_s.wav
302,192,1714,1,0,0:0:0:62:C6S.wav
448,192,2000,1,0,0:0:0:62:C4S_s.wav
83,192,2286,1,0,0:0:0:62:A#3S_Bb3S.wav
375,192,2286,1,0,0:0:0:62:C#6S_Db6S_s.wav
10,192,2571,1,0,0:0:0:62:C6S_s.wav
229,192,2857,1,0,0:0:0:62:A#5S_Bb5S_s.wav
156,192,3143,1,0,0:0:0:62:A#3S_Bb3S_s.wav
302,192,3143,1,0,0:0:0:62:C6S_s.wav
83,192,3429,1,0,0:0:0:62:G#3S_Ab3S.wav
375,192,3429,1,0,0:0:0:62:D#5S_Eb5S.wav
448,192,3429,1,0,0:0:0:62:G#5S_Ab5S.wav
10,192,4571,1,0,0:0:0:62:F#3S_Gb3S.wav
229,192,4571,1,0,0:0:0:62:A#5S_Bb5S.wav
156,192,5143,1,0,0:0:0:62:A#5S_Bb5S_s.wav
302,192,5143,1,0,0:0:0:62:C#6S_Db6S.wav
83,192,5429,1,0,0:0:0:62:F#3S_Gb3S_s.wav
375,192,5714,1,0,0:0:0:62:D#4S_Eb4S.wav
448,192,5714,1,0,0:0:0:62:A#5S_Bb5S_s.wav
229,192,6000,1,0,0:0:0:62:A#6S_Bb6S_s.wav
10,192,6286,1,0,0:0:0:62:G#6S_Ab6S_s.wav
156,192,6571,1,0,0:0:0:62:D#4S_Eb4S_s.wav
302,192,6571,1,0,0:0:0:62:F#6S_Gb6S_s.wav
83,192,6857,1,0,0:0:0:62:G#4S_Ab4S.wav
448,192,6857,1,0,0:0:0:62:F6S_s.wav
375,192,7143,1,0,0:0:0:62:F#6S_Gb6S_s.wav
229,192,7429,1,0,0:0:0:62:G#6S_Ab6S_s.wav
10,192,7714,1,0,0:0:0:62:G#4S_Ab4S_s.wav
302,192,7714,1,0,0:0:0:62:F6S_s.wav
83,192,8000,1,0,0:0:0:62:G#3S_Ab3S_s.wav
156,192,8000,1,0,0:0:0:62:D#5S_Eb5S.wav
448,192,8000,1,0,0:0:0:62:D#6S_Eb6S.wav
375,192,8286,1,0,0:0:0:62:G#3S_Ab3S.wav
229,192,8857,1,0,0:0:0:62:G#3S_Ab3S_s.wav
10,192,9143,1,0,0:0:0:62:C#4S_Db4S.wav
83,192,9143,1,0,0:0:0:62:C#6S_Db6S_s.wav
302,192,9143,1,0,0:0:0:62:F6S.wav
156,192,9714,1,0,0:0:0:62:A#5S_Bb5S_s.wav
448,192,9714,1,0,0:0:0:62:C#6S_Db6S.wav
375,192,10000,1,0,0:0:0:62:C#4S_Db4S_s.wav
83,192,10286,1,0,0:0:0:62:C4S.wav
229,192,10286,1,0,0:0:0:62:C6S_s.wav
302,192,10286,1,0,0:0:0:62:D#6S_Eb6S.wav
10,192,10857,1,0,0:0:0:62:G#5S_Ab5S_s.wav
448,192,10857,1,0,0:0:0:62:C6S.wav
156,192,11143,1,0,0:0:0:62:C4S_s.wav
83,192,11429,1,0,0:0:0:62:A#3S_Bb3S.wav
375,192,11429,1,0,0:0:0:62:C#6S_Db6S_s.wav
229,192,11714,1,0,0:0:0:62:C6S_s.wav
302,192,12000,1,0,0:0:0:62:A#5S_Bb5S_s.wav
10,192,12286,1,0,0:0:0:62:A#3S_Bb3S_s.wav
448,192,12286,1,0,0:0:0:62:C6S_s.wav
83,192,12571,1,0,0:0:0:62:G#3S_Ab3S.wav
156,192,12571,1,0,0:0:0:62:D#5S_Eb5S.wav
375,192,12571,1,0,0:0:0:62:G#5S_Ab5S.wav
229,192,13429,1,0,0:0:0:62:D#5S_Eb5S_s.wav
302,192,13429,1,0,0:0:0:62:G5S_s.wav
10,192,13571,1,0,0:0:0:62:G#5S_Ab5S_s.wav
156,192,13714,1,0,0:0:0:62:F#3S_Gb3S.wav
448,192,13714,1,0,0:0:0:62:A#5S_Bb5S.wav
83,192,14286,1,0,0:0:0:62:A#5S_Bb5S.wav
375,192,14286,1,0,0:0:0:62:C#6S_Db6S.wav
302,192,14571,1,0,0:0:0:62:F#3S_Gb3S_s.wav
10,192,14857,1,0,0:0:0:62:D#4S_Eb4S.wav
229,192,14857,1,0,0:0:0:62:A#5S_Bb5S_s.wav
448,192,15143,1,0,0:0:0:62:A#6S_Bb6S_s.wav
156,192,15429,1,0,0:0:0:62:F6S.wav
375,192,15429,1,0,0:0:0:62:G#6S_Ab6S.wav
83,192,15714,1,0,0:0:0:62:D#4S_Eb4S_s.wav
229,192,16000,1,0,0:0:0:62:G#4S_Ab4S.wav
302,192,16000,1,0,0:0:0:62:G#6S_Ab6S_s.wav
10,192,16286,1,0,0:0:0:62:A#6S_Bb6S_s.wav
448,192,16571,1,0,0:0:0:62:C7S_s.wav
156,192,16857,1,0,0:0:0:62:G#4S_Ab4S_s.wav
375,192,16857,1,0,0:0:0:62:C#7S_Db7S_s.wav
83,192,17143,1,0,0:0:0:62:G#4S_Ab4S_s.wav
229,192,17143,1,0,0:0:0:62:D#6S_Eb6S_s.wav
302,192,17143,1,0,0:0:0:62:D#7S_Eb7S_s.wav
10,192,17286,1,0,0:0:0:62:C5S_s.wav
448,192,17429,1,0,0:0:0:62:D#5S_Eb5S_s.wav
156,192,17571,1,0,0:0:0:62:F#5S_Gb5S_s.wav
375,192,17714,1,0,0:0:0:62:D#5S_Eb5S_s.wav
83,192,17857,1,0,0:0:0:62:G#5S_Ab5S_s.wav
229,192,18000,1,0,0:0:0:62:C6S_s.wav
302,192,18143,1,0,0:0:0:62:D#6S_Eb6S_s.wav
10,192,18286,1,0,0:0:0:62:C#4S_Db4S_s.wav
448,192,18286,1,0,0:0:0:62:C#6S_Db6S.wav
156,192,18571,1,0,0:0:0:62:C#4S_Db4S_s.wav
375,192,18714,1,0,0:0:0:62:C#4S_Db4S.wav
83,192,19143,1,0,0:0:0:62:C#6S_Db6S.wav
229,192,19143,1,0,0:0:0:62:F6S.wav
10,192,20000,1,0,0:0:0:62:C#4S_Db4S_s.wav
302,192,20000,1,0,0:0:0:62:C#6S_Db6S_s.wav
156,192,20571,1,0,0:0:0:62:C4S_s.wav
448,192,20571,1,0,0:0:0:62:C6S.wav
375,192,20857,1,0,0:0:0:62:C4S_s.wav
229,192,21000,1,0,0:0:0:62:C4S.wav
83,192,21429,1,0,0:0:0:62:C6S.wav
302,192,21429,1,0,0:0:0:62:D#6S_Eb6S.wav
10,192,22286,1,0,0:0:0:62:C4S_s.wav
448,192,22286,1,0,0:0:0:62:C6S_s.wav
156,192,22857,1,0,0:0:0:62:A#3S_Bb3S_s.wav
375,192,22857,1,0,0:0:0:62:A#5S_Bb5S.wav
229,192,23143,1,0,0:0:0:62:A#3S_Bb3S_s.wav
302,192,23286,1,0,0:0:0:62:A#3S_Bb3S.wav
83,192,23714,1,0,0:0:0:62:A#5S_Bb5S.wav
448,192,23714,1,0,0:0:0:62:C#6S_Db6S.wav
10,192,24571,1,0,0:0:0:62:A#3S_Bb3S_s.wav
375,192,24571,1,0,0:0:0:62:A#5S_Bb5S_s.wav
156,192,25143,1,0,0:0:0:62:G#3S_Ab3S_s.wav
229,192,25143,1,0,0:0:0:62:G#5S_Ab5S_s.wav
302,192,25143,1,0,0:0:0:62:C6S_s.wav
83,192,25429,1,0,0:0:0:62:G#3S_Ab3S_s.wav
448,192,25571,1,0,0:0:0:62:G#3S_Ab3S.wav
10,192,25714,1,0,0:0:0:62:D#6S_Eb6S_s.wav
375,192,26000,1,0,0:0:0:62:G#5S_Ab5S_s.wav
156,192,26286,1,0,0:0:0:62:A#5S_Bb5S_s.wav
229,192,26571,1,0,0:0:0:62:B5S_s.wav
83,192,26857,1,0,0:0:0:62:G#3S_Ab3S_s.wav
302,192,26857,1,0,0:0:0:62:C5S_s.wav
448,192,26857,1,0,0:0:0:62:C6S_s.wav
10,192,27429,1,0,0:0:0:62:C#4S_Db4S_s.wav
375,192,27429,1,0,0:0:0:62:C#6S_Db6S.wav
156,192,27714,1,0,0:0:0:62:C#4S_Db4S_s.wav
229,192,27857,1,0,0:0:0:62:C#4S_Db4S.wav
83,192,28286,1,0,0:0:0:62:C#6S_Db6S.wav
302,192,28286,1,0,0:0:0:62:F6S.wav
10,192,29143,1,0,0:0:0:62:C#4S_Db4S_s.wav
448,192,29143,1,0,0:0:0:62:C#6S_Db6S_s.wav
156,192,29714,1,0,0:0:0:62:C4S_s.wav
375,192,29714,1,0,0:0:0:62:C6S.wav
229,192,30000,1,0,0:0:0:62:C4S_s.wav
83,192,30143,1,0,0:0:0:62:C4S.wav
10,192,30571,1,0,0:0:0:62:C6S.wav
302,192,30571,1,0,0:0:0:62:D#6S_Eb6S.wav
156,192,31429,1,0,0:0:0:62:C4S_s.wav
448,192,31429,1,0,0:0:0:62:C6S_s.wav
229,192,32000,1,0,0:0:0:62:A#3S_Bb3S_s.wav
375,192,32000,1,0,0:0:0:62:A#5S_Bb5S.wav
83,192,32286,1,0,0:0:0:62:A#3S_Bb3S_s.wav
302,192,32429,1,0,0:0:0:62:A#3S_Bb3S.wav
10,192,32857,1,0,0:0:0:62:A#5S_Bb5S.wav
448,192,32857,1,0,0:0:0:62:C#6S_Db6S.wav
156,192,33714,1,0,0:0:0:62:A#3S_Bb3S_s.wav
375,192,33714,1,0,0:0:0:62:A#5S_Bb5S_s.wav
83,192,34286,1,0,0:0:0:62:G#3S_Ab3S_s.wav
229,192,34286,1,0,0:0:0:62:G#5S_Ab5S_s.wav
302,192,34286,1,0,0:0:0:62:C6S_s.wav
10,192,34571,1,0,0:0:0:62:G#3S_Ab3S_s.wav
448,192,34714,1,0,0:0:0:62:G#3S_Ab3S.wav
156,192,34857,1,0,0:0:0:62:D#6S_Eb6S_s.wav
375,192,35143,1,0,0:0:0:62:F6S_s.wav
83,192,35429,1,0,0:0:0:62:D#6S_Eb6S_s.wav
302,192,35714,1,0,0:0:0:62:C#6S_Db6S_s.wav
10,192,36000,1,0,0:0:0:62:G#3S_Ab3S_s.wav
229,192,36000,1,0,0:0:0:62:G#4S_Ab4S_s.wav
448,192,36000,1,0,0:0:0:62:C6S_s.wav
156,192,36286,1,0,0:0:0:62:G#5S_Ab5S_s.wav
83,192,36571,1,0,0:0:0:62:C#4S_Db4S.wav
302,192,36571,1,0,0:0:0:62:C#6S_Db6S_s.wav
375,192,36571,1,0,0:0:0:62:F6S.wav
10,192,37143,1,0,0:0:0:62:A#5S_Bb5S_s.wav
229,192,37143,1,0,0:0:0:62:C#6S_Db6S.wav
448,192,37429,1,0,0:0:0:62:C#4S_Db4S_s.wav
83,192,37714,1,0,0:0:0:62:C4S.wav
156,192,37714,1,0,0:0:0:62:C6S_s.wav
375,192,37714,1,0,0:0:0:62:D#6S_Eb6S.wav
229,192,38286,1,0,0:0:0:62:G#5S_Ab5S_s.wav
302,192,38286,1,0,0:0:0:62:C6S.wav
10,192,38571,1,0,0:0:0:62:C4S_s.wav
156,192,38857,1,0,0:0:0:62:A#3S_Bb3S.wav
448,192,38857,1,0,0:0:0:62:C#6S_Db6S_s.wav
375,192,39143,1,0,0:0:0:62:C6S_s.wav
83,192,39429,1,0,0:0:0:62:A#5S_Bb5S_s.wav
229,192,39714,1,0,0:0:0:62:A#3S_Bb3S_s.wav
302,192,39714,1,0,0:0:0:62:C6S_s.wav
10,192,40000,1,0,0:0:0:62:G#3S_Ab3S.wav
156,192,40000,1,0,0:0:0:62:D#5S_Eb5S.wav
448,192,40000,1,0,0:0:0:62:G#5S_Ab5S.wav
83,192,41143,1,0,0:0:0:62:F#3S_Gb3S.wav
375,192,41143,1,0,0:0:0:62:A#5S_Bb5S.wav
229,192,41714,1,0,0:0:0:62:A#5S_Bb5S_s.wav
302,192,41714,1,0,0:0:0:62:C#6S_Db6S.wav
156,192,42000,1,0,0:0:0:62:F#3S_Gb3S_s.wav
10,192,42286,1,0,0:0:0:62:D#4S_Eb4S.wav
448,192,42286,1,0,0:0:0:62:A#5S_Bb5S_s.wav
375,192,42571,1,0,0:0:0:62:A#6S_Bb6S_s.wav
83,192,42857,1,0,0:0:0:62:G#6S_Ab6S_s.wav
229,192,43143,1,0,0:0:0:62:D#4S_Eb4S_s.wav
302,192,43143,1,0,0:0:0:62:F#6S_Gb6S_s.wav
156,192,43429,1,0,0:0:0:62:G#4S_Ab4S.wav
448,192,43429,1,0,0:0:0:62:F6S_s.wav
10,192,43714,1,0,0:0:0:62:F#6S_Gb6S_s.wav
375,192,44000,1,0,0:0:0:62:G#6S_Ab6S_s.wav
83,192,44286,1,0,0:0:0:62:G#4S_Ab4S_s.wav
302,192,44286,1,0,0:0:0:62:F6S_s.wav
156,192,44571,1,0,0:0:0:62:G#3S_Ab3S_s.wav
229,192,44571,1,0,0:0:0:62:D#5S_Eb5S.wav
448,192,44571,1,0,0:0:0:62:D#6S_Eb6S.wav
10,192,44857,1,0,0:0:0:62:G#3S_Ab3S.wav
375,192,45429,1,0,0:0:0:62:G#3S_Ab3S_s.wav
83,192,45714,1,0,0:0:0:62:C#4S_Db4S.wav
156,192,45714,1,0,0:0:0:62:C#6S_Db6S_s.wav
302,192,45714,1,0,0:0:0:62:F6S.wav
229,192,46286,1,0,0:0:0:62:A#5S_Bb5S_s.wav
448,192,46286,1,0,0:0:0:62:C#6S_Db6S.wav
10,192,46571,1,0,0:0:0:62:C#4S_Db4S_s.wav
156,192,46857,1,0,0:0:0:62:C4S.wav
302,192,46857,1,0,0:0:0:62:C6S_s.wav
375,192,46857,1,0,0:0:0:62:D#6S_Eb6S.wav
83,192,47429,1,0,0:0:0:62:G#5S_Ab5S_s.wav
229,192,47429,1,0,0:0:0:62:C6S.wav
448,192,47714,1,0,0:0:0:62:C4S_s.wav
10,192,48000,1,0,0:0:0:62:A#3S_Bb3S.wav
375,192,48000,1,0,0:0:0:62:C#6S_Db6S_s.wav
156,192,48286,1,0,0:0:0:62:C6S_s.wav
302,192,48571,1,0,0:0:0:62:A#5S_Bb5S_s.wav
83,192,48857,1,0,0:0:0:62:A#3S_Bb3S_s.wav
229,192,48857,1,0,0:0:0:62:C6S_s.wav
10,192,49143,1,0,0:0:0:62:G#3S_Ab3S.wav
375,192,49143,1,0,0:0:0:62:D#5S_Eb5S.wav
448,192,49143,1,0,0:0:0:62:G#5S_Ab5S.wav
156,192,50000,1,0,0:0:0:62:D#5S_Eb5S_s.wav
302,192,50000,1,0,0:0:0:62:G5S_s.wav
83,192,50143,1,0,0:0:0:62:G#5S_Ab5S_s.wav
229,192,50286,1,0,0:0:0:62:F#3S_Gb3S.wav
448,192,50286,1,0,0:0:0:62:A#5S_Bb5S.wav
10,192,50857,1,0,0:0:0:62:A#5S_Bb5S.wav
375,192,50857,1,0,0:0:0:62:C#6S_Db6S.wav
156,192,51143,1,0,0:0:0:62:F#3S_Gb3S_s.wav
83,192,51429,1,0,0:0:0:62:D#4S_Eb4S.wav
302,192,51429,1,0,0:0:0:62:A#5S_Bb5S_s.wav
229,192,51714,1,0,0:0:0:62:A#6S_Bb6S_s.wav
10,192,52000,1,0,0:0:0:62:F6S.wav
448,192,52000,1,0,0:0:0:62:G#6S_Ab6S.wav
375,192,52286,1,0,0:0:0:62:D#4S_Eb4S_s.wav
156,192,52571,1,0,0:0:0:62:G#4S_Ab4S.wav
302,192,52571,1,0,0:0:0:62:G#6S_Ab6S_s.wav
83,192,52857,1,0,0:0:0:62:A#6S_Bb6S_s.wav
229,192,53143,1,0,0:0:0:62:C7S_s.wav
10,192,53429,1,0,0:0:0:62:G#4S_Ab4S_s.wav
448,192,53429,1,0,0:0:0:62:C#7S_Db7S_s.wav
156,192,53714,1,0,0:0:0:62:G#4S_Ab4S_s.wav
302,192,53714,1,0,0:0:0:62:D#6S_Eb6S_s.wav
375,192,53714,1,0,0:0:0:62:D#7S_Eb7S_s.wav
83,192,53857,1,0,0:0:0:62:C5S_s.wav
229,192,54000,1,0,0:0:0:62:D#5S_Eb5S_s.wav
448,192,54143,1,0,0:0:0:62:F#5S_Gb5S_s.wav
10,192,54286,1,0,0:0:0:62:D#5S_Eb5S_s.wav
302,192,54429,1,0,0:0:0:62:G#5S_Ab5S_s.wav
156,192,54571,1,0,0:0:0:62:C6S_s.wav
375,192,54714,1,0,0:0:0:62:D#6S_Eb6S_s.wav
83,192,54857,1,0,0:0:0:62:C#4S_Db4S_s.wav
229,192,54857,1,0,0:0:0:62:C#6S_Db6S.wav
448,192,55143,1,0,0:0:0:62:C#4S_Db4S_s.wav
10,192,55286,1,0,0:0:0:62:C#4S_Db4S.wav
156,192,55714,1,0,0:0:0:62:C#6S_Db6S.wav
302,192,55714,1,0,0:0:0:62:F6S.wav
83,192,56571,1,0,0:0:0:62:C#4S_Db4S_s.wav
375,192,56571,1,0,0:0:0:62:C#6S_Db6S_s.wav
229,192,57143,1,0,0:0:0:62:C4S_s.wav
448,192,57143,1,0,0:0:0:62:C6S.wav
10,192,57429,1,0,0:0:0:62:C4S_s.wav
302,192,57571,1,0,0:0:0:62:C4S.wav
156,192,58000,1,0,0:0:0:62:C6S.wav
375,192,58000,1,0,0:0:0:62:D#6S_Eb6S.wav
83,192,58857,1,0,0:0:0:62:C4S_s.wav
448,192,58857,1,0,0:0:0:62:C6S_s.wav
10,192,59429,1,0,0:0:0:62:A#3S_Bb3S_s.wav
229,192,59429,1,0,0:0:0:62:A#5S_Bb5S.wav
302,192,59714,1,0,0:0:0:62:A#3S_Bb3S_s.wav
156,192,59857,1,0,0:0:0:62:A#3S_Bb3S.wav
83,192,60286,1,0,0:0:0:62:A#5S_Bb5S.wav
375,192,60286,1,0,0:0:0:62:C#6S_Db6S.wav
229,192,61143,1,0,0:0:0:62:A#3S_Bb3S_s.wav
448,192,61143,1,0,0:0:0:62:A#5S_Bb5S_s.wav
10,192,61714,1,0,0:0:0:62:G#3S_Ab3S_s.wav
156,192,61714,1,0,0:0:0:62:G#5S_Ab5S_s.wav
302,192,61714,1,0,0:0:0:62:C6S_s.wav
375,192,62000,1,0,0:0:0:62:G#3S_Ab3S_s.wav
83,192,62143,1,0,0:0:0:62:G#3S_Ab3S.wav
229,192,62286,1,0,0:0:0:62:D#6S_Eb6S_s.wav
448,192,62571,1,0,0:0:0:62:G#5S_Ab5S_s.wav
10,192,62857,1,0,0:0:0:62:A#5S_Bb5S_s.wav
302,192,63143,1,0,0:0:0:62:B5S_s.wav
83,192,63429,1,0,0:0:0:62:G#3S_Ab3S_s.wav
156,192,63429,1,0,0:0:0:62:C5S_s.wav
375,192,63429,1,0,0:0:0:62:C6S_s.wav
229,192,64000,1,0,0:0:0:62:C#4S_Db4S_s.wav
448,192,64000,1,0,0:0:0:62:C#6S_Db6S.wav
10,192,64286,1,0,0:0:0:62:C#4S_Db4S_s.wav
302,192,64429,1,0,0:0:0:62:C#4S_Db4S.wav
156,192,64857,1,0,0:0:0:62:C#6S_Db6S.wav
375,192,64857,1,0,0:0:0:62:F6S.wav
83,192,65714,1,0,0:0:0:62:C#4S_Db4S_s.wav
448,192,65714,1,0,0:0:0:62:C#6S_Db6S_s.wav
10,192,66286,1,0,0:0:0:62:C4S_s.wav
229,192,66286,1,0,0:0:0:62:C6S.wav
302,192,66571,1,0,0:0:0:62:C4S_s.wav
156,192,66714,1,0,0:0:0:62:C4S.wav
83,192,67143,1,0,0:0:0:62:C6S.wav
375,192,67143,1,0,0:0:0:62:D#6S_Eb6S.wav
10,192,68000,1,0,0:0:0:62:C4S_s.wav
448,192,68000,1,0,0:0:0:62:C6S_s.wav
229,192,68571,1,0,0:0:0:62:A#3S_Bb3S_s.wav
302,192,68571,1,0,0:0:0:62:A#5S_Bb5S.wav
156,192,68857,1,0,0:0:0:62:A#3S_Bb3S_s.wav
375,192,69000,1,0,0:0:0:62:A#3S_Bb3S.wav
83,192,69429,1,0,0:0:0:62:A#5S_Bb5S.wav
448,192,69429,1,0,0:0:0:62:C#6S_Db6S.wav
10,192,70286,1,0,0:0:0:62:A#3S_Bb3S_s.wav
229,192,70286,1,0,0:0:0:62:A#5S_Bb5S_s.wav
156,192,70857,1,0,0:0:0:62:G#3S_Ab3S_s.wav
302,192,70857,1,0,0:0:0:62:G#5S_Ab5S_s.wav
375,192,70857,1,0,0:0:0:62:C6S_s.wav
83,192,71143,1,0,0:0:0:62:G#3S_Ab3S_s.wav
448,192,71286,1,0,0:0:0:62:G#3S_Ab3S.wav
229,192,71429,1,0,0:0:0:62:D#6S_Eb6S_s.wav
10,192,71714,1,0,0:0:0:62:F6S_s.wav
375,192,72000,1,0,0:0:0:62:D#6S_Eb6S_s.wav
156,192,72286,1,0,0:0:0:62:C#6S_Db6S_s.wav
83,192,72571,1,0,0:0:0:62:G#3S_Ab3S_s.wav
302,192,72571,1,0,0:0:0:62:G#4S_Ab4S_s.wav
448,192,72571,1,0,0:0:0:62:C6S_s.wav
229,192,72857,1,0,0:0:0:62:G#5S_Ab5S_s.wav
