osu file format v14

[General]
AudioFilename: audio.mp3
AudioLeadIn: 0
PreviewTime: -1
Countdown: 0
SampleSet: None
StackLeniency: 0.7
Mode: 0
LetterboxInBreaks: 0
WidescreenStoryboard: 0

[Editor]
DistanceSpacing: 1.1
BeatDivisor: 1
GridSize: 32
TimelineZoom: 1

[Metadata]
Title:Ecruteak City (Orchestral)
TitleUnicode:Ecruteak City (Orchestral)
Artist:Junichi Masuda
ArtistUnicode:Junichi Masuda
Creator:Veridian
Version:Normal
Source:Pokemon Jhoto
Tags:
BeatmapID:1970898
BeatmapSetID:943708

[Difficulty]
HPDrainRate:3
CircleSize:3.5
OverallDifficulty:3
ApproachRate:4
SliderMultiplier:1.4
SliderTickRate:1

[Events]
//Background and Video events
0,0,"1366x768_ecruteak_city-1213752.jpg",0,0
//Break Periods
//Storyboard Layer 0 (Background)
//Storyboard Layer 1 (Fail)
//Storyboard Layer 2 (Pass)
//Storyboard Layer 3 (Foreground)
//Storyboard Sound Samples

[TimingPoints]
818.647205535823,689.655172413793,4,2,0,20,1,0
83577,-100,4,2,0,35,0,1
100128,-100,4,2,0,35,0,0
102303,689.655172413793,4,2,0,35,1,0
103165,689.655172413793,4,2,0,20,1,0
114889,-100,4,2,0,5,0,0

[Colours]
Combo1 : 102,159,176
Combo2 : 223,179,96
Combo3 : 165,213,121

[HitObjects]
0,36,818,6,0,L|96:28,1,70,4|0,0:0|0:0,0:0:0:0:
128,80,1508,2,0,L|224:72,1,70,0|2,0:0|0:0,0:0:0:0:
480,332,3577,2,0,L|384:340,1,70,4|0,0:0|0:0,0:0:0:0:
352,288,4267,2,0,L|252:296,1,70,0|2,0:0|0:0,0:0:0:0:
92,376,5991,1,2,0:0:0:0:
40,320,6335,6,0,P|35:273|49:233,1,70,4|0,0:0|0:0,0:0:0:0:
92,196,7025,2,0,P|97:155|80:102,1,70,0|2,0:0|0:0,0:0:0:0:
200,16,8060,1,2,0:0:0:0:
260,64,8404,2,0,L|336:64,1,70,0|2,0:0|0:0,0:0:0:0:
388,116,9094,5,6,0:0:0:0:
504,216,9784,1,2,0:0:0:0:
388,320,10473,1,2,0:0:0:0:
280,212,11163,1,2,0:0:0:0:
172,320,11853,6,0,P|106:341|28:312,1,140,4|0,0:0|0:0,0:0:0:0:
8,252,12887,1,2,0:0:0:0:
244,56,14266,1,0,0:0:0:0:
304,104,14611,2,0,P|323:169|301:235,1,140,2|0,0:0|0:0,0:0:0:0:
344,300,15646,2,0,L|192:272,1,140,2|0,0:0|0:0,0:0:0:0:
132,252,16680,1,2,0:0:0:0:
216,120,17370,6,0,P|210:85|217:51,1,70,2|0,0:0|0:0,0:0:0:0:
288,84,18060,2,0,P|294:123|282:170,1,70,0|2,0:0|0:0,0:0:0:0:
228,200,18749,1,2,0:0:0:0:
364,316,20128,2,0,P|400:312|448:320,2,70,2|0|2,0:0|0:0|0:0,0:0:0:0:
304,364,21163,2,0,B|352:260|264:260|312:160,1,210,2|2,0:0|0:0,0:0:0:0:
176,88,22887,6,0,P|140:34|82:62,1,140,4|0,0:0|0:0,0:0:0:0:
16,20,23922,2,0,B|-24:108|68:108|8:228,1,210,2|0,0:0|0:0,0:0:0:0:
160,180,25646,2,0,L|294:217,1,140,2|0,0:0|0:0,0:0:0:0:
344,276,26680,2,0,P|324:209|345:144,1,140,2|0,0:0|0:0,0:0:0:0:
396,84,27715,1,2,0:0:0:0:
484,208,28404,6,0,P|444:212|396:204,1,70,2|0,0:0|0:0,0:0:0:0:
344,176,29094,2,0,P|312:170|271:177,1,70,0|2,0:0|0:0,0:0:0:0:
152,80,30128,1,0,0:0:0:0:
136,156,30473,2,0,L|120:244,1,70,2|0,0:0|0:0,0:0:0:0:
64,276,31163,6,0,B|172:232|172:316|272:276,1,210,2|2,0:0|0:0,0:0:0:0:
396,364,32887,1,0,0:0:0:0:
448,308,33232,2,0,L|432:212,1,70,2|0,0:0|0:0,0:0:0:0:
476,172,33922,6,0,P|409:189|342:171,1,140,6|0,0:0|0:0,0:0:0:0:
256,44,35301,2,0,L|191:69,1,70,0|2,0:0|0:0,0:0:0:0:
212,144,35991,2,0,L|147:169,1,70
100,232,36680,1,2,0:0:0:0:
192,356,37370,1,0,0:0:0:0:
340,316,38060,1,2,0:0:0:0:
332,164,38749,1,2,0:0:0:0:
184,116,39439,6,0,P|145:84|-11:136,2,210,4|2|0,0:0|0:0|0:0,0:0:0:0:
268,244,42197,2,0,L|348:236,1,70,2|0,0:0|0:0,0:0:0:0:
404,276,42887,1,0,0:0:0:0:
472,236,43232,2,0,P|492:188|452:88,1,140,2|0,0:0|0:0,0:0:0:0:
332,40,44611,1,2,0:0:0:0:
272,88,44956,6,0,B|232:88|232:88|208:116|208:116|124:116,1,140,4|2,0:0|0:0,0:0:0:0:
88,64,45991,2,0,L|52:208,1,140
36,276,47025,1,2,0:0:0:0:
156,180,47715,2,0,P|192:160|300:196,1,140,2|0,0:0|0:0,0:0:0:0:
304,256,48749,2,0,P|368:279|432:256,1,140,2|0,0:0|0:0,0:0:0:0:
492,208,49784,1,0,0:0:0:0:
508,56,50473,6,0,L|374:96,1,140,4|0,0:0|0:0,0:0:0:0:
304,60,51508,2,0,B|348:157|248:165|308:261,1,210,2|0,0:0|0:0,0:0:0:0:
428,356,53232,1,2,0:0:0:0:
484,212,53922,1,0,0:0:0:0:
372,108,54611,1,2,0:0:0:0:
236,176,55301,1,2,0:0:0:0:
268,328,55991,6,0,P|332:350|396:325,1,140,4|0,0:0|0:0,0:0:0:0:
448,384,57025,2,0,L|481:247,1,140,2|0,0:0|0:0,0:0:0:0:
504,176,58060,1,2,0:0:0:0:
392,72,58749,2,0,P|350:66|304:80,1,70,2|0,0:0|0:0,0:0:0:0:
284,140,59439,2,0,P|249:145|215:139,1,70,0|2,0:0|0:0,0:0:0:0:
72,80,60473,1,0,0:0:0:0:
100,152,60818,2,0,L|120:219,1,70,0|2,0:0|0:0,0:0:0:0:
80,288,61508,6,0,B|178:236|178:324|282:285,1,210,4|0,0:0|0:0,0:0:0:0:
364,156,63232,1,0,0:0:0:0:
424,204,63577,2,0,P|428:244|420:288,1,70,2|0,0:0|0:0,0:0:0:0:
484,324,64266,2,0,B|372:288|372:360|260:316,1,210,6|2,0:0|0:0,0:0:0:0:
212,284,65646,2,0,L|156:360,2,70,2|0|0,0:0|0:0|0:0,0:0:0:0:
348,212,67025,6,0,P|364:180|332:64,1,140,4|0,0:0|0:0,0:0:0:0:
288,32,68060,2,0,B|222:8|222:8|156:32,1,140,2|0,0:0|0:0,0:0:0:0:
92,72,69094,1,2,0:0:0:0:
160,208,69784,2,0,B|228:232|228:232|288:208|288:208|364:252|424:200,1,280,6|2,0:0|0:0,0:0:0:0:
421,202,72542,6,0,L|448:112,1,70,6|0,0:0|0:0,0:0:0:0:
364,120,73232,2,0,L|388:40,1,70,0|2,0:0|0:0,0:0:0:0:
20,176,75301,2,0,L|-7:266,1,70,2|0,0:0|0:0,0:0:0:0:
77,258,75991,2,0,L|53:338,1,70,0|2,0:0|0:0,0:0:0:0:
304,140,77715,1,0,0:0:0:0:
356,84,78060,6,0,P|392:80|440:88,1,70,6|0,0:0|0:0,0:0:0:0:
476,144,78749,2,0,P|480:180|472:228,1,70,0|2,0:0|0:0,0:0:0:0:
368,320,79784,1,0,0:0:0:0:
312,268,80128,2,0,L|216:268,1,70
256,192,80818,12,0,83577,0:0:0:0:
72,68,85646,6,0,L|112:136,1,70,2|0,0:0|0:0,0:0:0:0:
64,192,86335,2,0,P|116:172|212:208,1,140,4|0,0:0|0:0,0:0:0:0:
264,156,87370,2,0,L|184:304,1,140,2|0,0:0|0:0,0:0:0:0:
156,344,88404,1,2,0:0:0:0:
300,288,89094,6,0,B|360:260|360:316|440:280,1,140,4|0,0:0|0:0,0:0:0:0:
484,220,90128,2,0,P|504:168|468:76,1,140,2|0,0:0|0:0,0:0:0:0:
436,28,91163,1,2,0:0:0:0:
308,116,91853,2,0,B|204:164|200:56|88:120,1,210,4|0,0:0|0:0,0:0:0:0:
44,64,93232,2,0,L|84:216,1,140,2|0,0:0|0:0,0:0:0:0:
36,264,94266,1,2,0:0:0:0:
100,304,94611,6,0,P|152:328|244:280,1,140,6|0,0:0|0:0,0:0:0:0:
296,268,95646,1,2,0:0:0:0:
412,168,96335,2,0,P|420:133|396:80,2,70,2|0|2,0:0|0:0|0:0,0:0:0:0:
340,136,97370,2,0,B|208:60|208:204|60:120,1,280,6|0,0:0|0:0,0:0:0:0:
73,127,100128,5,4,0:0:0:0:
196,220,100818,1,2,0:0:0:0:
320,128,101508,1,2,0:0:0:0:
196,252,102303,5,2,0:0:0:0:
72,108,103165,5,2,0:0:0:0:
460,356,105061,2,0,B|540:216|364:216|469:70,1,280,2|0,0:0|0:0,0:0:0:0:
256,192,107647,12,0,114889,0:0:0:0:
