osu file format v14

[General]
AudioFilename: audio.mp3
AudioLeadIn: 0
PreviewTime: 10991
Countdown: 1
SampleSet: None
StackLeniency: 0.7
Mode: 0
LetterboxInBreaks: 0
WidescreenStoryboard: 1

[Editor]
DistanceSpacing: 1
BeatDivisor: 1
GridSize: 32
TimelineZoom: 1

[Metadata]
Title:Ecruteak City (Orchestral)
TitleUnicode:Ecruteak City (Orchestral)
Artist:Junichi Masuda
ArtistUnicode:Junichi Masuda
Creator:Veridian
Version:New Insane
Source:Pokemon Jhoto
Tags:
BeatmapID:1970897
BeatmapSetID:943708

[Difficulty]
HPDrainRate:6
CircleSize:4
OverallDifficulty:6
ApproachRate:8
SliderMultiplier:2
SliderTickRate:1

[Events]
//Background and Video events
0,0,"1366x768_ecruteak_city-1213752.jpg",0,0
//Break Periods
2,72742,80068
//Storyboard Layer 0 (Background)
//Storyboard Layer 1 (Fail)
//Storyboard Layer 2 (Pass)
//Storyboard Layer 3 (Foreground)
//Storyboard Sound Samples

[TimingPoints]
818.647205535823,689.655172413793,4,2,0,20,1,0
83577,-83.3333333333333,4,2,0,35,0,1
100128,-100,4,2,0,35,0,0
102303,689.655172413793,4,2,0,35,1,0
103165,689.655172413793,4,2,0,35,1,0
103854,-100,4,2,0,20,0,0
114889,-100,4,2,0,5,0,0

[Colours]
Combo1 : 102,159,176
Combo2 : 223,179,96
Combo3 : 165,213,121

[HitObjects]
156,40,818,5,0,0:0:0:0:
170,122,1163,1,0,0:0:0:0:
257,107,1508,1,0,0:0:0:0:
240,24,1853,1,0,0:0:0:0:
343,123,3577,1,0,0:0:0:0:
329,205,3922,1,0,0:0:0:0:
242,190,4267,1,0,0:0:0:0:
257,107,4612,1,0,0:0:0:0:
156,206,6335,5,0,0:0:0:0:
170,288,6680,1,0,0:0:0:0:
257,273,7025,1,0,0:0:0:0:
242,190,7370,1,0,0:0:0:0:
242,190,8060,1,0,0:0:0:0:
257,273,8405,1,0,0:0:0:0:
170,288,8750,1,0,0:0:0:0:
256,108,9094,5,0,0:0:0:0:
342,288,9784,1,0,0:0:0:0:
256,108,10473,1,0,0:0:0:0:
170,288,11163,1,0,0:0:0:0:
340,140,11853,6,0,P|340:72|212:28,1,200
135,91,12887,2,0,L|175:319,2,200
256,180,14611,2,0,P|291:193|368:167,2,100
216,52,15646,2,0,P|260:20|392:52,1,200
304,108,16680,1,0,0:0:0:0:
476,180,17025,1,0,0:0:0:0:
392,272,17370,5,0,0:0:0:0:
309,287,17715,1,0,0:0:0:0:
294,200,18060,1,0,0:0:0:0:
376,186,18405,1,0,0:0:0:0:
336,380,18749,2,0,P|245:352|229:259,1,200
312,288,19784,1,0,0:0:0:0:
160,192,20128,5,0,0:0:0:0:
312,96,20473,1,0,0:0:0:0:
160,192,20818,1,0,0:0:0:0:
68,144,21163,2,0,L|268:179,1,200
410,305,22197,2,0,L|303:286,1,100
248,88,22887,6,0,P|338:115|354:208,1,200
264,356,23922,2,0,P|232:312|264:180,1,200
354,208,24956,1,0,0:0:0:0:
88,128,25646,2,0,L|288:92,1,200
353,4,26680,2,0,P|385:48|353:180,1,200
256,236,27715,1,0,0:0:0:0:
352,296,28060,1,0,0:0:0:0:
256,136,28404,5,0,0:0:0:0:
160,296,28749,1,0,0:0:0:0:
256,376,29094,1,0,0:0:0:0:
353,179,29439,1,0,0:0:0:0:
177,88,29784,2,0,P|163:136|176:184,1,100
256,24,30473,1,0,0:0:0:0:
72,104,30818,1,0,0:0:0:0:
256,136,31163,6,0,L|472:174,1,200
452,58,32197,2,0,L|235:19,1,200
68,68,33232,2,0,L|194:90,1,100
496,336,33922,6,0,B|428:284|364:336|364:336|288:392|220:336,1,300
288,168,35301,2,0,P|302:216|289:264,1,100
208,216,35991,1,0,0:0:0:0:
372,132,36335,1,0,0:0:0:0:
256,56,36680,5,0,0:0:0:0:
392,304,37370,1,0,0:0:0:0:
256,56,38060,1,0,0:0:0:0:
120,304,38749,2,0,L|5:283,1,100
124,192,39439,6,0,L|336:229,1,200
392,136,40473,2,0,P|424:180|392:312,1,200
320,376,41508,2,0,L|186:352,1,100
148,162,42197,1,0,0:0:0:0:
320,226,42542,1,0,0:0:0:0:
148,290,42887,1,0,0:0:0:0:
56,184,43232,2,0,P|84:93|177:77,2,200
148,288,44956,5,0,0:0:0:0:
148,164,45301,1,0,0:0:0:0:
56,336,45646,1,0,0:0:0:0:
216,224,45991,2,0,L|440:263,1,200
508,372,47025,2,0,L|401:353,1,100
412,80,47715,2,0,P|444:124|412:256,1,200
332,348,48749,2,0,P|291:260|332:172,1,200
412,260,49784,1,0,0:0:0:0:
308,92,50128,2,0,B|331:85|331:85|360:92,1,50
236,152,50473,5,0,0:0:0:0:
160,80,50818,1,0,0:0:0:0:
332,172,51163,1,0,0:0:0:0:
136,0,51508,2,0,L|97:216,1,200
172,360,52542,2,0,P|185:312|172:264,1,100
0,296,53232,6,0,L|98:313,1,100
196,180,53922,2,0,L|97:197,1,100
336,364,54611,2,0,L|353:265,1,100
178,81,55301,2,0,L|195:179,1,100
440,292,55991,6,0,P|424:198|333:170,1,200
224,192,57025,1,0,0:0:0:0:
296,252,57370,1,0,0:0:0:0:
224,108,57715,1,0,0:0:0:0:
156,252,58060,1,0,0:0:0:0:
328,68,58404,1,0,0:0:0:0:
128,88,58749,5,0,0:0:0:0:
224,192,59094,1,0,0:0:0:0:
224,8,59439,1,0,0:0:0:0:
48,52,59784,2,0,B|4:144|104:144|48:244,1,200
140,384,60818,2,0,P|126:336|139:288,1,100
424,372,61508,6,0,L|199:332,1,200
140,204,62542,1,0,0:0:0:0:
292,96,62887,1,0,0:0:0:0:
228,256,63232,1,0,0:0:0:0:
164,64,63577,1,0,0:0:0:0:
376,192,63922,1,0,0:0:0:0:
160,344,64266,6,0,P|119:256|160:168,1,200
256,104,65301,1,0,0:0:0:0:
351,168,65646,2,0,P|392:256|352:344,1,200
256,384,66680,1,0,0:0:0:0:
136,188,67025,1,0,0:0:0:0:
92,272,67370,2,0,B|184:316|184:216|284:272,1,200
348,344,68404,1,0,0:0:0:0:
480,192,68749,5,0,0:0:0:0:
340,116,69094,1,0,0:0:0:0:
484,68,69439,1,0,0:0:0:0:
420,8,69784,1,0,0:0:0:0:
256,192,70128,12,0,72542,0:0:0:0:
256,192,80818,12,0,83232,0:0:0:0:
64,192,83577,6,0,B|176:124|176:264|296:200,1,239.999992675781
360,140,84611,2,0,L|343:45,1,59.9999981689454
287,204,84956,2,0,L|297:263,1,59.9999981689454
271,348,85301,2,0,P|300:353|342:342,1,59.9999981689454
384,280,85646,1,0,0:0:0:0:
188,200,85991,1,0,0:0:0:0:
256,84,86335,5,0,0:0:0:0:
188,304,86680,1,0,0:0:0:0:
96,144,87025,1,0,0:0:0:0:
364,232,87370,5,0,0:0:0:0:
324,225,87542,1,0,0:0:0:0:
281,217,87715,1,0,0:0:0:0:
173,99,88060,1,0,0:0:0:0:
213,92,88232,1,0,0:0:0:0:
256,84,88405,1,0,0:0:0:0:
400,56,88749,1,0,0:0:0:0:
132,192,89094,6,0,P|84:148|148:-4,1,239.999992675781
232,109,90128,2,0,L|129:90,1,59.9999981689454
312,84,90473,2,0,L|378:4,1,59.9999981689454
296,164,90818,2,0,L|331:261,1,59.9999981689454
344,320,91163,1,0,0:0:0:0:
432,192,91508,1,0,0:0:0:0:
104,384,91853,6,0,L|58:124,1,239.999992675781
256,20,92887,1,0,0:0:0:0:
408,384,93232,2,0,L|453:124,1,239.999992675781
348,120,94266,2,0,P|343:149|354:191,1,59.9999981689454
500,68,94611,6,0,B|388:0|388:140|268:76,1,239.999992675781
144,0,95646,2,0,L|222:13,1,59.9999981689454
60,112,95991,2,0,L|-18:98,1,59.9999981689454
144,84,96335,2,0,P|149:113|138:155,1,59.9999981689454
64,204,96680,1,0,0:0:0:0:
260,272,97025,1,0,0:0:0:0:
64,364,97370,1,0,0:0:0:0:
256,192,97715,12,0,100128,0:0:0:0:
168,24,100818,5,0,0:0:0:0:
344,148,101508,1,0,0:0:0:0:
204,248,102303,1,0,0:0:0:0:
296,332,103165,1,0,0:0:0:0:
236,384,105061,5,0,0:0:0:0:
256,192,107302,12,0,114889,0:0:0:0:
