osu file format v14

[General]
AudioFilename: audio.mp3
AudioLeadIn: 0
PreviewTime: 10991
Countdown: 1
SampleSet: None
StackLeniency: 0.7
Mode: 0
LetterboxInBreaks: 0
WidescreenStoryboard: 0

[Editor]
DistanceSpacing: 1.2
BeatDivisor: 1
GridSize: 32
TimelineZoom: 1

[Metadata]
Title:Ecruteak City (Orchestral)
TitleUnicode:Ecruteak City (Orchestral)
Artist:Junichi Masuda
ArtistUnicode:Junichi Masuda
Creator:Veridian
Version:Easy
Source:Pokemon Jhoto
Tags:
BeatmapID:1970895
BeatmapSetID:943708

[Difficulty]
HPDrainRate:1
CircleSize:3
OverallDifficulty:1
ApproachRate:2
SliderMultiplier:1
SliderTickRate:1

[Events]
//Background and Video events
0,0,"1366x768_ecruteak_city-1213752.jpg",0,0
//Break Periods
//Storyboard Layer 0 (Background)
//Storyboard Layer 1 (Fail)
//Storyboard Layer 2 (Pass)
//Storyboard Layer 3 (Foreground)
//Storyboard Sound Samples

[TimingPoints]
818.647205535823,689.655172413793,4,2,0,20,1,0
83577,-100,4,2,0,35,0,1
100128,-100,4,2,0,35,0,0
102303,689.655172413793,4,2,0,35,1,0
103165,689.655172413793,4,2,0,35,1,0
103854,-100,4,2,0,20,0,0
114889,-100,4,2,0,5,0,0

[Colours]
Combo1 : 102,159,176
Combo2 : 223,179,96
Combo3 : 165,213,121

[HitObjects]
176,176,818,6,0,B|100:148|100:208|20:172,2,150,4|2|0,0:0|0:0|0:0,0:0:0:0:
280,240,3577,2,0,B|356:268|356:208|436:244,2,150,4|2|0,0:0|0:0|0:0,0:0:0:0:
192,320,6335,2,0,P|228:272|188:144,1,200,4|0,0:0|0:0,0:0:0:0:
100,72,8404,1,2,0:0:0:0:
4,148,9094,5,2,0:0:0:0:
100,220,9784,1,0,0:0:0:0:
192,147,10473,1,2,0:0:0:0:
288,220,11163,1,0,0:0:0:0:
384,148,11853,6,0,P|412:124|448:224,1,200,6|0,0:0|0:0,0:0:0:0:
216,260,14611,2,0,P|188:284|152:184,1,200,2|0,0:0|0:0,0:0:0:0:
264,152,16680,1,2,0:0:0:0:
376,108,17370,6,0,P|380:76|376:0,2,100,4|0|2,0:0|0:0|0:0,0:0:0:0:
172,232,20128,2,0,P|168:264|172:340,2,100,2|2|0,0:0|0:0|0:0,0:0:0:0:
252,140,22197,1,2,0:0:0:0:
332,232,22887,6,0,B|416:288|416:288|500:228,1,200,4|0,0:0|0:0,0:0:0:0:
416,144,24956,1,0,0:0:0:0:
324,64,25646,2,0,B|224:24|224:104|120:60,1,200,4|0,0:0|0:0,0:0:0:0:
20,16,27715,1,2,0:0:0:0:
28,136,28404,6,0,P|16:184|32:244,1,100,2|2,0:0|0:0,0:0:0:0:
236,352,30473,1,2,0:0:0:0:
320,268,31163,2,0,B|392:240|392:296|480:264,2,150,2|2|2,0:0|0:0|0:0,0:0:0:0:
232,352,33922,6,0,P|264:304|216:164,1,200,4|0,0:0|0:0,0:0:0:0:
132,108,35991,1,2,0:0:0:0:
232,40,36680,1,0,0:0:0:0:
328,112,37370,2,0,L|432:68,2,100,2|2|2,0:0|0:0|0:0,0:0:0:0:
404,204,39439,6,0,P|328:156|232:216,1,200,4|0,0:0|0:0,0:0:0:0:
172,304,41508,1,2,0:0:0:0:
104,204,42197,2,0,L|80:52,2,150,4|2|0,0:0|0:0|0:0,0:0:0:0:
16,284,44956,6,0,B|164:184|156:348|300:260,1,300,4|2,0:0|0:0,0:0:0:0:
412,296,47715,2,0,B|400:248|400:248|420:200|420:200|408:144,2,150,4|2|0,0:0|0:0|0:0,0:0:0:0:
304,352,50473,6,0,P|253:363|187:340,1,100,4|0,0:0|0:0,0:0:0:0:
256,116,52542,1,0,0:0:0:0:
344,32,53232,1,2,0:0:0:0:
432,116,53922,1,0,0:0:0:0:
344,200,54611,1,2,0:0:0:0:
256,116,55301,1,2,0:0:0:0:
172,200,55991,6,0,P|144:240|180:344,2,150,4|2|0,0:0|0:0|0:0,0:0:0:0:
272,264,58749,2,0,B|332:256|332:256|352:268|352:268|436:252,2,150,0|2|0,0:0|0:0|0:0,0:0:0:0:
204,364,61508,2,0,B|260:268|168:268|212:168,1,200,4|0,0:0|0:0,0:0:0:0:
292,84,63577,1,2,0:0:0:0:
376,172,64266,6,0,L|484:156,1,100,4|0,0:0|0:0,0:0:0:0:
416,264,65646,2,0,L|317:249,1,100,2|0,0:0|0:0,0:0:0:0:
240,160,67025,2,0,P|272:212|128:208,1,300,4|0,0:0|0:0,0:0:0:0:
144,100,69784,2,0,P|268:60|368:192,1,300,4|0,0:0|0:0,0:0:0:0:
332,288,72542,6,0,B|408:248|408:320|492:280,2,150,2|0|0,0:0|0:0|0:0,0:0:0:0:
228,224,75301,2,0,B|152:264|152:192|68:232,2,150,2|0|0,0:0|0:0|0:0,0:0:0:0:
304,316,78060,2,0,L|260:108,1,200
240,4,80128,1,0,0:0:0:0:
256,192,80818,12,4,83577,0:0:0:0:
456,72,86335,6,0,B|400:156|400:156|408:204|408:204|304:336,1,300,0|2,0:0|0:0,0:0:0:0:
224,244,89094,2,0,P|160:216|76:260,2,150,4|2|0,0:0|0:0|0:0,0:0:0:0:
312,164,91853,2,0,L|348:272,1,100,6|0,0:0|0:0,0:0:0:0:
464,260,93232,2,0,L|495:165,1,100,2|0,0:0|0:0,0:0:0:0:
440,60,94611,6,0,B|240:0|332:152|144:72,1,300,4|2,0:0|0:0,0:0:0:0:
56,16,97370,2,0,B|160:188|160:188|108:212|84:276,1,300,4|0,0:0|0:0,0:0:0:0:
204,300,100128,5,4,0:0:0:0:
300,372,100818,1,2,0:0:0:0:
396,300,101508,1,2,0:0:0:0:
300,200,102303,5,2,0:0:0:0:
356,60,103165,2,0,B|220:20|220:132|84:68,1,275,6|0,0:0|0:0,0:0:0:0:
256,192,107475,12,0,114889,0:0:0:0:
