osu file format v14

[General]
AudioFilename: audio.mp3
AudioLeadIn: 0
PreviewTime: 34
Countdown: 0
SampleSet: Normal
StackLeniency: 0.7
Mode: 1
LetterboxInBreaks: 0
WidescreenStoryboard: 0

[Editor]
Bookmarks: 34,1811,3589,7145,10700,14256,16033,17811,19589,23145,26700,30256,33811,35589,39145,40922,42700
DistanceSpacing: 1
BeatDivisor: 4
GridSize: 32
TimelineZoom: 1

[Metadata]
Title:Driftveil City
TitleUnicode:Driftveil City
Artist:Junichi Masuda
ArtistUnicode:Junichi Masuda
Creator:strickluke
Version:Futsuu
Source:Pokémon: Black/White
Tags:pokemon black white driftveil city theme song go ichinose weber
BeatmapID:1252921
BeatmapSetID:592136

[Difficulty]
HPDrainRate:7
CircleSize:4
OverallDifficulty:4
ApproachRate:9
SliderMultiplier:1.4
SliderTickRate:1

[Events]
//Background and Video events
0,0,"7c436db6400b75577f7c9ab7a6968eee.jpg",0,0
//Break Periods
//Storyboard Layer 0 (Background)
//Storyboard Layer 1 (Fail)
//Storyboard Layer 2 (Pass)
//Storyboard Layer 3 (Foreground)
//Storyboard Sound Samples

[TimingPoints]
34,444.444444444444,4,1,0,100,1,0
35589,-100,4,1,0,100,0,1
40922,-100,4,1,0,100,0,0

[HitObjects]
256,192,1811,5,0,0:0:0:0:
256,192,2033,1,0,0:0:0:0:
256,192,2256,1,12,0:0:0:0:
256,192,3145,1,12,0:0:0:0:
256,192,3589,1,0,0:0:0:0:
256,192,4256,1,0,0:0:0:0:
256,192,4478,1,0,0:0:0:0:
256,192,4922,1,0,0:0:0:0:
256,192,5367,1,8,0:0:0:0:
256,192,5811,1,8,0:0:0:0:
256,192,6256,1,0,0:0:0:0:
256,192,7145,1,8,0:0:0:0:
256,192,7812,1,8,0:0:0:0:
256,192,8033,1,8,0:0:0:0:
256,192,8478,1,8,0:0:0:0:
256,192,8923,1,0,0:0:0:0:
256,192,9367,1,0,0:0:0:0:
256,192,9811,1,8,0:0:0:0:
256,192,10700,1,8,0:0:0:0:
256,192,11145,1,8,0:0:0:0:
256,192,11367,1,8,0:0:0:0:
256,192,11589,1,8,0:0:0:0:
256,192,12033,1,0,0:0:0:0:
256,192,12478,1,8,0:0:0:0:
256,192,12922,1,8,0:0:0:0:
256,192,13145,1,8,0:0:0:0:
256,192,13367,1,8,0:0:0:0:
256,192,13811,1,8,0:0:0:0:
256,192,14256,1,4,0:0:0:0:
256,192,14700,1,4,0:0:0:0:
256,192,15589,1,8,0:0:0:0:
256,192,16033,1,0,0:0:0:0:
256,192,16478,1,8,0:0:0:0:
256,192,16922,1,0,0:0:0:0:
256,192,17367,1,8,0:0:0:0:
256,192,17811,1,0,0:0:0:0:
256,192,18033,1,0,0:0:0:0:
256,192,18256,1,0,0:0:0:0:
256,192,19145,1,4,0:0:0:0:
256,192,19589,1,12,0:0:0:0:
256,192,20256,1,0,0:0:0:0:
256,192,20922,1,0,0:0:0:0:
256,192,21367,1,8,0:0:0:0:
256,192,22034,1,0,0:0:0:0:
256,192,22700,1,8,0:0:0:0:
256,192,23145,1,12,0:0:0:0:
256,192,23812,1,8,0:0:0:0:
256,192,24478,1,0,0:0:0:0:
256,192,24922,1,8,0:0:0:0:
256,192,25367,1,0,0:0:0:0:
256,192,25811,1,8,0:0:0:0:
256,192,26033,1,8,0:0:0:0:
256,192,26256,1,0,0:0:0:0:
256,192,26700,1,12,0:0:0:0:
256,192,27145,1,0,0:0:0:0:
256,192,27367,1,0,0:0:0:0:
256,192,27811,1,8,0:0:0:0:
256,192,28478,1,8,0:0:0:0:
256,192,28700,1,8,0:0:0:0:
256,192,29145,1,0,0:0:0:0:
256,192,29589,1,12,0:0:0:0:
256,192,30256,1,12,0:0:0:0:
256,192,30700,1,0,0:0:0:0:
256,192,31145,1,8,0:0:0:0:
256,192,31367,1,8,0:0:0:0:
256,192,31589,1,8,0:0:0:0:
256,192,32033,12,0,33367,0:0:0:0:
256,192,33811,5,4,0:0:0:0:
256,192,34256,1,4,0:0:0:0:
256,192,35145,1,4,0:0:0:0:
256,192,35589,1,12,0:0:0:0:
256,192,36033,1,8,0:0:0:0:
256,192,36256,1,0,0:0:0:0:
256,192,36478,1,0,0:0:0:0:
256,192,36922,1,8,0:0:0:0:
256,192,37367,1,0,0:0:0:0:
256,192,37811,1,8,0:0:0:0:
256,192,38033,1,0,0:0:0:0:
256,192,38478,1,0,0:0:0:0:
256,192,38700,1,8,0:0:0:0:
256,192,39145,5,8,0:0:0:0:
256,192,39588,1,8,0:0:0:0:
256,192,39811,1,8,0:0:0:0:
256,192,40033,1,0,0:0:0:0:
256,192,40477,1,8,0:0:0:0:
256,192,40922,1,0,0:0:0:0:
256,192,41145,1,0,0:0:0:0:
256,192,41367,1,12,0:0:0:0:
256,192,42256,1,12,0:0:0:0:
256,192,42700,1,0,0:0:0:0:
