osu file format v14

[General]
AudioFilename: audio.mp3
AudioLeadIn: 0
PreviewTime: -1
Countdown: 1
SampleSet: None
StackLeniency: 0.7
Mode: 0
LetterboxInBreaks: 0
WidescreenStoryboard: 1

[Editor]
Bookmarks: 66941,94175
DistanceSpacing: 1
BeatDivisor: 4
GridSize: 4
TimelineZoom: 1.9

[Metadata]
Title:Battle! Zinnia
TitleUnicode:Battle! Zinnia
Artist:Junichi Masuda
ArtistUnicode:Junichi Masuda
Creator:Chriz
Version:Sky Pillar
Source:Pokemon Omega Ruby & Alpha Sapphire
Tags:
BeatmapID:1701346
BeatmapSetID:811004

[Difficulty]
HPDrainRate:6
CircleSize:7
OverallDifficulty:8
ApproachRate:9
SliderMultiplier:1.5
SliderTickRate:1

[Events]
//Background and Video events
//Break Periods
//Storyboard Layer 0 (Background)
//Storyboard Layer 1 (Fail)
//Storyboard Layer 2 (Pass)
//Storyboard Layer 3 (Foreground)
//Storyboard Sound Samples

[TimingPoints]
321,335.195530726257,4,1,0,30,1,0
24455,-83.3333333333333,4,1,0,30,0,1
35181,-100,4,1,0,30,0,0
45907,-100,4,1,0,30,0,0
56633,-125,4,1,0,20,0,0
67360,-83.3333333333333,4,1,0,30,0,1
83449,-100,4,1,0,30,0,0

[Colours]
Combo1 : 54,255,32
Combo2 : 34,172,255
Combo3 : 247,140,255
Combo4 : 242,24,57
Combo5 : 253,255,149
Combo6 : 89,89,89

[HitObjects]
317,136,321,70,0,L|327:95,3,37.5
366,139,656,2,0,L|392:106,3,37.5
409,162,991,2,0,L|447:144,3,37.5
475,201,1326,38,0,L|438:201,3,37.5
394,223,1661,22,0,L|419:252,3,37.5
340,259,1996,2,0,L|375:275,3,37.5
344,314,2332,1,0,0:0:0:0:
328,324,2415,1,0,0:0:0:0:
310,329,2499,1,0,0:0:0:0:
291,329,2583,1,0,0:0:0:0:
274,323,2667,1,0,0:0:0:0:
258,313,2750,1,0,0:0:0:0:
247,298,2834,1,0,0:0:0:0:
240,281,2918,1,0,0:0:0:0:
239,262,3002,5,0,0:0:0:0:
185,208,3170,1,0,0:0:0:0:
290,102,3337,37,0,0:0:0:0:
236,156,3505,1,0,0:0:0:0:
341,50,3672,21,0,0:0:0:0:
387,105,3840,1,0,0:0:0:0:
394,177,4008,1,0,0:0:0:0:
357,240,4175,1,0,0:0:0:0:
304,96,4343,5,0,0:0:0:0:
236,127,4510,1,0,0:0:0:0:
304,158,4678,1,0,0:0:0:0:
236,23,4846,37,0,0:0:0:0:
130,128,5013,21,0,0:0:0:0:
130,128,5097,1,0,0:0:0:0:
130,128,5181,1,0,0:0:0:0:
195,166,5348,1,0,0:0:0:0:
129,203,5516,1,0,0:0:0:0:
235,309,5684,5,0,0:0:0:0:
303,278,5851,1,0,0:0:0:0:
303,278,5935,1,0,0:0:0:0:
303,278,6019,37,0,0:0:0:0:
235,247,6186,1,0,0:0:0:0:
371,185,6354,21,0,0:0:0:0:
319,133,6522,1,0,0:0:0:0:
243,126,6689,1,0,0:0:0:0:
175,167,6857,1,0,0:0:0:0:
273,53,7025,5,0,0:0:0:0:
197,65,7192,1,0,0:0:0:0:
243,126,7360,1,0,0:0:0:0:
151,6,7527,37,0,0:0:0:0:
59,126,7695,21,0,0:0:0:0:
59,126,7779,1,0,0:0:0:0:
59,126,7862,1,0,0:0:0:0:
121,262,8030,5,0,0:0:0:0:
133,274,8114,1,0,0:0:0:0:
149,282,8198,1,0,0:0:0:0:
166,286,8281,1,0,0:0:0:0:
185,286,8365,38,0,P|220:271|249:215,1,75
271,95,8700,1,0,0:0:0:0:
388,189,8868,2,0,P|373:153|317:124,1,75
224,70,9203,1,0,0:0:0:0:
170,281,9371,2,0,P|158:244|182:186,1,75
224,70,9706,1,0,0:0:0:0:
247,218,9874,2,0,P|223:187|226:124,1,75
231,0,10209,1,0,0:0:0:0:
311,125,10376,2,0,P|278:104|259:44,1,75
159,183,10712,2,0,P|164:145|130:91,1,75
152,112,10963,1,0,0:0:0:0:
152,112,11047,22,0,P|186:125|223:120,1,75
357,51,11382,1,0,0:0:0:0:
280,180,11550,2,0,P|312:162|332:130,1,75
362,0,11885,1,0,0:0:0:0:
218,162,12052,2,0,P|216:199|233:232,1,75
340,339,12388,1,0,0:0:0:0:
195,303,12555,2,0,P|222:327|258:336,1,75
408,330,12890,1,0,0:0:0:0:
345,191,13058,5,0,0:0:0:0:
340,172,13142,1,0,0:0:0:0:
341,154,13225,1,0,0:0:0:0:
346,138,13309,1,0,0:0:0:0:
355,121,13393,37,0,0:0:0:0:
387,138,13478,1,0,0:0:0:0:
424,143,13562,1,0,0:0:0:0:
460,137,13645,1,0,0:0:0:0:
491,117,13728,2,0,P|507:32|462:0,1,150
333,71,14231,2,0,P|295:77|260:65,1,75
169,2,14566,1,0,0:0:0:0:
145,150,14734,2,0,P|144:187|162:219,1,75
235,307,15069,1,0,0:0:0:0:
259,159,15237,2,0,P|259:121|241:89,1,75
169,2,15572,1,0,0:0:0:0:
163,151,15739,6,0,P|208:179|264:149,1,112.5
258,82,16075,54,0,P|313:98|326:155,1,112.5
365,211,16410,70,0,P|308:223|259:149,1,150
296,12,16913,54,0,P|260:0|224:7,1,75
132,73,17248,1,0,0:0:0:0:
266,137,17415,2,0,P|301:148|337:141,1,75
430,80,17750,1,0,0:0:0:0:
343,8,17918,37,0,0:0:0:0:
266,137,18085,1,0,0:0:0:0:
418,137,18253,1,0,0:0:0:0:
343,8,18421,21,0,0:0:0:0:
264,88,18589,1,0,0:0:0:0:
343,168,18756,1,0,0:0:0:0:
430,80,18924,1,0,0:0:0:0:
447,228,19091,22,0,P|462:193|442:133,1,75
412,53,19426,1,0,0:0:0:0:
291,143,19594,2,0,P|254:154|199:120,1,75
136,70,19929,1,0,0:0:0:0:
96,215,20097,2,0,P|96:252|140:299,1,75
207,349,20432,1,0,0:0:0:0:
247,204,20600,2,0,P|246:166|202:119,1,75
144,58,20935,1,0,0:0:0:0:
281,122,21103,54,0,P|334:123|367:80,1,112.5
326,14,21439,54,0,P|380:-6|424:29,1,112.5
485,60,21773,6,0,P|456:85|393:67,1,75
309,71,22108,1,0,0:0:0:0:
214,188,22276,2,0,P|198:221|218:282,1,75
246,362,22611,1,0,0:0:0:0:
278,204,22779,2,0,P|276:166|255:136,1,75
169,71,23114,1,0,0:0:0:0:
311,114,23281,2,0,P|347:120|381:106,1,75
469,34,23617,1,0,0:0:0:0:
435,182,23784,5,0,0:0:0:0:
429,199,23868,1,0,0:0:0:0:
427,217,23952,1,0,0:0:0:0:
431,235,24035,1,0,0:0:0:0:
440,251,24119,5,0,0:0:0:0:
417,273,24203,1,0,0:0:0:0:
381,285,24287,1,0,0:0:0:0:
344,285,24371,1,0,0:0:0:0:
310,272,24455,54,0,P|264:227|268:173,1,89.9999972534181
261,68,24790,1,0,0:0:0:0:
423,143,24957,2,0,P|465:156|507:143,1,89.9999972534181
462,15,25293,1,0,0:0:0:0:
371,169,25460,2,0,P|353:209|362:253,1,89.9999972534181
436,367,25795,1,0,0:0:0:0:
278,279,25963,2,0,P|237:261|193:270,1,89.9999972534181
80,344,26298,1,0,0:0:0:0:
163,184,26466,54,0,P|173:116|101:86,1,134.999995880127
75,159,26801,70,0,P|23:121|35:58,1,134.999995880127
123,83,27136,38,0,P|205:89|222:8,1,179.999994506836
163,184,27639,2,0,P|203:201|247:192,1,89.9999972534181
355,111,27974,1,0,0:0:0:0:
289,250,28142,2,0,P|254:276|209:279,1,89.9999972534181
89,216,28477,1,0,0:0:0:0:
212,157,28645,53,0,0:0:0:0:
211,337,28813,1,0,0:0:0:0:
56,246,28980,1,0,0:0:0:0:
212,157,29148,69,0,0:0:0:0:
263,297,29316,1,0,0:0:0:0:
136,343,29483,1,0,0:0:0:0:
89,216,29651,1,0,0:0:0:0:
243,306,29818,38,0,P|287:311|326:290,1,89.9999972534181
421,195,30153,1,0,0:0:0:0:
266,102,30321,2,0,P|223:89|181:102,1,89.9999972534181
69,175,30656,1,0,0:0:0:0:
229,255,30823,2,0,P|241:212|228:170,1,89.9999972534181
150,59,31158,1,0,0:0:0:0:
310,141,31326,2,0,P|353:153|395:140,1,89.9999972534181
512,72,31661,1,0,0:0:0:0:
390,205,31829,54,0,P|362:268|424:315,1,134.999995880127
486,282,32164,70,0,P|501:344|451:384,1,134.999995880127
400,311,32499,38,0,P|337:295|302:321,1,89.9999972534181
205,380,32834,1,0,0:0:0:0:
263,209,33002,2,0,P|271:165|254:124,1,89.9999972534181
182,9,33337,1,0,0:0:0:0:
97,168,33505,2,0,P|81:209|90:253,1,89.9999972534181
145,376,33840,1,0,0:0:0:0:
290,269,34008,2,0,P|331:252|374:260,1,89.9999972534181
500,311,34343,1,0,0:0:0:0:
414,153,34510,2,0,P|404:109|419:67,1,89.9999972534181
505,227,34846,2,0,P|462:238|419:226,1,89.9999972534181
419,226,35097,1,0,0:0:0:0:
419,226,35181,70,0,P|394:294|430:357,1,150
499,224,35684,2,0,P|505:187|493:152,1,75
432,57,36019,1,0,0:0:0:0:
311,145,36186,2,0,P|275:156|239:150,1,75
139,97,36522,1,0,0:0:0:0:
48,215,36689,2,0,P|31:247|34:284,2,75
139,97,37192,6,0,P|193:101|230:142,1,112.5
161,173,37527,54,0,P|197:214|252:218,1,112.5
286,285,37862,70,0,P|332:229|309:161,1,150
161,173,38365,54,0,P|150:208|159:244,1,75
201,349,38700,1,0,0:0:0:0:
333,278,38868,2,0,P|369:269|404:279,1,75
508,324,39203,1,0,0:0:0:0:
426,197,39371,2,0,P|417:160|427:125,1,75
473,22,39706,1,0,0:0:0:0:
353,112,39874,70,0,P|301:132|251:111,1,112.5
301,54,40209,54,0,P|250:32|199:53,1,112.5
131,21,40544,54,0,P|124:57|137:92,1,75
195,188,40879,1,0,0:0:0:0:
328,119,41047,2,0,P|362:106|399:112,1,75
509,140,41382,1,0,0:0:0:0:
442,274,41550,2,0,P|435:310|448:345,1,75
448,345,41801,1,0,0:0:0:0:
448,345,41885,1,0,0:0:0:0:
301,317,42052,2,0,P|264:310|229:323,2,75
447,344,42555,54,0,P|435:290|463:243,1,112.5
400,203,42890,54,0,P|443:169|498:175,1,112.5
463,243,43226,70,0,P|400:278|337:243,1,150
292,100,43728,22,0,P|270:69|237:54,1,75
124,37,44064,1,0,0:0:0:0:
225,146,44231,2,0,P|257:164|294:164,1,75
402,132,44566,1,0,0:0:0:0:
280,43,44734,2,0,P|247:24|210:24,1,75
101,51,45069,1,0,0:0:0:0:
180,178,45237,2,0,P|189:213|180:249,1,75
85,366,45572,2,0,P|52:347|34:315,1,75
34,315,45823,1,0,0:0:0:0:
34,315,45907,22,0,P|98:283|105:211,1,150
47,72,46410,2,0,P|71:43|106:31,1,75
218,21,46745,1,0,0:0:0:0:
173,164,46913,2,0,P|163:199|172:235,1,75
233,331,47248,1,0,0:0:0:0:
371,274,47415,2,0,P|406:264|442:274,2,75
233,331,47918,70,0,P|177:335|135:301,1,112.5
60,310,48253,54,0,P|74:256|121:228,1,112.5
193,253,48589,70,0,P|172:183|103:164,1,150
60,310,49091,70,0,P|91:327|128:328,1,75
238,296,49427,1,0,0:0:0:0:
379,248,49594,2,0,P|415:247|447:266,1,75
447,266,49846,1,0,0:0:0:0:
447,266,49929,1,0,0:0:0:0:
334,365,50097,2,0,P|298:375|262:364,1,75
176,292,50432,1,0,0:0:0:0:
292,197,50600,54,0,P|326:153|321:99,1,112.5
254,132,50935,54,0,P|219:175|224:229,1,112.5
284,274,51270,38,0,P|255:298|219:303,1,75
106,303,51605,1,0,0:0:0:0:
175,169,51773,2,0,P|186:133|173:95,1,75
123,0,52108,1,0,0:0:0:0:
254,73,52276,2,0,P|289:84|328:71,1,75
425,23,52611,5,0,0:0:0:0:
439,44,52723,1,0,0:0:0:0:
444,70,52834,1,0,0:0:0:0:
422,115,52946,5,0,0:0:0:0:
409,166,53057,1,0,0:0:0:0:
416,216,53169,1,0,0:0:0:0:
440,259,53281,5,0,0:0:0:0:
417,265,53393,1,0,0:0:0:0:
389,262,53504,1,0,0:0:0:0:
345,236,53616,5,0,0:0:0:0:
295,223,53727,1,0,0:0:0:0:
244,230,53839,1,0,0:0:0:0:
196,247,53952,6,0,P|164:226|162:158,1,75
152,79,54287,1,0,0:0:0:0:
288,141,54455,6,0,P|323:147|357:134,1,75
443,59,54790,1,0,0:0:0:0:
388,198,54957,6,0,P|377:233|387:268,1,75
387,268,55209,1,0,0:0:0:0:
387,268,55293,2,0,L|448:269,7,37.5
406,215,55963,2,0,L|439:199,3,37.5
400,158,56298,2,0,L|422:130,4,25
370,108,56633,5,0,0:0:0:0:
214,65,57862,1,0,0:0:0:0:
188,120,57974,2,0,L|144:134,2,40
186,182,58309,2,0,L|153:213,2,40
211,239,58645,2,0,L|194:281,2,40
257,280,58980,2,0,L|259:325,2,40
316,297,59315,1,0,0:0:0:0:
316,297,60488,1,0,0:0:0:0:
316,297,60572,1,0,0:0:0:0:
316,297,60656,1,0,0:0:0:0:
325,66,61326,2,0,P|269:46|213:64,1,120
115,133,61996,5,0,0:0:0:0:
153,309,62332,2,0,P|163:274|155:240,1,60
91,84,63002,1,0,0:0:0:0:
181,159,63337,1,0,0:0:0:0:
332,77,63672,2,0,P|315:101|289:117,1,60
120,180,64343,1,0,0:0:0:0:
163,354,64678,6,0,P|170:325|164:295,1,60
142,239,65013,1,0,0:0:0:0:
104,286,65181,1,0,0:0:0:0:
63,205,65348,6,0,P|57:175|64:146,1,60
71,133,65600,1,0,0:0:0:0:
80,121,65684,1,0,0:0:0:0:
88,107,65767,2,0,L|62:90,1,30
101,112,65935,1,0,0:0:0:0:
115,115,66019,2,0,P|143:117|172:105,1,60
290,69,66354,2,0,P|295:98|288:127,1,60
248,252,66689,5,0,0:0:0:0:
244,266,66773,1,0,0:0:0:0:
242,281,66857,1,0,0:0:0:0:
243,296,66941,1,0,0:0:0:0:
246,310,67025,5,0,0:0:0:0:
227,317,67080,1,0,0:0:0:0:
207,320,67136,1,0,0:0:0:0:
187,317,67192,1,0,0:0:0:0:
168,308,67248,1,0,0:0:0:0:
151,296,67304,1,0,0:0:0:0:
134,285,67360,6,0,P|96:210|160:108,1,179.999994506836
286,216,67862,2,0,P|327:229|370:216,1,89.9999972534181
485,142,68198,1,0,0:0:0:0:
329,53,68365,2,0,P|287:40|202:77,1,134.999995880127
159,121,68700,2,0,P|117:137|74:127,2,89.9999972534181
112,78,69203,1,0,0:0:0:0:
276,161,69371,2,0,P|320:166|359:145,1,89.9999972534181
472,5,69706,2,0,P|489:45|479:89,1,89.9999972534181
367,230,70041,6,0,P|349:189|359:145,1,89.9999972534181
415,22,70376,1,0,0:0:0:0:
274,135,70544,2,0,P|233:152|189:142,1,89.9999972534181
74,71,70879,1,0,0:0:0:0:
131,242,71047,2,0,P|155:279|239:298,1,134.999995880127
299,270,71382,2,0,P|340:253|383:263,2,89.9999972534181
346,313,71885,1,0,0:0:0:0:
443,162,72052,2,0,P|456:119|442:77,1,89.9999972534181
277,152,72388,2,0,P|233:161|192:145,1,89.9999972534181
53,29,72723,6,0,P|25:64|23:108,1,89.9999972534181
71,234,73058,1,0,0:0:0:0:
223,137,73226,2,0,P|263:119|307:129,1,89.9999972534181
427,190,73561,1,0,0:0:0:0:
279,292,73728,2,0,P|236:305|194:292,1,89.9999972534181
71,234,74064,1,0,0:0:0:0:
223,137,74231,2,0,P|263:119|307:129,1,89.9999972534181
427,190,74566,1,0,0:0:0:0:
280,297,74734,2,0,P|256:259|257:215,1,89.9999972534181
296,39,75069,2,0,P|253:25|211:39,1,89.9999972534181
80,163,75404,6,0,P|66:205|80:247,1,89.9999972534181
165,352,75739,1,0,0:0:0:0:
252,194,75907,2,0,P|265:151|251:109,1,89.9999972534181
173,0,76242,1,0,0:0:0:0:
323,99,76410,6,0,P|353:111|436:55,1,119.999996337891
501,24,76745,2,0,P|478:0|379:16,1,119.999996337891
333,64,77080,6,0,P|321:94|376:177,1,119.999996337891
417,102,77415,6,0,P|451:149|439:206,1,119.999996337891
494,279,77751,6,0,P|443:308|387:292,1,119.999996337891
297,213,78086,6,0,P|257:192|213:198,1,89.9999972534181
100,272,78421,1,0,0:0:0:0:
261,351,78589,2,0,P|303:364|345:350,1,89.9999972534181
459,277,78924,1,0,0:0:0:0:
345,138,79091,6,0,P|322:84|346:30,1,119.999996337891
429,66,79427,6,0,P|379:97|323:83,1,119.999996337891
247,34,79762,6,0,P|190:19|141:51,1,119.999996337891
210,109,80097,6,0,P|224:165|192:214,1,119.999996337891
123,156,80432,6,0,P|91:205|105:261,1,119.999996337891
196,339,80767,6,0,P|238:352|280:338,1,89.9999972534181
398,269,81103,1,0,0:0:0:0:
237,189,81270,2,0,P|194:176|152:190,1,89.9999972534181
44,271,81605,1,0,0:0:0:0:
223,252,81773,2,0,P|266:245|298:215,1,89.9999972534181
336,85,82108,1,0,0:0:0:0:
155,85,82276,2,0,P|111:91|79:121,1,89.9999972534181
35,249,82611,1,0,0:0:0:0:
180,141,82779,2,0,P|206:105|207:61,1,89.9999972534181
43,137,83114,2,0,P|52:180|86:209,1,89.9999972534181
230,252,83449,5,0,0:0:0:0:
267,186,83617,1,0,0:0:0:0:
397,262,83784,5,0,0:0:0:0:
434,196,83952,1,0,0:0:0:0:
359,197,84119,2,0,P|366:161|392:134,1,75
393,134,84371,1,0,0:0:0:0:
393,134,84455,1,0,0:0:0:0:
471,130,84623,1,0,0:0:0:0:
339,58,84790,5,0,0:0:0:0:
269,39,84957,1,0,0:0:0:0:
201,64,85125,1,0,0:0:0:0:
159,124,85293,1,0,0:0:0:0:
302,124,85460,5,0,0:0:0:0:
339,58,85628,1,0,0:0:0:0:
376,123,85795,2,0,P|404:98|415:63,1,75
421,245,86299,5,0,0:0:0:0:
349,252,86467,1,0,0:0:0:0:
288,215,86634,1,0,0:0:0:0:
182,320,86801,6,0,P|141:258|141:184,1,150
157,111,87304,1,0,0:0:0:0:
262,216,87471,5,0,0:0:0:0:
307,154,87639,1,0,0:0:0:0:
371,290,87807,5,0,0:0:0:0:
385,214,87974,1,0,0:0:0:0:
501,311,88142,5,0,0:0:0:0:
481,236,88309,1,0,0:0:0:0:
430,288,88477,2,0,P|427:324|444:357,1,75
318,182,88979,5,0,0:0:0:0:
246,189,89147,1,0,0:0:0:0:
189,235,89315,1,0,0:0:0:0:
236,377,89483,6,0,P|162:387|95:355,1,150
46,299,89986,1,0,0:0:0:0:
120,166,90153,5,0,0:0:0:0:
86,234,90321,1,0,0:0:0:0:
19,100,90488,5,0,0:0:0:0:
52,168,90656,1,0,0:0:0:0:
118,45,90823,5,0,0:0:0:0:
52,168,90991,5,0,0:0:0:0:
19,99,91158,2,0,P|13:61|29:27,1,75
195,181,91661,5,0,0:0:0:0:
268,179,91829,1,0,0:0:0:0:
328,139,91997,1,0,0:0:0:0:
287,0,92164,6,0,P|226:41|198:110,1,150
195,181,92667,1,0,0:0:0:0:
330,117,92834,5,0,0:0:0:0:
285,179,93002,1,0,0:0:0:0:
431,213,93170,5,0,0:0:0:0:
364,250,93338,1,0,0:0:0:0:
481,342,93506,5,0,2:0:0:0:
464,336,93590,1,0,2:0:0:0:
445,334,93672,1,0,2:0:0:0:
426,337,93757,1,0,0:0:0:0:
409,345,93840,5,0,2:0:0:0:
378,366,93923,1,0,2:0:0:0:
340,370,94007,1,0,2:0:0:0:
303,359,94091,1,0,2:0:0:0:
271,338,94175,5,0,2:0:0:0:
256,192,94259,12,0,95181,0:0:0:0:
