osu file format v14

[General]
AudioFilename: audio.mp3
AudioLeadIn: 0
PreviewTime: 56054
Countdown: 0
SampleSet: Normal
StackLeniency: 0.7
Mode: 0
LetterboxInBreaks: 0
WidescreenStoryboard: 1

[Editor]
DistanceSpacing: 1.4
BeatDivisor: 4
GridSize: 8
TimelineZoom: 1.8

[Metadata]
Title:Battle! Rival
TitleUnicode:Battle! Rival
Artist:Junichi Masuda
ArtistUnicode:増田順一
Creator:megafanx3
Version:Normal
Source:Pokemon Heartgold/Soulsilver
Tags:HGSS Junichi Masuda Go Ichinose Gō Morikazu Aoki Sentou Heart Gold Soul Silver Nintendo DS Game Freak Creatures Inc TPCi Ken Sugimori Battle
BeatmapID:1503816
BeatmapSetID:626626

[Difficulty]
HPDrainRate:2
CircleSize:2.7
OverallDifficulty:3
ApproachRate:3
SliderMultiplier:0.8
SliderTickRate:1

[Events]
//Background and Video events
0,0,"pkmn__feraligatr_by_seiryuuden-d32mucr.png",0,0
//Break Periods
//Storyboard Layer 0 (Background)
//Storyboard Layer 1 (Fail)
//Storyboard Layer 2 (Pass)
//Storyboard Layer 3 (Foreground)
//Storyboard Sound Samples

[TimingPoints]
364,331.491712707182,4,1,0,60,1,0
37491,-100,4,1,0,40,0,0
42794,-100,4,1,0,60,0,0
53402,-100,4,1,0,50,0,0
58706,-100,4,1,0,70,0,1
69314,-100,4,1,0,50,0,0
71966,-100,4,1,0,40,0,0

[HitObjects]
104,312,364,6,0,P|192:296|248:168,1,240
136,176,1689,2,0,P|169:286|280:319,1,240
248,208,3015,6,0,L|336:200,1,80
384,200,3513,2,0,P|408:256|360:304,1,120
264,320,4341,2,0,P|248:344|240:368,2,40
296,280,4839,2,0,B|230:297|177:340,1,120
80,304,5667,6,0,L|136:224,1,80
120,184,6165,2,0,P|152:184|184:104,1,120
96,80,6993,1,0,0:0:0:0:
96,80,7159,2,0,L|64:168,1,80
88,208,7656,1,0,0:0:0:0:
192,232,7988,1,0,0:0:0:0:
216,128,8319,6,0,L|304:120,1,80
352,112,8817,2,0,P|408:96|456:56,1,120
480,168,9645,2,0,L|472:224,2,40
432,200,10143,2,0,L|408:336,1,120
328,248,10971,6,0,P|294:226|255:221,1,80
224,264,11468,2,0,L|184:136,1,120
80,112,12297,1,0,0:0:0:0:
80,112,12463,2,0,P|80:168|72:208,1,80
64,248,12960,1,0,0:0:0:0:
40,344,13292,1,0,0:0:0:0:
136,280,13623,6,0,L|232:288,1,80
192,224,14120,2,0,L|288:232,1,80
312,272,14618,1,0,0:0:0:0:
392,208,14949,2,0,P|408:176|400:128,2,80
368,224,15778,1,0,0:0:0:0:
296,160,16109,1,0,0:0:0:0:
296,160,16275,6,0,L|208:144,1,80
240,256,16938,2,0,L|224:344,1,80
336,312,17601,2,0,L|424:328,1,80
392,216,18264,2,0,L|407:128,1,80
360,40,18927,6,0,L|264:48,1,80
232,24,19424,2,0,L|136:32,1,80
112,64,19922,1,0,0:0:0:0:
56,80,20087,1,0,0:0:0:0:
24,128,20253,2,0,B|24:168|24:168|0:208,3,80
112,240,21579,6,0,P|152:272|184:280,1,80
256,360,22242,2,0,P|288:320|296:288,1,80
376,216,22905,2,0,P|336:184|304:176,1,80
232,96,23568,2,0,P|200:136|192:168,1,80
308,176,24231,6,0,L|476:200,1,160
448,312,25225,1,0,0:0:0:0:
336,296,25557,2,0,P|384:224|424:200,1,120
456,232,26220,2,0,P|408:304|368:328,1,120
328,304,26883,6,0,P|240:336|224:360,1,120
168,352,27546,1,0,0:0:0:0:
56,360,27877,1,0,0:0:0:0:
40,248,28209,2,0,L|128:216,1,80
208,160,28872,2,0,L|120:128,1,80
24,160,29535,6,0,P|24:112|168:16,1,240
248,96,30861,2,0,B|320:128|320:128|368:112,1,120
344,64,31524,2,0,B|383:50|383:50|455:82,1,120
464,136,32187,6,0,L|488:304,1,160
400,360,33181,1,0,0:0:0:0:
384,248,33513,2,0,P|352:192|304:168,2,120
288,312,34839,6,0,B|224:264|224:264|128:288,1,160
96,312,35667,2,0,L|104:352,2,40
88,256,36165,2,0,L|200:136,1,160
384,16,37491,6,0,L|432:88,1,80
376,184,38154,2,0,L|289:189,1,80
234,93,38817,2,0,L|272:15,1,80
336,112,39480,2,0,L|344:208,1,80
290,294,40143,6,0,L|203:299,1,80
148,203,40806,2,0,L|186:125,1,80
298,125,41469,2,0,L|346:196,1,80
230,204,42132,2,0,L|142:162,1,80
104,264,42794,6,0,B|72:248|72:248|16:320,1,120
64,344,43457,2,0,P|136:360|192:344,1,120
232,328,44120,2,0,P|280:312|352:336,1,120
392,360,44783,2,0,P|432:328|480:368,1,120
424,368,45446,6,0,L|448:240,1,120
504,240,46109,2,0,L|481:122,1,120
488,64,46772,2,0,B|448:40|448:40|368:48,1,120
320,64,47435,2,0,P|240:80|192:64,1,120
152,48,48098,5,0,0:0:0:0:
40,40,48430,1,0,0:0:0:0:
40,152,48761,2,0,P|72:208|88:224,1,80
176,280,49424,5,0,0:0:0:0:
80,336,49756,1,0,0:0:0:0:
192,368,50087,2,0,L|288:360,1,80
376,360,50750,5,0,0:0:0:0:
329,265,51082,1,0,0:0:0:0:
216,248,51413,1,0,0:0:0:0:
240,136,51745,1,0,0:0:0:0:
344,187,52076,6,0,L|328:272,1,80
216,248,52739,2,0,L|232:333,1,80
336,368,53402,5,0,0:0:0:0:
230,326,53734,1,0,0:0:0:0:
329,265,54065,1,0,0:0:0:0:
435,307,54397,1,0,0:0:0:0:
256,192,54728,12,0,56054,0:0:0:0:
224,328,57380,5,0,0:0:0:0:
224,328,58043,1,0,0:0:0:0:
224,328,58706,6,0,P|212:272|191:237,1,80
147,235,59203,2,0,L|198:165,1,80
240,142,59701,1,0,0:0:0:0:
360,152,60032,6,0,L|416:72,1,80
432,40,60529,2,0,B|488:24|488:24|504:40,1,80
512,96,61026,1,0,0:0:0:0:
464,200,61358,6,0,P|464:256|480:288,1,80
488,328,61855,2,0,L|408:360,1,80
360,360,62352,1,0,0:0:0:0:
376,248,62684,1,0,0:0:0:0:
288,192,63015,1,0,0:0:0:0:
184,168,63347,2,0,P|146:164|95:171,1,80
16,224,64010,1,0,0:0:0:0:
96,312,64341,5,0,0:0:0:0:
96,312,64507,2,0,L|176:344,1,80
224,344,65004,1,0,0:0:0:0:
312,304,65336,6,0,P|336:264|376:240,1,80
416,256,65833,2,0,P|438:296|439:343,1,80
384,344,66330,1,0,0:0:0:0:
256,360,66662,6,0,L|208:296,1,80
160,272,67159,2,0,L|80:312,1,80
32,320,67656,1,0,0:0:0:0:
40,184,67988,5,0,0:0:0:0:
24,128,68154,2,0,L|104:72,1,80
144,80,68651,2,0,L|168:88,8,20
256,192,69397,12,0,71966,0:0:0:0:
