osu file format v14

[General]
AudioFilename: audio.mp3
AudioLeadIn: 0
PreviewTime: 56054
Countdown: 0
SampleSet: Normal
StackLeniency: 0.7
Mode: 0
LetterboxInBreaks: 0
WidescreenStoryboard: 1

[Editor]
DistanceSpacing: 1.5
BeatDivisor: 4
GridSize: 8
TimelineZoom: 1.8

[Metadata]
Title:Battle! Rival
TitleUnicode:Battle! Rival
Artist:Junichi Masuda
ArtistUnicode:増田順一
Creator:megafanx3
Version:Hard
Source:Pokemon Heartgold/Soulsilver
Tags:HGSS Junichi Masuda Go Ichinose Gō Morikazu Aoki Sentou Heart Gold Soul Silver Nintendo DS Game Freak Creatures Inc TPCi Ken Sugimori Battle
BeatmapID:1510879
BeatmapSetID:626626

[Difficulty]
HPDrainRate:4
CircleSize:3
OverallDifficulty:6.5
ApproachRate:8
SliderMultiplier:1.2
SliderTickRate:1

[Events]
//Background and Video events
0,0,"pkmn__feraligatr_by_seiryuuden-d32mucr.png",0,0
//Break Periods
//Storyboard Layer 0 (Background)
//Storyboard Layer 1 (Fail)
//Storyboard Layer 2 (Pass)
//Storyboard Layer 3 (Foreground)
//Storyboard Sound Samples

[TimingPoints]
364,331.491712707182,4,1,0,60,1,0
37491,-100,4,1,0,40,0,0
42794,-100,4,1,0,60,0,0
53402,-100,4,1,0,50,0,0
58706,-83.3333333333333,4,1,0,70,0,1
69314,-100,4,1,0,50,0,0
71966,-100,4,1,0,40,0,0

[HitObjects]
96,328,364,6,0,L|88:288,6,30
104,264,1026,2,0,L|117:225,6,30
142,212,1689,2,0,L|172:185,6,30
208,192,2352,5,0,0:0:0:0:
280,240,2518,1,0,0:0:0:0:
280,240,2601,1,0,0:0:0:0:
280,240,2684,2,0,L|328:264,3,30
344,264,3015,6,0,L|392:208,1,60
360,136,3347,1,0,0:0:0:0:
280,144,3513,2,0,L|232:88,1,60
184,32,3844,1,0,0:0:0:0:
96,32,4010,2,0,P|64:32|32:40,1,60
72,112,4341,5,0,0:0:0:0:
96,240,4507,1,0,0:0:0:0:
144,168,4673,1,0,0:0:0:0:
184,240,4839,2,0,L|216:320,1,60
128,320,5170,1,0,0:0:0:0:
40,336,5336,2,0,L|17:280,1,60
40,163,5667,6,0,L|73:109,1,60
96,32,5999,1,0,0:0:0:0:
184,56,6165,2,0,L|192:128,1,60
200,200,6496,1,0,0:0:0:0:
136,264,6662,2,0,P|184:288|216:288,1,60
280,280,6993,5,0,0:0:0:0:
352,216,7159,2,0,L|400:152,1,60
440,96,7491,1,0,0:0:0:0:
360,32,7656,5,0,0:0:0:0:
288,96,7822,1,0,0:0:0:0:
208,48,7988,6,0,L|200:96,3,30
192,120,8319,6,0,L|176:192,1,60
152,264,8651,1,0,0:0:0:0:
232,312,8817,2,0,P|272:344|288:368,1,60
368,352,9148,1,0,0:0:0:0:
461,340,9314,2,0,L|432:288,1,60
512,264,9645,5,0,0:0:0:0:
384,224,9811,1,0,0:0:0:0:
464,192,9977,1,0,0:0:0:0:
488,104,10143,2,0,L|496:32,1,60
408,24,10474,1,0,0:0:0:0:
392,112,10640,2,0,P|352:144|320:144,1,60
272,88,10971,6,0,L|336:64,1,60
264,0,11303,1,0,0:0:0:0:
192,51,11468,2,0,L|180:118,1,60
272,88,11800,1,0,0:0:0:0:
256,176,11966,2,0,L|244:243,1,60
224,320,12297,5,0,0:0:0:0:
144,368,12463,2,0,L|80:336,1,60
8,352,12794,1,0,0:0:0:0:
40,264,12960,5,0,0:0:0:0:
136,264,13126,1,0,0:0:0:0:
144,168,13292,2,0,L|104:184,3,30
72,184,13623,6,0,L|32:120,1,60
0,56,13955,1,0,0:0:0:0:
88,56,14120,2,0,L|152:64,1,60
216,128,14452,2,0,P|224:176|216:200,2,60
296,96,14949,2,0,P|304:128|304:176,1,60
221,186,15281,2,0,P|189:193|140:194,1,60
120,112,15612,1,0,0:0:0:0:
176,32,15778,1,0,0:0:0:0:
272,16,15944,1,0,0:0:0:0:
360,40,16109,1,0,0:0:0:0:
384,128,16275,6,0,L|392:160,4,30
448,64,16772,1,0,0:0:0:0:
360,40,16938,2,0,L|336:62,4,30
448,64,17435,1,0,0:0:0:0:
504,136,17601,6,0,L|512:200,1,60
504,288,17933,2,0,L|496:352,1,60
408,360,18264,1,0,0:0:0:0:
328,320,18430,1,0,0:0:0:0:
248,360,18596,1,0,0:0:0:0:
184,296,18761,1,0,0:0:0:0:
264,256,18927,6,0,P|296:240|336:232,2,60
192,200,19424,2,0,L|144:152,1,60
80,104,19756,1,0,0:0:0:0:
168,72,19922,1,0,0:0:0:0:
240,128,20087,1,0,0:0:0:0:
256,40,20253,6,0,P|296:32|328:40,1,60
344,120,20584,2,0,P|357:158|392:184,1,60
448,128,20916,1,0,0:0:0:0:
480,208,21082,2,0,P|496:256|488:288,1,60
408,248,21413,1,0,0:0:0:0:
320,248,21579,6,0,P|264:280|240:336,1,120
152,336,22076,1,0,0:0:0:0:
152,336,22242,2,0,B|144:272|144:272|160:192,1,120
216,152,22739,1,0,0:0:0:0:
128,136,22905,6,0,P|88:168|80:200,2,60
160,224,23402,1,0,0:0:0:0:
296,232,23568,2,0,L|328:192,2,30
312,160,23899,2,0,L|280:120,2,30
264,96,24231,6,0,P|200:72|192:72,1,60
144,136,24562,2,0,L|64:144,1,60
24,72,24894,1,0,0:0:0:0:
112,56,25060,1,0,0:0:0:0:
200,40,25225,2,0,L|232:112,1,60
264,168,25557,6,0,P|280:216|280:248,1,60
288,304,25888,2,0,P|336:336|352:328,1,60
416,296,26220,2,0,L|464:240,1,60
376,216,26551,2,0,L|328:160,1,60
288,96,26883,5,0,0:0:0:0:
288,96,27049,2,0,L|352:80,1,60
432,56,27380,1,0,0:0:0:0:
480,136,27546,2,0,P|488:184|480:216,1,60
472,288,27877,2,0,P|427:308|394:308,1,60
328,280,28209,5,0,0:0:0:0:
256,336,28375,1,0,0:0:0:0:
243,245,28540,2,0,L|288:264,2,30
160,216,28872,1,0,0:0:0:0:
147,125,29038,1,0,0:0:0:0:
232,159,29203,2,0,L|193:188,2,30
312,112,29535,6,0,P|328:64|312:48,1,60
240,40,29866,2,0,L|160:24,1,60
88,24,30198,1,0,0:0:0:0:
96,112,30363,1,0,0:0:0:0:
104,200,30529,2,0,P|112:240|136:280,1,60
208,320,30861,6,0,L|144:336,1,60
64,344,31192,2,0,P|40:312|40:280,1,60
39,203,31524,2,0,L|47:131,1,60
88,64,31855,2,0,L|72:0,1,60
24,88,32187,5,0,0:0:0:0:
24,88,32352,2,0,L|56:168,1,60
88,224,32684,5,0,0:0:0:0:
144,152,32850,2,0,L|176:96,1,60
240,160,33181,1,0,0:0:0:0:
330,172,33347,2,0,L|400:176,1,60
488,176,33678,1,0,0:0:0:0:
464,80,33844,2,0,L|404:76,1,60
320,72,34176,5,0,0:0:0:0:
232,64,34341,1,0,0:0:0:0:
192,144,34507,2,0,L|200:192,2,30
280,216,34839,5,0,0:0:0:0:
352,264,35004,2,0,P|328:304|328:336,1,60
416,320,35336,5,0,0:0:0:0:
472,248,35502,1,0,0:0:0:0:
440,160,35667,1,0,0:0:0:0:
352,152,35833,1,0,0:0:0:0:
383,239,35998,1,0,0:0:0:0:
320,304,36165,6,0,L|272:240,1,60
208,288,36496,2,0,L|224:360,1,60
128,344,36828,1,0,0:0:0:0:
104,256,36993,1,0,0:0:0:0:
176,200,37159,2,0,L|192:160,2,30
208,128,37491,6,0,L|272:96,3,60
288,184,38154,2,0,L|341:210,3,60
368,128,38817,2,0,L|432:96,1,60
448,184,39148,2,0,L|501:210,1,60
432,272,39480,1,0,0:0:0:0:
368,336,39645,1,0,0:0:0:0:
304,272,39811,1,0,0:0:0:0:
368,208,39976,1,0,0:0:0:0:
432,144,40143,6,0,L|384:96,3,60
328,40,40805,2,0,L|262:57,3,60
208,120,41468,2,0,L|190:185,3,60
168,264,42131,2,0,L|200:288,6,30
232,296,42794,6,0,P|256:304|296:304,1,60
352,240,43126,1,0,0:0:0:0:
320,152,43292,1,0,0:0:0:0:
408,168,43457,2,0,L|440:240,1,60
480,304,43789,1,0,0:0:0:0:
480,304,43955,1,0,0:0:0:0:
400,344,44120,6,0,P|360:360|320:344,1,60
360,272,44452,2,0,P|366:229|400:202,1,60
424,144,44783,2,0,P|417:101|384:74,1,60
336,144,45115,1,0,0:0:0:0:
240,136,45281,1,0,0:0:0:0:
288,56,45446,6,0,P|240:48|208:48,1,60
144,72,45778,2,0,P|96:80|64:80,1,60
8,32,46109,1,0,0:0:0:0:
16,120,46275,1,0,0:0:0:0:
16,120,46441,2,0,L|48:184,1,60
96,248,46772,5,0,0:0:0:0:
96,248,46938,2,0,L|128:184,1,60
168,112,47270,1,0,0:0:0:0:
208,192,47435,1,0,0:0:0:0:
248,112,47601,1,0,0:0:0:0:
248,112,47767,2,0,L|288:40,1,60
360,96,48098,5,0,0:0:0:0:
472,152,48430,2,0,P|444:204|416:224,1,80
400,160,48761,2,0,P|371:187|357:224,1,80
352,288,49093,1,0,0:0:0:0:
176,288,49314,6,0,L|136:272,1,40
24,232,49756,2,0,P|64:168|96:160,1,80
88,112,50087,2,0,P|123:178|114:210,1,80
88,224,50419,1,0,0:0:0:0:
200,176,50750,6,0,L|216:64,1,80
176,48,51082,2,0,L|288:64,1,80
304,24,51413,2,0,L|288:135,1,80
328,151,51745,2,0,L|216:135,1,80
224,200,52076,6,0,L|303:211,1,80
351,174,52408,2,0,L|339:253,1,80
375,302,52740,2,0,L|295:290,1,80
247,326,53071,2,0,L|258:246,1,80
272,184,53402,5,0,0:0:0:0:
176,120,53734,1,0,0:0:0:0:
120,224,54065,1,0,0:0:0:0:
57,123,54397,6,0,L|48:88,2,30
72,56,54728,6,0,L|97:30,2,30
136,32,55060,2,0,L|170:41,2,30
208,48,55391,1,0,0:0:0:0:
296,56,55557,1,0,0:0:0:0:
384,64,55723,1,0,0:0:0:0:
472,80,55888,1,0,0:0:0:0:
408,144,56054,6,0,L|376:176,2,30
280,216,56717,2,0,L|312:248,2,30
200,136,57380,2,0,L|221:114,2,30
112,128,57712,1,0,0:0:0:0:
112,128,58043,5,0,0:0:0:0:
200,136,58209,1,0,0:0:0:0:
288,144,58375,1,0,0:0:0:0:
376,152,58541,1,0,0:0:0:0:
339,240,58706,6,0,L|307:311,1,71.9999978027344
213,319,59038,1,0,0:0:0:0:
107,291,59203,2,0,P|118:257|160:232,1,71.9999978027344
244,217,59535,1,0,0:0:0:0:
323,138,59701,2,0,L|317:67,1,71.9999978027344
410,59,60032,6,0,L|418:154,1,71.9999978027344
426,232,60363,1,0,0:0:0:0:
331,225,60529,2,0,L|339:319,1,71.9999978027344
268,343,60861,1,0,0:0:0:0:
237,264,61026,1,0,0:0:0:0:
150,272,61192,1,0,0:0:0:0:
150,272,61358,6,0,P|126:232|95:209,1,71.9999978027344
63,295,61689,1,0,0:0:0:0:
111,366,61855,2,0,L|192:350,1,71.9999978027344
260,295,62187,1,0,0:0:0:0:
346,228,62352,2,0,L|300:158,1,71.9999978027344
235,168,62684,6,0,P|305:168|329:161,1,71.9999978027344
402,122,63015,1,0,0:0:0:0:
457,217,63181,1,0,0:0:0:0:
386,295,63347,5,0,0:0:0:0:
386,295,63513,1,0,0:0:0:0:
386,295,63678,2,0,L|426:335,2,35.9999989013672
457,351,64010,6,0,L|481:280,1,71.9999978027344
497,177,64341,2,0,L|481:103,1,71.9999978027344
402,43,64673,1,0,0:0:0:0:
402,154,64839,1,0,0:0:0:0:
307,95,65004,2,0,P|307:158|299:197,1,71.9999978027344
224,136,65336,5,0,2:0:0:0:
224,136,65502,2,0,P|208:138|142:173,1,71.9999978027344,0|0,2:0|2:0,2:0:0:0:
221,248,65833,1,0,0:0:0:0:
300,319,65999,2,0,L|384:344,1,71.9999978027344
376,248,66330,1,0,0:0:0:0:
287,220,66496,1,0,0:0:0:0:
287,220,66662,6,0,L|193:259,1,71.9999978027344
136,280,66993,1,0,0:0:0:0:
56,328,67159,2,0,P|45:265|56:235,1,71.9999978027344
87,185,67491,1,0,0:0:0:0:
176,144,67656,2,0,L|271:104,1,71.9999978027344
336,88,67988,5,0,0:0:0:0:
407,167,68154,1,0,0:0:0:0:
485,96,68319,1,0,0:0:0:0:
415,17,68485,1,0,0:0:0:0:
344,96,68651,5,0,0:0:0:0:
344,96,68817,1,0,0:0:0:0:
344,96,68982,2,0,L|320:127,2,35.9999989013672
256,192,69314,12,0,71966,0:0:0:0:
