osu file format v14

[General]
AudioFilename: audio.mp3
AudioLeadIn: 0
PreviewTime: 56054
Countdown: 0
SampleSet: Normal
StackLeniency: 0.7
Mode: 0
LetterboxInBreaks: 0
WidescreenStoryboard: 1

[Editor]
DistanceSpacing: 1.4
BeatDivisor: 2
GridSize: 8
TimelineZoom: 1.8

[Metadata]
Title:Battle! Rival
TitleUnicode:Battle! Rival
Artist:Junichi Masuda
ArtistUnicode:増田順一
Creator:megafanx3
Version:Easy
Source:Pokemon Heartgold/Soulsilver
Tags:HGSS Junichi Masuda Go Ichinose Gō Morikazu Aoki Sentou Heart Gold Soul Silver Nintendo DS Game Freak Creatures Inc TPCi Ken Sugimori Battle
BeatmapID:1497978
BeatmapSetID:626626

[Difficulty]
HPDrainRate:1
CircleSize:2
OverallDifficulty:1
ApproachRate:2
SliderMultiplier:0.7
SliderTickRate:1

[Events]
//Background and Video events
0,0,"pkmn__feraligatr_by_seiryuuden-d32mucr.png",0,0
//Break Periods
//Storyboard Layer 0 (Background)
//Storyboard Layer 1 (Fail)
//Storyboard Layer 2 (Pass)
//Storyboard Layer 3 (Foreground)
//Storyboard Sound Samples

[TimingPoints]
364,331.491712707182,4,1,0,60,1,0
37491,-100,4,1,0,40,0,0
42794,-100,4,1,0,60,0,0
53402,-100,4,1,0,50,0,0
58706,-100,4,1,0,70,0,1
69314,-100,4,1,0,50,0,0
71966,-100,4,1,0,40,0,0

[HitObjects]
88,304,364,6,0,P|128:264|96:56,1,280
48,176,2352,1,0,0:0:0:0:
8,88,2684,1,0,0:0:0:0:
96,56,3015,6,0,B|170:43|162:115|162:115|210:67|250:123,1,210
272,208,4341,2,0,P|320:248|352:144,1,210
344,48,5667,2,0,B|448:48|448:48|472:152,1,210
464,248,6993,2,0,P|424:304|392:328,2,105
392,176,8319,6,0,B|336:200|320:248|320:248|264:224|208:248,1,210
128,200,9645,2,0,P|72:216|120:328,1,210
208,352,10971,2,0,B|256:256|256:256|208:152,1,210
128,112,12297,2,0,P|72:120|24:144,2,105
224,104,13623,6,0,P|288:112|360:232,1,210
288,296,14949,1,0,0:0:0:0:
96,304,15612,1,0,0:0:0:0:
0,128,16275,6,0,P|32:56|96:24,1,140
232,152,17601,2,0,P|296:152|360:104,1,140
496,200,18927,6,0,L|384:384,1,210
320,304,20253,1,0,0:0:0:0:
136,384,20916,1,0,0:0:0:0:
171,189,21579,6,0,P|215:207|167:111,1,280
48,256,23568,1,0,0:0:0:0:
216,152,24231,6,0,P|256:80|256:8,1,140
64,24,25557,2,0,P|32:96|32:168,1,140
80,344,26883,1,0,0:0:0:0:
120,152,27546,1,0,0:0:0:0:
304,216,28209,6,0,L|384:248,1,70
312,320,28872,2,0,L|247:294,1,70
168,232,29535,6,0,P|168:152|320:32,1,280
376,216,31524,1,0,0:0:0:0:
240,360,32187,6,0,P|160:365|117:328,1,140
72,136,33513,1,0,0:0:0:0:
264,104,34176,1,0,0:0:0:0:
432,208,34839,6,0,B|488:200|488:136|448:104|448:104|400:64|400:64|472:16,1,280
272,0,36828,1,0,0:0:0:0:
159,158,37491,6,0,P|183:254|287:166,1,280
341,299,40143,2,0,P|412:230|283:184,1,280
160,328,42131,1,0,0:0:0:0:
224,144,42794,6,0,P|127:168|117:202,1,140
144,336,44120,2,0,L|272:280,1,140
448,200,45446,6,0,P|512:224|504:296,2,140
344,368,47435,1,0,0:0:0:0:
152,344,48098,6,0,B|208:216|208:216|288:184,1,210
352,248,49424,2,0,P|408:200|336:112,1,210
248,144,50750,2,0,L|104:200,2,140
504,16,52739,1,0,0:0:0:0:
504,208,53402,6,0,P|488:264|416:320,1,140
232,344,54728,2,0,L|296:208,1,140
376,40,56054,5,0,0:0:0:0:
272,200,56717,1,0,0:0:0:0:
80,160,57380,1,0,0:0:0:0:
136,344,58043,1,0,0:0:0:0:
184,152,58706,6,0,P|160:96|128:64,2,105
136,240,60032,2,0,P|196:247|240:235,2,105
88,152,61358,2,0,P|51:200|39:244,2,105
168,88,62684,5,0,0:0:0:0:
304,152,63181,1,0,0:0:0:0:
224,272,63678,1,0,0:0:0:0:
168,184,64010,6,0,P|117:278|165:358,1,210
224,272,65336,2,0,B|320:240|320:240|432:288,1,210
512,320,66662,2,0,B|416:280|416:280|504:216,1,210
456,128,67988,5,0,0:0:0:0:
320,64,68485,1,0,0:0:0:0:
232,176,68982,1,0,0:0:0:0:
256,192,69314,12,0,71966,0:0:0:0:
