osu file format v14

[General]
AudioFilename: audio.mp3
AudioLeadIn: 0
PreviewTime: 56054
Countdown: 0
SampleSet: Normal
StackLeniency: 0.7
Mode: 0
LetterboxInBreaks: 0
WidescreenStoryboard: 1

[Editor]
DistanceSpacing: 1.8
BeatDivisor: 4
GridSize: 8
TimelineZoom: 3.999998

[Metadata]
Title:Battle! Rival
TitleUnicode:Battle! Rival
Artist:Junichi Masuda
ArtistUnicode:増田順一
Creator:megafanx3
Version:Insane
Source:Pokemon Heartgold/Soulsilver
Tags:HGSS Junichi Masuda Go Ichinose Gō Morikazu Aoki Sentou Heart Gold Soul Silver Nintendo DS Game Freak Creatures Inc TPCi Ken Sugimori Battle
BeatmapID:1481530
BeatmapSetID:626626

[Difficulty]
HPDrainRate:5
CircleSize:3.8
OverallDifficulty:7.5
ApproachRate:9
SliderMultiplier:1.6
SliderTickRate:1

[Events]
//Background and Video events
0,0,"pkmn__feraligatr_by_seiryuuden-d32mucr.png",0,0
//Break Periods
//Storyboard Layer 0 (Background)
//Storyboard Layer 1 (Fail)
//Storyboard Layer 2 (Pass)
//Storyboard Layer 3 (Foreground)
//Storyboard Sound Samples

[TimingPoints]
364,331.491712707182,4,1,0,60,1,0
364,-125,4,1,0,60,0,0
2352,-100,4,1,0,60,0,0
3015,-83.3333333333333,4,1,0,60,0,0
13623,-66.6666666666667,4,1,0,60,0,0
16607,-100,4,1,0,60,0,0
18596,-66.6666666666667,4,1,0,60,0,0
18927,-66.6666666666667,4,1,0,60,0,0
21579,-100,4,1,0,60,0,0
24231,-66.6666666666667,4,1,0,60,0,0
37491,-100,4,1,0,40,0,0
40143,-133.333333333333,4,1,0,40,0,0
42794,-66.6666666666667,4,1,0,60,0,0
53402,-66.6666666666667,4,1,0,50,0,0
56054,-100,4,1,0,50,0,0
58706,-66.6666666666667,4,1,0,70,0,1
69314,-66.6666666666667,4,1,0,50,0,0
71966,-100,4,1,0,40,0,0

[HitObjects]
74,65,198,5,0,0:0:0:0:
207,78,364,5,0,0:0:0:0:
235,92,446,1,0,0:0:0:0:
258,114,529,1,0,0:0:0:0:
274,141,612,1,0,0:0:0:0:
281,172,695,2,0,L|256:214,3,32
232,247,1026,5,0,0:0:0:0:
205,264,1108,1,0,0:0:0:0:
175,273,1191,1,0,0:0:0:0:
143,273,1274,1,0,0:0:0:0:
112,264,1358,2,0,L|89:221,3,32
105,177,1689,5,0,0:0:0:0:
116,165,1771,1,0,0:0:0:0:
127,154,1854,1,0,0:0:0:0:
138,142,1937,1,0,0:0:0:0:
150,131,2020,1,0,0:0:0:0:
161,120,2103,1,0,0:0:0:0:
172,108,2186,1,0,0:0:0:0:
183,97,2269,1,0,0:0:0:0:
195,86,2352,6,0,P|235:67|297:83,1,80
341,84,2601,1,0,0:0:0:0:
360,98,2683,1,0,0:0:0:0:
374,117,2766,1,0,0:0:0:0:
382,140,2849,1,0,0:0:0:0:
384,163,2932,1,0,0:0:0:0:
378,187,3015,6,0,L|319:295,1,95.9999970703126
246,354,3347,1,0,0:0:0:0:
244,342,3429,1,0,0:0:0:0:
242,330,3512,1,0,0:0:0:0:
219,190,3678,5,0,0:0:0:0:
110,280,3844,1,0,0:0:0:0:
190,265,4010,1,0,0:0:0:0:
81,175,4176,5,0,0:0:0:0:
81,175,4259,1,0,0:0:0:0:
81,175,4341,2,0,P|120:113|166:81,1,95.9999970703126
243,48,4673,1,0,0:0:0:0:
253,54,4755,1,0,0:0:0:0:
263,60,4838,1,0,0:0:0:0:
400,220,5004,5,0,0:0:0:0:
282,196,5170,1,0,0:0:0:0:
472,160,5336,1,0,0:0:0:0:
354,136,5502,1,0,0:0:0:0:
400,220,5667,6,0,B|419:272|419:272|424:334,1,95.9999970703126
309,345,5999,1,0,0:0:0:0:
302,334,6081,1,0,0:0:0:0:
296,324,6164,1,0,0:0:0:0:
171,264,6330,5,0,0:0:0:0:
270,156,6496,1,0,0:0:0:0:
127,125,6662,1,0,0:0:0:0:
235,224,6828,1,0,0:0:0:0:
118,119,6993,6,0,P|69:93|-12:112,1,95.9999970703126
53,168,7325,1,0,0:0:0:0:
97,25,7491,1,0,0:0:0:0:
198,134,7656,6,0,P|219:159|229:197,3,47.9999985351563
156,191,7988,2,0,P|166:212|182:229,3,47.9999985351563
224,172,8319,6,0,B|262:212|262:212|244:289,1,95.9999970703126
222,366,8651,1,0,0:0:0:0:
224,354,8733,1,0,0:0:0:0:
227,342,8816,1,0,0:0:0:0:
262,213,8982,5,0,0:0:0:0:
179,260,9148,1,0,0:0:0:0:
309,295,9314,1,0,0:0:0:0:
215,131,9480,1,0,0:0:0:0:
132,178,9645,6,0,P|73:225|44:272,2,95.9999970703126
151,189,10060,1,0,0:0:0:0:
151,189,10143,1,0,0:0:0:0:
128,316,10308,5,0,0:0:0:0:
78,240,10474,1,0,0:0:0:0:
55,367,10639,1,0,0:0:0:0:
5,291,10805,1,0,0:0:0:0:
133,322,10971,6,0,P|204:361|262:361,1,95.9999970703126
364,357,11303,1,0,0:0:0:0:
373,352,11386,1,0,0:0:0:0:
382,348,11468,2,0,P|414:299|418:235,1,95.9999970703126
412,88,11800,5,0,0:0:0:0:
318,167,11966,1,0,0:0:0:0:
434,209,12131,1,0,0:0:0:0:
456,330,12297,6,0,L|362:306,1,95.9999970703126
174,258,12629,2,0,L|240:275,2,47.9999985351563
362,306,12960,5,0,0:0:0:0:
384,315,13042,1,0,0:0:0:0:
404,327,13125,1,0,0:0:0:0:
423,342,13208,1,0,0:0:0:0:
439,360,13291,5,0,0:0:0:0:
444,336,13374,1,0,0:0:0:0:
452,313,13457,1,0,0:0:0:0:
464,293,13540,1,0,0:0:0:0:
479,275,13623,6,0,P|498:218|487:152,1,120.000004577637
442,70,13955,1,0,0:0:0:0:
424,215,14120,2,0,B|399:266|399:266|356:321,1,120.000004577637
247,227,14452,5,0,0:0:0:0:
247,227,14535,1,0,0:0:0:0:
247,227,14618,2,0,P|271:239|291:269,3,60.0000022888184
299,294,14949,6,0,P|336:336|420:343,1,120.000004577637
484,227,15281,1,0,0:0:0:0:
484,227,15363,1,0,0:0:0:0:
484,227,15446,1,0,0:0:0:0:
369,117,15612,6,0,P|347:96|311:88,3,60.0000022888184
280,93,15944,1,0,0:0:0:0:
272,121,16026,1,0,0:0:0:0:
254,145,16109,1,0,0:0:0:0:
46,166,16275,5,0,0:0:0:0:
46,166,16358,1,0,0:0:0:0:
46,166,16441,1,0,0:0:0:0:
46,166,16524,1,0,0:0:0:0:
46,166,16607,2,0,L|28:272,1,80
167,201,16938,5,0,0:0:0:0:
167,201,17021,1,0,0:0:0:0:
167,201,17104,1,0,0:0:0:0:
167,201,17187,1,0,0:0:0:0:
167,201,17270,2,0,L|185:306,1,80
336,228,17601,5,0,0:0:0:0:
257,176,17767,1,0,0:0:0:0:
179,124,17933,2,0,L|185:7,1,80
264,56,18264,2,0,L|258:173,1,80
167,131,18596,2,0,L|177:-34,1,120.000004577637
269,63,18927,6,0,L|276:182,1,120.000004577637
289,298,19259,1,0,0:0:0:0:
298,286,19341,1,0,0:0:0:0:
310,275,19424,2,0,P|369:226|431:201,1,120.000004577637
482,147,19756,5,0,0:0:0:0:
479,132,19838,1,0,0:0:0:0:
479,116,19922,2,0,P|475:68|480:44,3,60.0000022888184
498,26,20253,6,0,P|469:16|380:59,1,120.000004577637
333,140,20584,5,0,0:0:0:0:
326,153,20666,1,0,0:0:0:0:
317,165,20749,1,0,0:0:0:0:
213,105,20916,5,0,0:0:0:0:
227,103,20998,1,0,0:0:0:0:
242,105,21081,1,0,0:0:0:0:
243,224,21247,5,0,0:0:0:0:
234,212,21329,1,0,0:0:0:0:
228,198,21412,1,0,0:0:0:0:
226,183,21495,1,0,0:0:0:0:
227,166,21579,6,0,P|229:107|211:69,1,80
153,134,21910,1,0,0:0:0:0:
153,134,22242,2,0,L|131:232,1,80
117,290,22573,1,0,0:0:0:0:
117,290,22739,1,0,0:0:0:0:
195,307,22905,6,0,L|293:329,1,80
299,252,23236,2,0,L|220:234,1,80
145,219,23568,1,0,0:0:0:0:
127,202,23650,1,0,0:0:0:0:
116,181,23733,1,0,0:0:0:0:
113,157,23816,1,0,0:0:0:0:
116,132,23899,2,0,P|120:98|108:75,3,40
42,107,24231,6,0,P|38:198|58:252,1,120.000004577637
141,298,24562,1,0,0:0:0:0:
116,181,24728,1,0,0:0:0:0:
58,338,24894,1,0,0:0:0:0:
151,297,25060,1,0,0:0:0:0:
58,350,25225,2,0,L|189:372,1,120.000004577637
334,345,25557,6,0,L|356:214,1,120.000004577637
420,367,25888,2,0,L|442:236,1,120.000004577637
452,118,26220,5,0,0:0:0:0:
451,94,26302,1,0,0:0:0:0:
438,74,26385,1,0,0:0:0:0:
417,62,26468,1,0,0:0:0:0:
394,63,26551,1,0,0:0:0:0:
361,78,26633,1,0,0:0:0:0:
339,106,26716,1,0,0:0:0:0:
332,141,26799,1,0,0:0:0:0:
342,175,26883,6,0,L|371:227,2,60.0000022888184
233,164,27214,2,0,L|304:294,1,120.000004577637
349,348,27546,1,0,0:0:0:0:
497,361,27712,1,0,0:0:0:0:
393,272,27877,1,0,0:0:0:0:
436,170,28043,1,0,0:0:0:0:
481,279,28209,6,0,L|330:268,1,120.000004577637
245,258,28540,2,0,L|224:293,3,40.000001525879
160,361,28872,1,0,0:0:0:0:
144,228,29038,1,0,0:0:0:0:
245,258,29203,2,0,L|314:281,2,60.0000022888184
278,194,29535,6,0,B|369:227|369:227|407:216,1,120.000004577637
454,183,29783,1,0,0:0:0:0:
472,172,29866,2,0,B|486:132|435:132|435:132|379:170,1,120.000004577637
247,235,30198,1,0,0:0:0:0:
327,146,30363,1,0,0:0:0:0:
207,137,30529,1,0,0:0:0:0:
287,48,30695,1,0,0:0:0:0:
327,146,30861,6,0,P|398:202|472:180,1,120.000004577637
405,128,31192,2,0,P|461:57|439:-17,1,120.000004577637
335,41,31524,5,0,0:0:0:0:
311,44,31606,1,0,0:0:0:0:
287,48,31689,1,0,0:0:0:0:
263,52,31772,1,0,0:0:0:0:
240,56,31855,1,0,0:0:0:0:
204,60,31937,1,0,0:0:0:0:
168,57,32020,1,0,0:0:0:0:
134,45,32103,1,0,0:0:0:0:
104,26,32187,6,0,L|55:119,1,60.0000022888184
47,118,32352,2,0,P|44:200|108:250,1,120.000004577637
178,233,32684,5,0,0:0:0:0:
144,104,32850,2,0,L|130:28,2,60.0000022888184
96,185,33181,5,0,0:0:0:0:
225,151,33347,2,0,L|301:137,2,60.0000022888184
144,104,33678,5,0,0:0:0:0:
178,233,33844,2,0,L|192:309,2,60.0000022888184
225,151,34175,5,0,0:0:0:0:
197,162,34258,1,0,0:0:0:0:
168,170,34341,1,0,0:0:0:0:
139,177,34424,1,0,0:0:0:0:
110,181,34507,2,0,L|31:185,3,60.0000022888184
25,216,34839,5,0,0:0:0:0:
25,216,34922,1,0,0:0:0:0:
25,216,35004,2,0,B|38:126|38:126|26:65,1,120.000004577637
18,19,35336,1,0,0:0:0:0:
98,72,35502,1,0,0:0:0:0:
103,86,35585,1,0,0:0:0:0:
107,101,35668,1,0,0:0:0:0:
110,181,35833,6,0,L|91:310,1,120.000004577637
187,329,36165,2,0,P|168:293|87:261,1,120.000004577637
148,384,36496,2,0,P|92:364|59:315,1,120.000004577637
187,241,36828,1,0,0:0:0:0:
45,384,36993,1,0,0:0:0:0:
73,258,37159,5,0,0:0:0:0:
89,282,37241,1,0,0:0:0:0:
106,307,37324,1,0,0:0:0:0:
123,332,37407,1,0,0:0:0:0:
140,357,37491,6,0,L|240:343,1,80
204,276,37822,2,0,L|304:262,1,80
219,345,38154,5,0,0:0:0:0:
283,264,38319,1,0,0:0:0:0:
298,333,38485,1,0,0:0:0:0:
362,252,38651,1,0,0:0:0:0:
272,185,38817,5,0,0:0:0:0:
283,264,38982,1,0,0:0:0:0:
373,331,39148,1,0,0:0:0:0:
362,252,39314,1,0,0:0:0:0:
272,185,39480,5,0,0:0:0:0:
126,286,39645,1,0,0:0:0:0:
205,275,39811,1,0,0:0:0:0:
193,196,39977,1,0,0:0:0:0:
114,208,40143,6,0,P|70:176|69:96,1,120.000004577637
211,47,40805,2,0,L|282:96,1,60.0000022888184
289,43,41137,2,0,L|326:121,1,60.0000022888184
359,80,41468,2,0,L|352:166,3,60.0000022888184
344,222,42131,5,0,0:0:0:0:
342,244,42213,1,0,0:0:0:0:
333,264,42296,1,0,0:0:0:0:
317,279,42379,1,0,0:0:0:0:
296,288,42463,2,0,L|253:262,3,30.0000011444092
198,236,42794,6,0,P|146:222|61:258,1,120.000004577637
5,322,43126,1,0,0:0:0:0:
108,372,43292,1,0,0:0:0:0:
100,258,43457,2,0,B|97:195|47:193|68:105,1,120.000004577637
71,28,43789,1,0,0:0:0:0:
71,28,43872,1,0,0:0:0:0:
71,28,43955,1,0,0:0:0:0:
64,144,44120,6,0,P|118:116|185:88,1,120.000004577637
296,59,44452,1,0,0:0:0:0:
337,177,44618,1,0,0:0:0:0:
419,83,44783,2,0,P|351:36|269:23,1,120.000004577637
268,24,45032,1,0,0:0:0:0:
242,41,45115,2,0,B|191:59|191:59|118:16,1,120.000004577637
42,52,45446,6,0,L|164:127,1,120.000004577637
234,164,45778,1,0,0:0:0:0:
234,164,45861,1,0,0:0:0:0:
234,164,45944,1,0,0:0:0:0:
312,94,46109,6,0,P|352:52|438:25,1,120.000004577637
451,28,46358,1,0,0:0:0:0:
467,50,46441,2,0,P|503:140|498:197,1,120.000004577637
398,203,46772,5,0,0:0:0:0:
394,183,46854,1,0,0:0:0:0:
391,163,46937,1,0,0:0:0:0:
367,23,47104,1,0,0:0:0:0:
288,223,47270,1,0,0:0:0:0:
217,120,47435,1,0,0:0:0:0:
391,163,47601,5,0,0:0:0:0:
409,170,47683,1,0,0:0:0:0:
428,177,47766,1,0,0:0:0:0:
359,326,47933,1,0,0:0:0:0:
502,321,48098,6,0,P|494:261|387:233,1,160.000006103516
360,246,48430,2,0,L|358:334,2,80.0000030517579
313,208,48761,2,0,L|309:369,1,160.000006103516
259,352,49093,2,0,L|262:192,1,160.000006103516
266,112,49424,6,0,P|182:65|141:160,1,160.000006103516
122,162,49756,2,0,P|204:112|142:29,1,160.000006103516
150,12,50087,2,0,P|151:108|254:96,1,160.000006103516
266,112,50419,1,0,0:0:0:0:
266,112,50640,5,0,0:0:0:0:
319,139,50750,2,0,B|313:206|313:206|237:274,1,160.000006103516
181,263,51082,2,0,P|176:215|222:170,2,80.0000030517579
105,287,51413,2,0,P|80:216|5:162,1,160.000006103516
13,265,51745,2,0,B|29:356|29:356,2,80.0000030517579
50,167,52076,5,0,0:0:0:0:
85,148,52186,1,0,0:0:0:0:
120,129,52296,1,0,0:0:0:0:
155,110,52408,2,0,P|232:144|296:219,1,160.000006103516
212,223,52739,6,0,P|231:146|279:82,1,160.000006103516
314,98,53071,1,0,0:0:0:0:
347,119,53181,1,0,0:0:0:0:
381,140,53291,1,0,0:0:0:0:
415,160,53403,6,0,P|424:243|391:336,1,160.000006103516
333,321,53734,5,0,0:0:0:0:
299,298,53844,1,0,0:0:0:0:
266,275,53954,1,0,0:0:0:0:
233,253,54065,5,0,0:0:0:0:
269,235,54176,1,0,0:0:0:0:
305,218,54286,1,0,0:0:0:0:
341,200,54397,5,0,0:0:0:0:
339,239,54507,1,0,0:0:0:0:
336,279,54617,1,0,0:0:0:0:
333,319,54728,6,0,L|298:296,6,30.0000011444092
298,300,55060,2,0,L|342:255,3,60.0000022888184
380,214,55391,1,0,0:0:0:0:
368,144,55557,1,0,0:0:0:0:
394,219,55723,1,0,0:0:0:0:
382,149,55888,1,0,0:0:0:0:
408,224,56054,6,0,L|413:268,2,40
508,255,56717,6,0,L|503:211,2,40
312,232,57380,6,0,L|317:276,2,40
412,263,57712,1,0,0:0:0:0:
422,270,58043,6,0,L|376:301,1,40
335,295,58209,2,0,L|289:326,1,40
248,320,58375,2,0,L|220:338,4,20
183,279,58706,6,0,P|242:237|275:174,1,120.000004577637
129,214,59038,1,0,0:0:0:0:
129,214,59120,1,0,0:0:0:0:
129,214,59203,2,0,L|76:348,1,120.000004577637
36,238,59535,1,0,0:0:0:0:
159,349,59701,1,0,0:0:0:0:
13,311,59866,5,0,0:0:0:0:
13,311,59949,1,0,0:0:0:0:
13,311,60032,2,0,B|37:238|37:238|42:141,1,120.000004577637
41,75,60363,1,0,0:0:0:0:
41,75,60446,1,0,0:0:0:0:
41,75,60529,2,0,P|112:82|188:134,1,120.000004577637
226,180,60861,1,0,0:0:0:0:
230,8,61026,1,0,0:0:0:0:
303,98,61192,5,0,0:0:0:0:
303,98,61275,1,0,0:0:0:0:
303,98,61358,2,0,B|323:116|323:116|206:85,1,120.000004577637
142,34,61689,1,0,0:0:0:0:
142,34,61772,1,0,0:0:0:0:
142,34,61855,2,0,P|220:19|277:19,1,120.000004577637
401,30,62187,5,0,0:0:0:0:
303,98,62352,1,0,0:0:0:0:
455,110,62518,1,0,0:0:0:0:
251,147,62684,1,0,0:0:0:0:
376,233,62850,1,0,0:0:0:0:
379,101,63015,2,0,P|380:59|376:24,2,60.0000022888184
367,240,63347,5,0,0:0:0:0:
356,268,63429,1,0,0:0:0:0:
355,297,63512,1,0,0:0:0:0:
363,326,63595,1,0,0:0:0:0:
380,351,63678,2,0,P|422:352|449:328,3,60.0000022888184
462,317,64010,6,0,P|484:277|500:175,1,120.000004577637
496,71,64341,1,0,0:0:0:0:
496,71,64424,1,0,0:0:0:0:
496,71,64507,2,0,L|359:112,1,120.000004577637
340,112,64756,1,0,0:0:0:0:
340,112,64839,2,0,L|320:239,1,120.000004577637
299,340,65170,6,0,P|328:359|359:360,2,60.0000022888184
225,205,65502,1,0,0:0:0:0:
321,230,65667,1,0,0:0:0:0:
321,230,65750,1,0,0:0:0:0:
321,230,65833,2,0,L|179:327,1,120.000004577637
182,291,66082,1,0,0:0:0:0:
182,291,66165,2,0,P|131:268|46:287,1,120.000004577637
128,344,66496,6,0,P|158:363|210:362,2,60.0000022888184
134,192,66828,1,0,0:0:0:0:
259,275,66993,1,0,0:0:0:0:
259,275,67076,1,0,0:0:0:0:
259,275,67159,2,0,P|242:161|219:114,1,120.000004577637
198,142,67408,1,0,0:0:0:0:
198,142,67491,2,0,P|232:87|309:63,1,120.000004577637
329,74,67739,5,0,0:0:0:0:
329,74,67822,1,0,0:0:0:0:
329,74,67905,1,0,0:0:0:0:
329,74,67988,2,0,P|404:130|468:118,1,120.000004577637
487,250,68319,5,0,0:0:0:0:
469,259,68402,1,0,0:0:0:0:
450,259,68485,1,0,0:0:0:0:
291,219,68651,5,0,0:0:0:0:
265,194,68733,1,0,0:0:0:0:
231,184,68816,1,0,0:0:0:0:
196,191,68899,1,0,0:0:0:0:
169,214,68982,1,0,0:0:0:0:
132,241,69064,1,0,0:0:0:0:
91,221,69147,1,0,0:0:0:0:
88,175,69230,1,0,0:0:0:0:
126,151,69313,1,0,0:0:0:0:
256,192,69355,12,0,72007,0:0:0:0:
