osu file format v14

[General]
AudioFilename: audio.mp3
AudioLeadIn: 0
PreviewTime: 13591
Countdown: 0
SampleSet: None
StackLeniency: 0.7
Mode: 0
LetterboxInBreaks: 0
WidescreenStoryboard: 0

[Editor]
Bookmarks: 2767,13676,15721,18449,21176,24585,30040,35494,40949,46403,51858
DistanceSpacing: 1.7
BeatDivisor: 4
GridSize: 4
TimelineZoom: 1.3

[Metadata]
Title:Battle! Rival
TitleUnicode:Battle! Rival
Artist:Junichi Masuda
ArtistUnicode:Junichi Masuda
Creator:David-
Version:Challenge!
Source:ポケットモンスターブラック・ホワイト
Tags:
BeatmapID:1637421
BeatmapSetID:779797

[Difficulty]
HPDrainRate:5
CircleSize:4
OverallDifficulty:8
ApproachRate:9.4
SliderMultiplier:1.6
SliderTickRate:1

[Events]
//Background and Video events
0,0,"32ee43bfd054776d470cee1a8fdd8381.png",0,0
//Break Periods
//Storyboard Layer 0 (Background)
//Storyboard Layer 1 (Fail)
//Storyboard Layer 2 (Pass)
//Storyboard Layer 3 (Foreground)
//Storyboard Sound Samples

[TimingPoints]
40,340.909090909091,4,3,1,20,1,0
721,-100,4,3,1,25,0,0
1403,-100,4,3,1,30,0,0
1744,-100,4,3,1,35,0,0
2085,-100,4,3,1,40,0,0
2426,-100,4,3,1,45,0,0
2767,-133.333333333333,4,3,1,45,0,0
11460,-117.647058823529,4,3,1,45,0,0
11801,-100,4,3,1,45,0,0
12312,-100,4,3,1,45,0,0
12994,-66.6666666666667,4,3,1,45,0,0
13165,-66.6666666666667,4,3,1,55,0,0
13335,-50,4,3,1,55,0,0
13676,-66.6666666666667,4,3,1,60,0,1
15210,-66.6666666666667,4,3,1,50,0,1
15380,-66.6666666666667,4,3,1,70,0,1
15551,-66.6666666666667,4,3,1,50,0,1
15721,-66.6666666666667,4,3,1,50,0,1
15892,-66.6666666666667,4,3,1,50,0,1
16062,-66.6666666666667,4,3,1,70,0,1
16233,-66.6666666666667,4,3,1,50,0,1
16403,-66.6666666666667,4,3,1,60,0,1
17937,-66.6666666666667,4,3,1,50,0,1
18108,-66.6666666666667,4,3,1,60,0,1
18278,-66.6666666666667,4,3,1,50,0,1
18449,-66.6666666666667,4,3,1,60,0,1
18790,-66.6666666666667,4,3,1,60,0,1
18960,-66.6666666666667,4,3,1,50,0,1
19130,-55.5555555555556,4,3,1,65,0,1
20665,-55.5555555555556,4,3,1,50,0,1
20835,-55.5555555555556,4,3,1,70,0,1
21005,-55.5555555555556,4,3,1,50,0,1
21517,-55.5555555555556,4,3,1,70,0,1
21687,-55.5555555555556,4,3,1,50,0,1
21858,-55.5555555555556,4,3,1,60,0,1
23392,-76.9230769230769,4,3,1,50,0,1
23903,-76.9230769230769,4,3,1,55,0,1
24585,-66.6666666666667,4,3,1,60,0,1
26119,-76.9230769230769,4,3,1,50,0,1
27312,-66.6666666666667,4,3,1,60,0,1
28846,-76.9230769230769,4,3,1,50,0,1
30040,-71.4285714285714,4,3,1,60,0,0
30380,-76.9230769230769,4,3,1,60,0,0
30721,-83.3333333333333,4,3,1,60,0,0
31062,-90.9090909090909,4,3,1,60,0,0
31403,-83.3333333333333,4,3,1,60,0,0
32767,-71.4285714285714,4,3,1,60,0,0
33107,-76.9230769230769,4,3,1,60,0,0
33448,-83.3333333333333,4,3,1,60,0,0
33789,-90.9090909090909,4,3,1,60,0,0
34130,-66.6666666666667,4,3,1,60,0,0
34812,-133.333333333333,4,3,1,60,0,0
35153,-83.3333333333333,4,3,1,60,0,0
35494,-133.333333333333,4,3,1,60,0,0
40949,-100,4,3,1,60,0,0
46403,-100,4,3,1,60,0,0

[Colours]
Combo1 : 47,174,251
Combo2 : 141,141,141
Combo3 : 146,213,245

[HitObjects]
305,299,40,6,0,L|344:302,3,40,10|0|0|0,0:0|0:0|0:0|0:0,0:0:0:0:
195,236,380,2,0,L|155:239,3,40,10|0|0|0,0:0|0:0|0:0|0:0,0:0:0:0:
336,187,721,2,0,L|375:190,3,40,10|0|0|0,0:0|0:0|0:0|0:0,0:0:0:0:
166,96,1063,2,0,L|126:99,3,40,10|0|0|0,0:0|0:0|0:0|0:0,0:0:0:0:
370,8,1403,6,0,L|366:47,1,40,10|0,0:0|0:0,0:0:0:0:
177,106,1574,1,0,0:0:0:0:
177,106,1659,1,0,0:0:0:0:
177,106,1744,2,0,L|182:167,1,40,10|0,0:0|0:0,0:0:0:0:
345,198,1915,1,0,0:0:0:0:
345,198,2000,1,0,0:0:0:0:
345,198,2085,6,0,L|339:257,1,40,10|0,0:0|0:0,0:0:0:0:
171,376,2255,2,0,L|174:337,1,40
368,364,2426,6,0,L|309:356,1,40,10|0,0:0|0:0,0:0:0:0:
139,222,2596,2,0,L|177:218,1,40
349,201,2767,5,6,0:0:0:0:
466,150,3108,1,0,0:0:0:0:
466,150,3278,2,0,L|462:79,1,60.0000022888184,2|0,0:0|0:0,0:0:0:0:
456,0,3619,1,2,0:0:0:0:
359,152,3960,5,0,0:0:0:0:
359,152,4130,2,0,L|365:224,1,60.0000022888184,2|0,0:0|0:0,0:0:0:0:
268,221,4471,2,0,L|274:293,1,60.0000022888184,2|0,0:0|0:0,0:0:0:0:
178,298,4812,5,2,0:0:0:0:
264,183,4983,1,0,0:0:0:0:
282,379,5153,1,8,0:0:0:0:
84,336,5324,5,0,0:0:0:0:
84,336,5409,1,0,0:0:0:0:
84,336,5494,2,0,L|77:266,1,60.0000022888184,2|0,0:0|0:0,0:0:0:0:
71,186,5835,1,0,0:0:0:0:
160,193,6005,6,0,L|70:185,1,90.0000034332277,2|0,0:0|0:0,0:0:0:0:
57,168,6346,2,0,L|182:178,1,120.000004577637,2|0,0:0|0:0,0:0:0:0:
267,187,6858,6,0,L|260:113,1,60.0000022888184,2|0,0:0|0:0,0:0:0:0:
372,230,7199,2,0,L|366:170,1,60.0000022888184,2|0,0:0|0:0,0:0:0:0:
480,269,7540,5,2,0:0:0:0:
365,132,7710,1,0,0:0:0:0:
382,341,7880,1,8,0:0:0:0:
512,127,8051,5,0,0:0:0:0:
512,127,8136,1,0,0:0:0:0:
512,127,8221,1,6,0:0:0:0:
428,40,8562,1,0,0:0:0:0:
428,40,8732,2,0,L|359:46,1,60.0000022888184,2|0,0:0|0:0,0:0:0:0:
278,53,9073,1,2,0:0:0:0:
266,205,9415,5,0,0:0:0:0:
266,205,9585,2,0,L|272:133,1,60.0000022888184,2|0,0:0|0:0,0:0:0:0:
175,139,9926,2,0,L|181:67,1,60.0000022888184,2|0,0:0|0:0,0:0:0:0:
84,71,10267,5,2,0:3:0:0:
173,160,10437,1,0,0:0:0:0:
188,0,10608,1,8,0:0:0:0:
16,147,10778,5,0,0:0:0:0:
16,147,10863,1,0,0:0:0:0:
16,147,10948,2,0,L|21:217,1,60.0000022888184,2|0,0:0|0:0,0:0:0:0:
28,297,11290,1,0,0:0:0:0:
129,285,11460,6,0,L|25:297,1,102.000001945496,2|0,0:0|0:0,0:0:0:0:
2,323,11801,2,0,L|165:303,1,160,2|0,0:0|0:0,0:0:0:0:
261,294,12312,6,0,L|257:333,3,40,2|0|0|0,0:0|0:0|0:0|0:0,0:0:0:0:
354,381,12653,2,0,L|358:342,3,40,2|0|0|0,0:0|0:0|0:0|0:0,0:0:0:0:
446,277,12994,6,0,L|441:217,1,60.0000022888184,10|0,0:0|0:0,0:0:0:0:
330,59,13165,2,0,L|323:118,1,60.0000022888184,8|0,0:0|0:0,0:0:0:0:
469,288,13335,6,0,L|461:170,1,80,10|0,0:0|0:0,0:0:0:0:
231,81,13505,5,0,0:0:0:0:
231,81,13591,1,0,0:0:0:0:
231,81,13676,2,0,P|241:177|395:184,1,240.000009155274,6|8,0:0|0:0,0:0:0:0:
323,117,14358,6,0,P|259:123|210:147,1,120.000004577637,2|0,0:0|0:0,0:0:0:0:
97,151,14699,2,0,B|156:134|211:161|211:161|266:123|328:131,1,240.000009155274,10|12,0:0|0:0,0:0:0:0:
264,306,15210,6,0,P|242:291|222:258,1,60.0000022888184,2|0,0:0|0:0,0:0:0:0:
247,154,15380,2,0,P|270:143|309:142,1,60.0000022888184,10|0,0:2|0:2,0:2:0:0:
387,215,15551,2,0,P|385:240|366:274,1,60.0000022888184,2|0,0:2|0:2,0:2:0:0:
267,310,15721,6,0,P|228:296|187:298,1,60.0000022888184,2|0,0:2|0:2,0:2:0:0:
59,279,15892,2,0,P|82:260|109:250,1,60.0000022888184,2|0,0:2|0:2,0:2:0:0:
247,154,16062,6,0,P|274:143|304:141,1,60.0000022888184,10|0,0:2|0:2,0:2:0:0:
437,245,16233,2,0,P|413:225|386:214,1,60.0000022888184,2|0,0:2|0:2,0:2:0:0:
157,32,16403,6,0,P|147:128|-7:135,1,240.000009155274,6|8,0:0|0:0,0:0:0:0:
65,69,17085,6,0,P|125:74|180:100,1,120.000004577637,2|0,0:0|0:0,0:0:0:0:
297,102,17426,2,0,B|236:84|180:112|180:112,2,120.000004577637,10|2|4,0:0|0:0|0:0,0:0:0:0:
442,206,17937,6,0,P|464:191|484:158,1,60.0000022888184,2|0,0:2|0:2,0:2:0:0:
459,54,18107,2,0,P|436:43|397:42,1,60.0000022888184,10|0,0:2|0:2,0:2:0:0:
319,115,18278,2,0,P|321:140|340:174,1,60.0000022888184,2|0,0:2|0:2,0:2:0:0:
445,209,18449,5,2,0:2:0:0:
158,61,18619,1,2,0:2:0:0:
459,54,18790,5,10,0:2:0:0:
104,203,18960,1,2,0:2:0:0:
104,203,19045,1,0,0:2:0:0:
104,203,19130,6,0,P|58:274|210:307,1,287.999991210938,6|8,0:0|0:0,0:0:0:0:
137,274,19812,6,0,P|92:288|-1:253,1,143.999995605469,2|0,0:0|0:0,0:0:0:0:
280,251,20153,2,0,B|187:212|128:357|3:273,1,287.999991210938,10|4,0:0|0:0,0:0:0:0:
382,266,20665,6,0,P|372:300|350:328,1,71.9999978027344,2|0,0:3|0:0,0:0:0:0:
218,334,20835,2,0,P|190:309|176:276,1,71.9999978027344,10|0,0:2|0:2,0:2:0:0:
241,156,21005,2,0,P|275:146|310:151,1,71.9999978027344,2|0,0:2|0:2,0:2:0:0:
364,342,21176,6,0,P|385:312|397:278,1,71.9999978027344,2|0,0:2|0:2,0:2:0:0:
435,123,21347,2,0,P|454:153|460:188,1,71.9999978027344,2|0,0:2|0:2,0:2:0:0:
201,346,21517,6,0,P|176:319|162:286,1,71.9999978027344,10|0,0:2|0:2,0:2:0:0:
115,130,21687,2,0,P|97:161|93:197,1,71.9999978027344,2|0,0:2|0:2,0:2:0:0:
374,181,21858,6,0,P|420:110|268:77,1,287.999991210938,6|8,0:0|0:0,0:0:0:0:
341,109,22540,6,0,P|410:94|476:120,1,143.999995605469,2|0,0:0|0:0,0:0:0:0:
195,124,22880,2,0,P|266:128|332:101,2,143.999995605469,10|2|4,0:0|0:0|0:0,0:0:0:0:
87,10,23392,5,10,0:0:0:0:
111,258,23562,1,0,0:0:0:0:
0,106,23733,1,10,0:0:0:0:
205,131,23903,6,0,L|210:193,1,51.999997619629,2|0,0:0|0:0,0:0:0:0:
214,138,24074,2,0,L|218:189,1,51.999997619629,10|0,0:2|0:0,0:0:0:0:
120,343,24244,6,0,L|115:291,1,51.999997619629,10|0,0:2|0:0,0:0:0:0:
130,348,24415,2,0,L|125:296,1,51.999997619629,10|0,0:2|0:0,0:0:0:0:
223,143,24585,5,12,0:0:0:0:
387,219,24755,1,2,0:0:0:0:
273,262,25096,5,0,0:0:0:0:
273,262,25182,1,0,0:0:0:0:
273,262,25267,2,0,P|332:259|388:231,1,120.000004577637,10|0,0:0|0:0,0:0:0:0:
387,219,25608,2,0,B|444:250|504:229,2,120.000004577637,2|0|12,0:0|0:0|0:0,0:0:0:0:
453,138,26119,5,0,0:0:0:0:
355,322,26290,1,10,0:0:0:0:
303,47,26460,1,0,0:0:0:0:
486,273,26630,5,2,0:0:0:0:
220,177,26801,1,0,0:0:0:0:
220,177,26886,1,0,0:0:0:0:
220,177,26971,1,10,0:0:0:0:
434,131,27142,1,0,0:0:0:0:
212,321,27312,5,12,0:0:0:0:
46,251,27483,1,2,0:0:0:0:
37,118,27824,5,0,0:0:0:0:
37,118,27910,1,0,0:0:0:0:
37,118,27994,2,0,P|51:176|36:234,1,120.000004577637,10|0,0:0|0:0,0:0:0:0:
46,251,28335,2,0,P|30:309|36:368,2,120.000004577637,2|0|12,0:0|0:0|0:0,0:0:0:0:
263,106,28846,5,0,0:0:0:0:
153,318,29017,1,10,0:0:0:0:
155,50,29187,5,0,0:0:0:0:
265,262,29358,1,10,0:0:0:0:
115,169,29528,1,0,0:0:0:0:
320,0,29699,5,10,0:0:0:0:
350,18,29784,1,0,0:0:0:0:
374,46,29869,1,0,0:0:0:0:
386,80,29954,1,0,0:0:0:0:
388,116,30040,6,0,L|508:98,1,111.999996582031,12|0,0:0|0:0,0:0:0:0:
402,276,30380,2,0,L|294:266,1,103.999995239258,2|0,0:0|0:0,0:0:0:0:
398,128,30721,6,0,L|518:110,1,95.9999970703126,12|0,0:0|0:0,0:0:0:0:
397,263,31062,2,0,L|289:253,1,88.000002685547,2|0,0:0|0:0,0:0:0:0:
103,203,31403,6,0,B|118:342|118:342|151:302,1,191.999994140625,10|0,0:0|0:0,0:0:0:0:
234,211,31915,1,0,0:0:0:0:
234,211,32085,2,0,L|223:115,1,95.9999970703126,10|0,0:0|0:0,0:0:0:0:
211,15,32426,1,0,0:0:0:0:
110,210,32596,5,0,0:0:0:0:
110,210,32682,1,0,0:0:0:0:
110,210,32767,2,0,L|-11:192,1,111.999996582031,12|0,0:0|0:0,0:0:0:0:
96,370,33108,2,0,L|203:360,1,103.999995239258,2|0,0:0|0:0,0:0:0:0:
100,222,33449,6,0,L|-20:204,1,95.9999970703126,12|0,0:0|0:0,0:0:0:0:
101,357,33790,2,0,L|208:347,1,88.000002685547,2|0,0:0|0:0,0:0:0:0:
286,224,34130,5,12,0:0:0:0:
338,372,34301,1,2,0:0:0:0:
497,105,34471,5,8,0:0:0:0:
446,253,34642,1,6,0:0:0:0:
238,59,34812,6,0,B|331:50,1,90.0000034332277,2|0,0:0|0:0,0:0:0:0:
358,76,35153,2,0,L|207:89,1,143.999995605469,10|0,0:0|0:0,0:0:0:0:
107,51,35494,6,0,L|101:117,1,60.0000022888184,6|0,0:0|0:0,0:0:0:0:
9,237,35835,2,0,L|3:170,1,60.0000022888184,8|0,0:0|0:0,0:0:0:0:
201,175,36176,6,0,L|193:245,1,60.0000022888184,2|0,0:0|0:0,0:0:0:0:
182,324,36517,1,8,0:0:0:0:
98,142,36687,1,0,0:0:0:0:
336,177,36858,6,0,L|216:187,1,120.000004577637,6|8,0:0|0:0,0:0:0:0:
321,63,37369,1,0,0:0:0:0:
321,63,37540,2,0,L|380:68,1,60.0000022888184
470,78,37880,1,8,0:0:0:0:
341,185,38221,6,0,L|351:304,1,120.000004577637,6|8,0:0|0:0,0:0:0:0:
465,384,38733,1,0,0:0:0:0:
465,384,38903,2,0,L|470:324,1,60.0000022888184
478,234,39244,1,8,0:0:0:0:
339,327,39585,6,0,L|219:337,1,120.000004577637,6|8,0:0|0:0,0:0:0:0:
81,211,40096,1,0,0:0:0:0:
81,211,40267,2,0,L|140:216,1,60.0000022888184
264,230,40608,1,10,0:0:0:0:
264,230,40949,5,2,0:0:0:0:
49,336,41119,1,0,0:0:0:0:
213,138,41290,5,8,0:0:0:0:
146,384,41460,1,0,0:0:0:0:
59,82,41630,1,2,0:0:0:0:
59,82,41971,5,8,0:0:0:0:
142,138,42312,2,0,L|221:127,1,80,8|0,0:0|0:0,0:0:0:0:
293,20,42653,5,0,0:0:0:0:
240,124,42824,2,0,L|209:197,1,80,8|0,0:0|0:0,0:0:0:0:
273,309,43165,5,0,0:0:0:0:
203,215,43336,2,0,L|154:151,1,80,8|0,0:0|0:0,0:0:0:0:
27,155,43676,5,2,0:0:0:0:
142,138,44017,2,0,L|221:127,1,80,10|0,0:0|0:0,0:0:0:0:
443,163,44358,5,0,0:0:0:0:
347,0,44528,1,0,0:0:0:0:
338,111,44699,2,0,L|331:190,1,80,8|0,0:0|0:0,0:0:0:0:
314,320,45040,5,8,0:0:0:0:
198,66,45210,1,8,0:0:0:0:
177,272,45551,5,8,0:0:0:0:
338,111,45721,1,8,0:0:0:0:
347,102,46062,6,0,L|341:164,1,40,8|0,0:0|0:0,0:0:0:0:
165,282,46233,2,0,L|171:227,1,40
256,192,46403,5,12,0:0:0:0:
