osu file format v14

[General]
AudioFilename: mp3.mp3
AudioLeadIn: 0
PreviewTime: 12683
Countdown: 0
SampleSet: Soft
StackLeniency: 0.7
Mode: 0
LetterboxInBreaks: 0
WidescreenStoryboard: 0

[Editor]
Bookmarks: 12683,22331,31979,41628,53688,63336,82633
DistanceSpacing: 1.6
BeatDivisor: 4
GridSize: 32
TimelineZoom: 2.799999

[Metadata]
Title:Battle! (Team Aqua / Team Magma)
TitleUnicode:Battle! (Team Aqua / Team Magma)
Artist:Junichi Masuda
ArtistUnicode:Junichi Masuda
Creator:pkk
Version:Insane
Source:ポケットモンスター オメガルビー・アルファサファイア
Tags:Shota Kageyama Pokemon Omega Ruby Alpha Sapphire ORAS
BeatmapID:1079651
BeatmapSetID:507614

[Difficulty]
HPDrainRate:6
CircleSize:4
OverallDifficulty:7
ApproachRate:9.1
SliderMultiplier:1.7
SliderTickRate:1

[Events]
//Background and Video events
0,0,"Villain Theme BG.jpg",0,0
//Break Periods
//Storyboard Layer 0 (Background)
//Storyboard Layer 1 (Fail)
//Storyboard Layer 2 (Pass)
//Storyboard Layer 3 (Foreground)
//Storyboard Sound Samples

[TimingPoints]
623,301.507537688442,4,2,1,35,1,0
12683,-100,4,2,1,40,0,0
22331,-100,4,2,1,45,0,0
27155,-90.9090909090909,4,2,1,45,0,0
28361,-83.3333333333333,4,2,1,45,0,0
29567,-76.9230769230769,4,2,1,45,0,0
30773,-90.9090909090909,4,2,1,45,0,0
31979,-142.857142857143,4,2,1,30,0,0
39215,-125,4,2,1,30,0,0
39668,-125,4,2,1,5,0,0
39818,-117.647058823529,4,2,1,30,0,0
40271,-117.647058823529,4,2,1,5,0,0
40421,-111.111111111111,4,2,1,30,0,0
41628,-100,4,2,1,40,0,0
53688,-100,4,2,1,45,0,0
87457,-100,4,2,1,50,0,0
92281,-90.9090909090909,4,2,1,45,0,0

[Colours]
Combo1 : 218,218,218
Combo2 : 190,41,46
Combo3 : 221,87,87
Combo4 : 43,97,164
Combo5 : 51,143,193
Combo6 : 148,148,148

[HitObjects]
256,192,623,69,4,0:0:0:0:
256,192,698,12,0,1677,0:0:0:0:
256,192,1829,12,4,2432,0:0:0:0:
196,69,2733,5,0,1:0:0:0:
225,243,2883,1,0,1:0:0:0:
85,179,3034,6,0,P|167:161|252:149,1,170,4|0,0:0|0:0,0:0:0:0:
391,114,3486,2,0,P|377:157|362:218,1,85,0|0,1:0|0:0,0:0:0:0:
302,26,3788,1,0,0:0:0:0:
474,18,3939,2,0,P|493:67|502:102,1,85,0|0,1:0|0:0,0:0:0:0:
459,269,4240,6,0,P|382:243|289:245,1,170,0|0,1:0|0:0,0:0:0:0:
179,187,4692,2,0,P|184:223|202:281,1,85,0|0,1:0|0:0,0:0:0:0:
278,129,4994,1,0,0:0:0:0:
126,84,5145,2,0,P|96:119|72:166,1,85,0|0,1:0|0:0,0:0:0:0:
197,269,5446,6,0,P|273:285|365:315,1,170,0|0,1:0|0:0,0:0:0:0:
387,188,5899,2,0,P|447:183|496:179,1,85,0|0,1:0|0:0,0:0:0:0:
241,101,6200,1,0,0:0:0:0:
241,101,6351,2,0,P|301:96|350:92,1,85,0|0,1:0|0:0,0:0:0:0:
129,31,6652,6,0,B|98:82|98:82|133:210,1,170,0|0,1:0|0:0,0:0:0:0:
261,275,7105,2,0,B|268:186,1,85,0|0,1:0|0:0,0:0:0:0:
7,272,7406,1,0,1:0:0:0:
76,359,7557,2,0,P|130:350|185:343,1,85,2|0,0:0|0:0,0:0:0:0:
389,237,7858,38,0,P|303:252|270:170,1,170,2|0,1:2|0:0,0:0:0:0:
98,153,8311,2,0,P|140:157|176:136,1,85,2|0,1:2|0:0,0:0:0:0:
360,93,8612,1,0,0:0:0:0:
360,93,8763,2,0,P|318:96|282:75,1,85,2|0,1:2|0:0,0:0:0:0:
41,79,9064,6,0,P|3:151|38:225,1,170,2|0,1:2|0:0,0:0:0:0:
217,270,9517,2,0,P|188:240|144:238,1,85,2|0,1:2|0:0,0:0:0:0:
165,362,9818,1,0,0:0:0:0:
321,276,9969,2,0,P|313:236|280:184,1,85,2|0,1:2|0:0,0:0:0:0:
101,74,10270,6,0,B|161:99|161:99|279:56,1,170,2|0,1:2|0:0,0:0:0:0:
416,34,10723,2,0,L|408:121,1,85,2|0,1:2|0:0,0:0:0:0:
316,275,11024,1,0,0:0:0:0:
316,271,11175,2,0,L|308:186,1,85,2|0,1:2|0:0,0:0:0:0:
104,273,11476,6,0,P|161:300|243:378,1,170,2|0,1:2|0:0,0:0:0:0:
0,333,11929,2,0,L|21:228,1,85,2|0,1:2|0:0,0:0:0:0:
21,230,12155,1,0,0:0:0:0:
25,210,12230,1,0,0:0:0:0:
152,38,12381,2,0,L|168:121,1,85,2|0,1:2|0:0,0:0:0:0:
334,299,12682,38,0,B|354:240|354:240|334:185|334:185|355:123,1,170,4|8,0:0|0:0,0:0:0:0:
456,203,13135,2,0,B|466:246|466:246|450:294,1,85
369,378,13436,1,0,0:0:0:0:
247,353,13587,2,0,B|234:314|234:314|244:271,1,85,8|0,0:0|0:0,0:0:0:0:
349,138,13888,5,0,0:0:0:0:
176,193,14039,1,0,0:0:0:0:
238,83,14190,2,0,P|263:36|278:6,1,85,10|0,0:0|0:0,0:0:0:0:
438,105,14491,2,0,P|457:142|477:180,1,85,2|0,0:0|0:0,0:0:0:0:
291,233,14793,1,10,0:0:0:0:
291,233,14944,1,0,0:0:0:0:
113,167,15094,6,0,P|80:240|124:317,1,170,6|8,0:0|0:0,0:0:0:0:
222,134,15547,2,0,P|203:96|173:66,1,85,2|0,0:0|0:0,0:0:0:0:
184,237,15849,1,0,0:0:0:0:
309,217,15999,2,0,P|334:172|339:130,1,85,10|0,0:0|0:0,0:0:0:0:
443,280,16301,6,0,L|275:345,1,170,2|8,0:0|0:0,0:0:0:0:
169,286,16753,1,0,0:0:0:0:
240,161,16904,1,0,0:0:0:0:
68,217,17055,1,0,0:0:0:0:
231,167,17205,2,0,L|329:185,1,85,8|0,0:0|0:0,0:0:0:0:
512,80,17507,38,0,P|462:133|385:87,1,170,4|8,0:0|0:0,0:0:0:0:
256,10,17959,2,0,P|275:58|291:103,1,85,2|0,0:0|0:0,0:0:0:0:
236,196,18260,1,0,0:0:0:0:
88,152,18411,2,0,P|132:124|166:108,1,85,10|0,0:0|0:0,0:0:0:0:
258,229,18713,6,0,L|236:311,1,85,2|0,0:0|0:0,0:0:0:0:
293,118,19014,1,8,0:0:0:0:
380,209,19165,1,0,0:0:0:0:
183,104,19316,2,0,P|169:49|167:15,1,85,2|0,0:0|0:0,0:0:0:0:
398,126,19617,2,0,P|392:167|380:207,1,85,10|0,0:0|0:0,0:0:0:0:
221,331,19919,6,0,L|397:307,1,170,4|8,0:0|0:0,0:0:0:0:
255,208,20371,2,0,L|79:184,1,170,2|0,0:0|0:0,0:0:0:0:
189,111,20824,1,8,0:0:0:0:
141,284,20974,1,0,0:0:0:0:
341,232,21125,6,0,P|367:152|332:77,1,170,2|8,0:0|0:0,0:0:0:0:
174,29,21577,1,0,0:0:0:0:
205,171,21728,1,0,0:0:0:0:
205,171,21803,1,0,0:0:0:0:
205,171,21879,1,0,0:0:0:0:
88,109,22030,1,8,0:0:0:0:
279,76,22180,1,8,0:0:0:0:
250,262,22331,38,0,P|168:269|112:210,1,170,4|8,0:0|0:0,0:0:0:0:
351,190,22783,2,0,L|364:298,1,85,2|0,0:0|0:0,0:0:0:0:
250,262,23085,1,0,0:0:0:0:
189,141,23236,2,0,L|199:56,1,85,2|0,0:0|0:0,0:0:0:0:
48,165,23537,6,0,B|59:230|59:230|96:247|96:247|111:319,1,170,2|8,0:0|0:0,0:0:0:0:
250,262,23989,2,0,L|334:251,1,85,2|0,0:0|0:0,0:0:0:0:
296,358,24291,1,0,0:0:0:0:
171,199,24442,2,0,L|160:100,1,85,10|0,0:0|0:0,0:0:0:0:
350,10,24743,6,0,P|305:81|271:159,1,170,2|8,0:0|0:0,0:0:0:0:
167,291,25195,2,0,P|123:264|65:245,1,85,2|0,0:0|0:0,0:0:0:0:
236,370,25497,1,0,0:0:0:0:
332,262,25648,2,0,P|376:235|434:216,1,85,10|0,0:0|0:0,0:0:0:0:
276,112,25949,6,0,P|214:164|138:130,1,170,2|8,0:0|0:0,0:0:0:0:
256,11,26401,2,0,P|297:18|339:26,1,85,2|0,0:0|0:0,0:0:0:0:
444,100,26703,1,0,0:0:0:0:
295,230,26854,2,0,P|253:237|211:245,1,85,10|0,0:0|0:0,0:0:0:0:
35,129,27155,38,0,P|58:189|71:225,1,93.5000028533936,6|0,0:0|0:0,0:0:0:0:
219,21,27457,1,8,0:0:0:0:
219,21,27607,2,0,P|206:88|201:125,1,93.5000028533936,6|0,0:0|0:0,0:0:0:0:
377,74,27909,1,0,0:0:0:0:
377,74,28060,2,0,P|387:128|395:170,1,93.5000028533936,14|0,0:0|0:0,0:0:0:0:
203,370,28361,6,0,P|154:336|112:307,1,101.999996887207,6|0,0:0|0:0,0:0:0:0:
187,208,28663,1,8,0:0:0:0:
390,264,28813,2,0,P|309:276|280:281,1,101.999996887207,6|0,0:0|0:0,0:0:0:0:
276,137,29115,1,0,0:0:0:0:
467,70,29266,2,0,P|419:108|379:137,1,101.999996887207,14|0,0:0|0:0,0:0:0:0:
148,135,29567,6,0,P|119:73|97:28,1,110.499994941712,6|0,0:0|0:0,0:0:0:0:
224,238,29869,1,8,0:0:0:0:
345,256,30019,2,0,P|372:206|402:155,1,110.499994941712,6|0,0:0|0:0,0:0:0:0:
289,353,30321,1,0,0:0:0:0:
170,358,30472,2,0,P|118:324|73:295,1,110.499994941712,14|0,0:0|0:0,0:0:0:0:
256,128,30773,6,0,L|256:224,1,93.5000028533936,6|0,0:0|0:0,0:0:0:0:
152,111,31075,1,8,0:0:0:0:
328,50,31226,1,6,0:0:0:0:
94,31,31376,2,0,P|50:110|91:190,1,187.000005706787,6|8,0:0|0:0,0:0:0:0:
213,244,31829,1,0,0:0:0:0:
337,165,31979,6,0,P|425:167|489:226,2,178.499994552612,2|0|0,3:2|3:0|3:0,0:0:0:0:
206,78,33185,1,0,0:0:0:0:
206,78,33336,2,0,L|194:212,1,118.999996368408,0|0,3:0|0:0,0:0:0:0:
148,307,33788,2,0,P|205:293|263:306,1,118.999996368408,0|0,3:0|3:0,0:0:0:0:
400,192,34391,6,0,P|325:215|320:138,1,178.499994552612,0|0,3:0|3:0,0:0:0:0:
489,109,35145,2,0,L|496:192,2,59.4999981842042,0|0|0,0:0|3:0|0:0,0:0:0:0:
408,48,35597,1,0,0:0:0:0:
407,47,35748,2,0,P|340:36|282:31,1,118.999996368408,0|0,3:0|0:0,0:0:0:0:
204,89,36200,2,0,L|222:234,1,118.999996368408,0|0,3:0|3:0,0:0:0:0:
386,321,36803,70,0,P|337:288|225:327,2,178.499994552612,4|0|0,3:2|3:0|3:0,0:0:0:0:
352,135,38009,1,2,0:0:0:0:
352,135,38160,2,0,P|295:155|227:176,1,118.999996368408,0|2,3:0|0:0,0:0:0:0:
121,155,38612,2,0,P|100:124|62:44,1,118.999996368408,0|2,3:0|3:2,0:0:0:0:
154,269,39215,6,0,B|207:287|249:261|249:261|296:283|296:283|353:269|353:269,1,204,2|0,0:0|0:0,0:0:0:0:
298,95,39818,2,0,B|320:131|306:192|306:192|360:137|416:175|416:175,1,216.750004134178,2|0,0:0|0:0,0:0:0:0:
210,147,40421,2,0,B|175:80|175:80|71:80,1,152.999995330811,2|8,0:0|0:0,0:0:0:0:
387,81,41025,1,0,1:0:0:0:
387,81,41326,69,0,1:0:0:0:
301,207,41477,1,0,1:0:0:0:
177,103,41628,54,0,P|131:145|157:258,1,170,4|0,0:0|0:0,0:0:0:0:
243,307,42080,1,0,0:0:0:0:
356,271,42231,2,0,P|421:283|446:289,2,85
265,193,42683,1,0,0:0:0:0:
354,85,42834,6,0,P|369:135|374:171,1,85
178,109,43135,1,10,0:0:0:0:
178,109,43286,1,0,0:0:0:0:
81,201,43437,2,0,P|34:187|-1:175,1,85,2|0,0:0|0:0,0:0:0:0:
225,274,43738,2,0,P|184:287|143:299,1,85,10|0,0:0|0:0,0:0:0:0:
391,215,44040,38,0,P|359:275|336:377,1,170,2|8,0:0|0:0,0:0:0:0:
479,336,44492,1,0,0:0:0:0:
391,215,44643,2,0,L|295:200,2,85,0|0|8,0:0|0:0|0:0,0:0:0:0:
436,103,45095,1,0,0:0:0:0:
307,8,45246,6,0,P|283:60|272:96,1,85
101,89,45547,1,2,0:0:0:0:
101,89,45698,1,0,0:0:0:0:
192,186,45849,2,0,L|197:290,1,85,2|0,0:0|0:0,0:0:0:0:
314,366,46150,2,0,L|318:281,1,85,2|0,0:0|0:0,0:0:0:0:
444,163,46452,6,0,P|385:189|360:97,1,170,6|8,0:0|0:0,0:0:0:0:
220,43,46904,1,0,0:0:0:0:
220,43,47055,2,0,P|276:25|311:18,1,85
225,163,47356,2,0,P|183:153|143:139,1,85,8|0,0:0|0:0,0:0:0:0:
77,251,47658,6,0,P|48:219|23:185,1,85
54,50,47959,1,10,0:0:0:0:
54,50,48110,1,0,0:0:0:0:
176,116,48261,2,0,P|238:100|281:90,1,85,2|0,0:0|0:0,0:0:0:0:
329,200,48562,2,0,P|304:252|291:287,1,85,2|0,0:0|0:0,0:0:0:0:
149,317,48864,38,0,B|48:317|48:317|98:127,1,297.5,4|0,0:0|0:0,0:0:0:0:
98,126,49467,2,0,B|117:65|117:65|214:161|214:161|255:127|255:127|302:176,1,297.5,2|0,0:0|0:0,0:0:0:0:
285,158,50070,2,0,B|384:65|384:65|433:238,1,297.5,4|0,0:0|0:0,0:0:0:0:
428,220,50672,2,0,B|457:317|457:317|373:317,1,170,2|4,0:0|0:0,0:0:0:0:
121,373,51276,22,0,B|158:280|158:280|113:262|80:232|53:193|83:125,1,297.5,4|0,0:0|0:0,0:0:0:0:
84,125,51879,2,0,B|118:67|173:51|237:48|237:48|256:-1|256:-1|275:50|275:50|320:54|320:54,1,297.5,2|0,0:0|0:0,0:0:0:0:
286,51,52482,2,0,B|372:47|441:114|465:164|450:202|403:249,1,297.5,4|0,0:0|0:0,0:0:0:0:
408,242,53084,2,0,B|398:261|353:279|353:279|390:374,1,170,2|4,0:0|0:0,0:0:0:0:
160,275,53688,54,0,P|146:223|129:180,1,85
279,51,53989,2,0,P|264:90|254:132,1,85,8|0,0:0|0:0,0:0:0:0:
369,231,54291,2,0,P|409:213|454:195,2,85,0|0|8,0:0|0:0|0:0,0:0:0:0:
269,311,54743,1,0,0:0:0:0:
179,219,54894,6,0,L|67:197,1,85
337,115,55195,2,0,L|253:131,1,85,8|0,0:0|0:0,0:0:0:0:
452,247,55497,2,0,L|340:225,2,85,0|0|8,0:0|0:0|0:0,0:0:0:0:
375,349,55949,1,2,0:0:0:0:
252,293,56100,6,0,B|239:252|239:252|255:202,1,85,2|0,0:0|0:0,0:0:0:0:
332,64,56402,2,0,B|344:103|344:103|331:144,1,85,8|0,0:0|0:0,0:0:0:0:
177,149,56703,1,0,0:0:0:0:
177,149,56854,1,0,0:0:0:0:
56,55,57004,2,0,P|47:129|45:162,1,85,8|0,0:0|0:0,0:0:0:0:
171,293,57306,6,0,P|126:266|89:242,1,85
303,323,57607,2,0,P|281:275|265:234,1,85,8|0,0:0|0:0,0:0:0:0:
444,330,57909,1,0,0:0:0:0:
444,330,58060,1,0,0:0:0:0:
396,156,58210,2,0,P|388:197|381:239,1,85,8|0,0:0|0:0,0:0:0:0:
258,137,58512,38,0,P|212:124|167:112,2,85,4|0|8,0:0|0:0|0:0,0:0:0:0:
321,38,58964,1,0,0:0:0:0:
420,118,59115,2,0,P|466:105|511:93,1,85
355,231,59416,1,8,0:0:0:0:
355,231,59567,1,0,0:0:0:0:
239,328,59718,6,0,L|227:242,1,85
285,51,60019,2,0,L|296:135,1,85,8|0,0:0|0:0,0:0:0:0:
170,156,60321,1,0,0:0:0:0:
326,217,60472,1,0,0:0:0:0:
158,135,60622,2,0,L|70:128,1,85,8|0,0:0|0:0,0:0:0:0:
157,273,60924,6,0,L|245:266,1,85,4|0,0:0|0:0,0:0:0:0:
391,136,61226,2,0,P|381:177|373:219,1,85,8|0,0:0|0:0,0:0:0:0:
286,112,61527,1,0,0:0:0:0:
286,112,61678,1,0,0:0:0:0:
475,59,61829,2,0,P|483:100|491:142,1,85,8|0,0:0|0:0,0:0:0:0:
448,286,62130,6,0,P|409:269|367:258,1,85,4|0,0:0|0:0,0:0:0:0:
172,225,62432,2,0,P|210:208|252:197,1,85,8|0,0:0|0:0,0:0:0:0:
343,119,62733,1,0,0:0:0:0:
278,277,62884,1,0,0:0:0:0:
169,133,63035,1,2,0:0:0:0:
422,116,63185,1,0,0:0:0:0:
420,131,63261,1,0,0:0:0:0:
417,145,63336,38,0,P|362:199|270:153,1,170,6|8,0:0|0:0,0:0:0:0:
168,86,63788,2,0,L|148:263,1,170,2|0,0:0|0:0,0:0:0:0:
118,373,64240,2,0,P|59:346|25:334,1,85,10|0,0:0|0:0,0:0:0:0:
244,337,64542,6,0,B|291:344|291:344|352:321|352:321|427:335,1,170,2|8,0:0|0:0,0:0:0:0:
496,200,64994,2,0,P|434:218|419:110,1,170,2|0,0:0|0:0,0:0:0:0:
271,83,65446,2,0,P|313:35|333:20,1,85,10|0,0:0|0:0,0:0:0:0:
264,190,65748,6,0,B|189:215|177:163|94:193,1,170,6|8,0:0|0:0,0:0:0:0:
157,302,66200,1,0,0:0:0:0:
267,345,66351,2,0,P|305:334|353:324,1,85
445,200,66652,1,10,0:0:0:0:
494,314,66803,1,0,0:0:0:0:
318,217,66954,6,0,B|296:98|296:98|339:122,1,170,2|8,0:0|0:0,0:0:0:0:
470,120,67406,1,0,0:0:0:0:
394,18,67557,2,0,L|277:1,1,85
108,99,67858,2,0,L|193:87,1,85,8|0,0:0|0:0,0:0:0:0:
171,245,68160,38,0,P|114:203|7:220,1,170,6|8,0:0|0:0,0:0:0:0:
95,337,68612,2,0,P|159:342|199:346,1,85,2|0,0:0|0:0,0:0:0:0:
372,348,68914,1,0,0:0:0:0:
301,195,69064,2,0,P|279:257|270:285,1,85,10|0,0:0|0:0,0:0:0:0:
444,215,69366,6,0,P|392:157|375:55,1,170,2|8,0:0|0:0,0:0:0:0:
250,24,69818,2,0,P|235:63|222:104,1,85,2|0,0:0|0:0,0:0:0:0:
284,227,70120,1,0,0:0:0:0:
108,108,70270,2,0,P|116:171|122:196,1,85,8|0,0:0|0:0,0:0:0:0:
341,300,70572,6,0,P|273:257|189:284,1,170,6|8,0:0|0:0,0:0:0:0:
96,353,71024,1,0,0:0:0:0:
10,270,71175,2,0,L|-3:177,1,85
165,104,71476,1,10,0:0:0:0:
119,221,71627,1,0,0:0:0:0:
89,46,71778,6,0,P|131:16|247:59,1,170,2|8,0:0|0:0,0:0:0:0:
303,155,72230,1,0,0:0:0:0:
409,104,72381,2,0,P|461:93|498:86,1,85
320,35,72682,1,8,0:0:0:0:
387,220,72833,1,0,0:0:0:0:
205,143,72984,38,0,B|171:194|171:194|203:319,1,170,6|8,0:0|0:0,0:0:0:0:
309,361,73436,2,0,P|368:339|420:329,1,85,2|0,0:0|0:0,0:0:0:0:
265,234,73738,1,0,0:0:0:0:
154,374,73888,2,0,P|121:345|96:303,1,85,10|0,0:0|0:0,0:0:0:0:
137,158,74190,6,0,P|69:189|56:117,1,170,2|8,0:0|0:0,0:0:0:0:
239,75,74642,2,0,P|258:122|263:160,1,85,2|0,0:0|0:0,0:0:0:0:
197,279,74944,1,0,0:0:0:0:
334,340,75094,2,0,L|351:249,1,85,10|0,0:0|0:0,0:0:0:0:
350,121,75396,6,0,B|410:152|410:152|506:109,1,170,6|8,0:0|0:0,0:0:0:0:
404,27,75848,1,0,0:0:0:0:
285,26,75999,2,0,B|249:48|249:48|233:107,1,85
106,120,76301,1,10,0:0:0:0:
282,181,76451,1,0,0:0:0:0:
92,290,76602,6,0,P|98:211|109:94,1,170,2|8,0:0|0:0,0:0:0:0:
204,205,77054,1,0,0:0:0:0:
204,204,77205,2,0,P|204:246|203:288,1,85
5,372,77507,2,0,P|4:329|5:287,1,85,8|0,0:0|0:0,0:0:0:0:
162,367,77808,38,0,B|217:378|217:378|280:353|280:353|337:365,1,170,6|8,0:0|0:0,0:0:0:0:
463,227,78260,2,0,P|448:267|436:308,1,85,2|0,0:0|0:0,0:0:0:0:
332,247,78562,1,0,0:0:0:0:
363,138,78713,2,0,P|434:126|467:121,1,85,10|0,0:0|0:0,0:0:0:0:
253,169,79014,6,0,P|195:149|75:123,1,170,2|8,0:0|0:0,0:0:0:0:
45,278,79466,2,0,P|87:267|126:250,1,85,2|0,0:0|0:0,0:0:0:0:
216,340,79768,1,0,0:0:0:0:
216,340,79919,2,0,P|243:307|265:271,1,85,2|0,0:0|0:0,0:0:0:0:
377,68,80220,6,0,L|397:242,1,170,6|8,0:0|0:0,0:0:0:0:
272,167,80672,1,0,0:0:0:0:
156,196,80823,2,0,P|135:256|126:309,1,85,0|2,0:0|0:0,0:0:0:0:
237,283,81125,1,10,0:0:0:0:
33,311,81275,1,0,0:0:0:0:
48,129,81426,54,0,L|227:98,1,170,6|8,0:0|0:0,0:0:0:0:
332,27,81879,1,0,0:0:0:0:
403,158,82030,1,0,0:0:0:0:
403,158,82105,1,0,0:0:0:0:
403,158,82180,1,0,0:0:0:0:
259,204,82331,5,0,3:0:0:0:
234,238,82406,1,0,3:0:0:0:
230,280,82481,1,0,3:0:0:0:
246,319,82557,1,0,3:0:0:0:
282,341,82633,6,0,P|345:323|462:321,1,170,4|8,0:0|0:0,0:0:0:0:
435,183,83085,1,0,0:0:0:0:
310,104,83236,2,0,P|301:146|294:188,1,85
192,305,83537,2,0,P|185:263|176:221,1,85,8|0,0:0|0:0,0:0:0:0:
26,136,83839,6,0,P|104:126|182:59,1,170,2|8,0:0|0:0,0:0:0:0:
305,34,84291,1,0,0:0:0:0:
380,178,84442,2,0,P|323:168|281:160,1,85
121,278,84743,2,0,P|162:270|204:262,1,85,8|0,0:0|0:0,0:0:0:0:
393,342,85045,38,0,B|366:258|366:258|383:157,1,170,4|8,0:0|0:0,0:0:0:0:
418,56,85497,1,0,0:0:0:0:
491,146,85648,2,0,L|475:240,1,85
284,144,85949,2,0,L|297:60,1,85,8|0,0:0|0:0,0:0:0:0:
134,171,86251,6,0,P|183:198|264:285,1,170,4|8,0:0|0:0,0:0:0:0:
127,349,86703,1,0,1:0:0:0:
10,275,86854,1,0,0:0:0:0:
17,233,86929,1,0,0:0:0:0:
24,191,87004,1,0,0:0:0:0:
128,86,87155,2,0,L|135:188,1,85,8|8,0:0|0:0,0:0:0:0:
286,357,87457,6,0,L|291:272,1,85,6|0,1:2|0:0,0:0:0:0:
115,322,87758,1,8,0:0:0:0:
391,192,87909,2,0,L|396:276,1,85,6|0,1:2|0:0,0:0:0:0:
192,229,88210,1,0,0:0:0:0:
302,73,88361,2,0,L|297:158,1,85,14|0,1:2|0:0,0:0:0:0:
396,276,88663,6,0,P|441:256|485:244,1,85,6|0,1:2|0:0,0:0:0:0:
254,288,88964,1,8,0:0:0:0:
254,291,89115,2,0,P|272:329|298:362,1,85,6|0,1:2|0:0,0:0:0:0:
337,161,89416,1,0,1:0:0:0:
165,91,89567,2,0,P|143:152|129:214,1,127.5,14|0,1:2|0:0,0:0:0:0:
129,214,89869,38,0,P|171:204|212:194,1,85,6|0,1:2|0:0,0:0:0:0:
337,161,90171,1,8,0:0:0:0:
488,84,90321,2,0,L|465:165,1,85,6|0,1:2|0:0,0:0:0:0:
364,289,90622,1,0,0:0:0:0:
245,83,90773,2,0,P|293:56|329:40,1,85,14|0,1:2|0:0,0:0:0:0:
219,217,91075,6,0,P|153:193|111:177,1,85,6|0,1:2|0:0,0:0:0:0:
337,161,91376,1,8,0:0:0:0:
398,276,91527,2,0,L|310:324,1,85,6|0,1:2|0:0,0:0:0:0:
188,364,91829,1,0,0:0:0:0:
50,211,91979,2,0,P|99:250|160:242,1,127.5,14|0,0:0|0:0,0:0:0:0:
172,251,92281,6,0,L|170:152,1,93.5000028533936,6|0,1:2|0:0,0:0:0:0:
354,193,92582,1,0,0:0:0:0:
284,108,92733,2,0,L|282:9,1,93.5000028533936,6|0,1:2|0:0,0:0:0:0:
446,165,93035,1,0,0:0:0:0:
259,239,93185,2,0,L|260:332,1,93.5000028533936,6|0,1:2|0:0,0:0:0:0:
113,151,93487,54,0,B|50:123|27:114,1,93.5000028533936,6|0,1:2|0:0,0:0:0:0:
238,94,93788,1,8,0:0:0:0:
259,239,93939,2,0,B|193:261|171:270,1,93.5000028533936,6|0,1:2|0:0,0:0:0:0:
472,224,94241,1,0,1:0:0:0:
342,141,94391,2,0,P|318:84|336:-3,1,140.25000428009,14|0,1:2|0:2,0:2:0:0:
336,13,94693,22,0,P|402:30|433:39,1,93.5000028533936,6|0,1:2|0:0,0:0:0:0:
461,220,94994,1,8,0:0:0:0:
214,166,95145,2,0,P|259:157|306:149,1,93.5000028533936,6|0,1:2|0:0,0:0:0:0:
98,64,95447,1,0,0:0:0:0:
52,219,95597,2,0,L|149:263,1,93.5000028533936,14|0,1:2|0:0,0:0:0:0:
364,283,95899,54,0,P|307:297|253:313,1,93.5000028533936,6|0,1:2|0:0,0:0:0:0:
438,177,96200,1,8,0:0:0:0:
497,311,96351,1,0,1:0:0:0:
306,179,96502,2,0,P|291:131|381:18,1,187.000005706787,6|8,1:2|0:0,0:0:0:0:
512,64,96954,1,0,0:0:0:0:
416,256,97105,1,4,0:0:0:0:
256,192,97180,12,0,99442,0:0:0:0:
256,192,99517,12,0,101628,0:0:0:0:
256,192,101929,21,4,0:0:0:0:
