osu file format v14

[General]
AudioFilename: audio.mp3
AudioLeadIn: 0
PreviewTime: 13140
Countdown: 0
SampleSet: Normal
StackLeniency: 0.7
Mode: 1
LetterboxInBreaks: 0
WidescreenStoryboard: 1

[Editor]
Bookmarks: 310,3247,8380,13514,23781,39182,49450,59717,69984,75118,80252,85386
DistanceSpacing: 0.6
BeatDivisor: 6
GridSize: 32
TimelineZoom: 2.150002

[Metadata]
Title:Battle! (Champion)
TitleUnicode:戦闘!チャンピオン
Artist:Junichi Masuda
ArtistUnicode:増田順一
Creator:nevqr
Version:You are challenged by Champion Cynthia!
Source:ポケットモンスター ダイヤモンド・パール
Tags:sentou! sentō! sento! cynthia シロナ shirona no gaburias cynthia's cynthias garchomp シロナのガブリアス ガブリアス pokémon pokemon ポケモン pocket monsters poketto monsuta monsutā ポケットモンスター ost original soundtrack track 145 disk 2 67 ichinose go gō gou hitomi sato satō satou 佐藤仁美 junichi jun'ichi masuda 増田順一 diamond and & pearl platinum version ポケットモンスタープラチナ d p pt dp dppt black and & white 2 version bw bw2 ポケットモンスター ブラック・ホワイト ポケットモンスター ブラック2・ホワイト2 brilliant diamond and & shining pearl version bdsp ポケットモンスター ブリリアントダイヤモンド・シャイニングパール gen generation four 4 iv 第四世代 five 5 v 第五世代 eight 8 viii 第八世代 sinnoh シンオウ unova isshu イッシュ undella town sazanami town サザナミタウン elite 4 four 任天堂 四天王 shitenno shitennō shitennou theme sinnoh league champion videogame video game vgm instrumental electronic gamefreak game freak nintendo ds nds 任天堂 ニンテンドーDS ポケモン ダイヤモンド&パール スーパーミュージックコレクション super music collection complete
BeatmapID:4270852
BeatmapSetID:2046043

[Difficulty]
HPDrainRate:6
CircleSize:2
OverallDifficulty:7
ApproachRate:9
SliderMultiplier:1.4
SliderTickRate:1

[Events]
//Background and Video events
0,0,"cynthia.jpg",0,50
//Break Periods
//Storyboard Layer 0 (Background)
//Storyboard Layer 1 (Fail)
//Storyboard Layer 2 (Pass)
//Storyboard Layer 3 (Foreground)
//Storyboard Layer 4 (Overlay)
//Storyboard Sound Samples

[TimingPoints]
333,727.272727272727,4,1,0,60,1,0
333,-51.2820512820513,4,1,0,60,0,0
1777,-50.003783579266,4,1,0,62,0,0
1959,-48.7876908537846,4,1,0,64,0,0
2141,-47.6293445198864,4,1,0,65,0,0
2322,-46.5247268221246,4,1,0,67,0,0
2504,-45.4701842753533,4,1,0,69,0,0
2626,-44.7933189625954,4,1,0,71,0,0
2747,-44.1363095953726,4,1,0,73,0,0
2868,-43.5034497287618,4,1,0,75,0,0
2989,-42.8834722114062,4,1,0,76,0,0
3110,-42.2809172809173,4,1,0,78,0,0
3241,731.707317073171,4,1,0,80,1,8
3247,320.855614973262,4,1,0,90,1,1
3247,-83.3333333333333,4,1,0,90,0,1
3407,-100,4,1,0,70,0,0
8380,-86.9565217391304,4,1,0,90,0,1
8541,-95.2380952380952,4,1,0,80,0,0
13263,-94.1210966133998,4,1,0,82,0,0
13343,-93.0299956528039,4,1,0,85,0,0
13424,-91.9507304497279,4,1,0,88,0,0
13514,-90.9090909090909,4,1,0,90,0,1
23460,-90.9090909090909,4,1,0,90,0,0
23781,-90.9090909090909,4,1,0,90,0,1
38851,-90.9090909090909,4,1,0,88,0,1
38929,-91.9639020197679,4,1,0,86,0,1
39009,-93.0299956528039,4,1,0,84,0,1
39089,-94.1210966133998,4,1,0,82,0,1
39182,-86.9565217391304,4,1,0,80,0,0
39493,-100,4,1,0,70,0,0
44039,-98.3455882352941,4,1,0,71,0,0
44092,-96.7741935483871,4,1,0,73,0,0
44146,-95.2239691486206,4,1,0,75,0,0
44199,-93.75,4,1,0,77,0,0
44253,-92.2944220816561,4,1,0,79,0,0
44306,-90.9090909090909,4,1,0,80,0,0
44627,-100,4,1,0,70,0,0
48958,-98.7692307692308,4,1,0,72,0,0
49119,-97.5609756097561,4,1,0,74,0,0
49279,-96.389159972975,4,1,0,76,0,0
49359,-95.8137452428923,4,1,0,78,0,0
49440,-90.9090909090909,4,1,0,80,0,0
49600,-95.2380952380952,4,1,0,70,0,0
52007,-86.9565217391304,4,1,0,80,0,0
52167,-95.2380952380952,4,1,0,70,0,0
54573,-86.9565217391304,4,1,0,80,0,0
54734,-95.2380952380952,4,1,0,70,0,0
57140,-86.9565217391304,4,1,0,80,0,0
57301,-95.2380952380952,4,1,0,70,0,0
59466,-94.1210966133998,4,1,0,73,0,0
59547,-93.0165169516082,4,1,0,77,0,0
59627,-91.9507304497279,4,1,0,80,0,0
59707,-83.3333333333333,4,1,0,90,0,0
59868,-90.9090909090909,4,1,0,80,0,0
62274,-83.3333333333333,4,1,0,90,0,0
62434,-90.9090909090909,4,1,0,80,0,0
64841,-83.3333333333333,4,1,0,90,0,0
65001,-90.9090909090909,4,1,0,80,0,0
67408,-83.3333333333333,4,1,0,90,0,0
67568,-90.9090909090909,4,1,0,80,0,0
69734,-89.8876404494382,4,1,0,82,0,0
69814,-88.8888888888889,4,1,0,85,0,0
69894,-87.9120879120879,4,1,0,88,0,0
69984,-80,4,1,0,90,0,1
70135,-86.9565217391304,4,1,0,90,0,1
72541,-80,4,1,0,100,0,1
72702,-86.9565217391304,4,1,0,90,0,1
73023,-80,4,1,0,100,0,1
73183,-86.9565217391304,4,1,0,90,0,1
73504,-80,4,1,0,100,0,1
73664,-86.9565217391304,4,1,0,90,0,1
73985,-80,4,1,0,100,0,1
74146,-86.9565217391304,4,1,0,90,0,1
74466,-80,4,1,0,100,0,1
74627,-86.9565217391304,4,1,0,90,0,1
74787,-80,4,1,0,100,0,1
74948,-86.9565217391304,4,1,0,90,0,1
75118,-80,4,1,0,100,0,0
75269,-100,4,1,0,70,0,0
77835,-99.0737167116943,4,1,0,71,0,0
77996,-98.1588054222511,4,1,0,72,0,0
78156,-97.266165242597,4,1,0,74,0,0
78317,-96.3841850336049,4,1,0,74,0,0
78397,-95.9518558666318,4,1,0,75,0,0
78477,-95.5233877869981,4,1,0,76,0,0
78638,-94.6725921554888,4,1,0,77,0,0
78798,-93.8419638450712,4,1,0,78,0,0
78958,-93.0257841236478,4,1,0,79,0,0
79119,-92.2187095847104,4,1,0,80,0,0
79199,-91.8228645013593,4,1,0,81,0,0
79279,-91.4304031913378,4,1,0,82,0,0
79359,-91.0412824514115,4,1,0,83,0,0
79440,-90.6506577204909,4,1,0,83,0,0
79600,-89.8888208001401,4,1,0,84,0,0
79680,-89.5126841600558,4,1,0,85,0,0
79761,-89.1350394110907,4,1,0,86,0,0
79841,-88.7651716864345,4,1,0,86,0,0
79921,-88.3983608250973,4,1,0,87,0,0
80001,-88.0345690867314,4,1,0,88,0,0
80081,-87.6737593497046,4,1,0,89,0,0
80162,-87.3114402816279,4,1,0,89,0,0
80242,-80,4,1,0,90,0,0
80402,-100,4,1,0,60,0,0
85135,-98.7692307692308,4,1,0,68,0,0
85215,-97.5683890577508,4,1,0,75,0,0
85295,-96.3963963963964,4,1,0,82,0,0
85386,-86.9565217391304,4,1,0,90,0,1
85546,-100,4,1,0,90,0,0

[HitObjects]
256,192,333,5,8,1:0:0:0:
256,192,514,1,8,1:0:0:0:
256,192,696,1,0,0:0:0:0:
256,192,878,1,0,1:0:0:0:
256,192,1060,1,8,1:0:0:0:
256,192,1242,1,0,1:0:0:0:
256,192,1605,1,0,1:0:0:0:
256,192,1787,1,8,1:0:0:0:
256,192,1969,1,0,1:0:0:0:
256,192,2151,1,0,1:0:0:0:
256,192,2332,1,8,1:0:0:0:
256,192,2514,1,0,1:0:0:0:
256,192,2636,1,0,1:0:0:0:
256,192,2757,1,0,1:0:0:0:
256,192,2878,1,8,1:0:0:0:
256,192,2999,1,8,1:0:0:0:
256,192,3120,1,8,1:0:0:0:
256,192,3247,1,4,1:0:0:0:
256,192,3407,1,8,1:0:0:0:
256,192,3567,1,0,1:0:0:0:
256,192,3728,1,8,1:0:0:0:
256,192,3888,1,0,1:0:0:0:
256,192,4049,1,8,1:0:0:0:
256,192,4209,1,0,1:0:0:0:
256,192,4369,1,8,1:0:0:0:
256,192,4530,1,0,1:0:0:0:
256,192,4690,1,8,1:0:0:0:
256,192,4851,1,0,1:0:0:0:
256,192,5011,1,8,1:0:0:0:
256,192,5172,1,0,1:0:0:0:
256,192,5332,1,8,1:0:0:0:
256,192,5492,1,0,1:0:0:0:
256,192,5653,1,8,1:0:0:0:
256,192,5813,1,0,1:0:0:0:
256,192,5974,1,8,1:0:0:0:
256,192,6134,1,0,1:0:0:0:
256,192,6295,1,8,1:0:0:0:
256,192,6455,1,0,1:0:0:0:
256,192,6615,1,8,1:0:0:0:
256,192,6776,1,0,1:0:0:0:
256,192,6936,1,8,1:0:0:0:
256,192,7097,1,0,1:0:0:0:
256,192,7257,1,8,1:0:0:0:
256,192,7418,1,0,1:0:0:0:
256,192,7578,1,8,1:0:0:0:
256,192,7738,1,0,1:0:0:0:
256,192,7899,1,8,1:0:0:0:
256,192,8059,1,0,1:0:0:0:
256,192,8140,1,0,1:0:0:0:
256,192,8220,1,8,1:0:0:0:
256,192,8300,1,8,1:0:0:0:
256,192,8380,1,4,1:0:0:0:
256,192,8541,1,8,1:0:0:0:
256,192,8621,1,8,1:0:0:0:
256,192,8701,1,8,1:0:0:0:
256,192,8861,1,0,1:0:0:0:
256,192,9022,1,8,1:0:0:0:
256,192,9102,1,8,1:0:0:0:
256,192,9182,1,0,1:0:0:0:
256,192,9343,1,8,1:0:0:0:
256,192,9503,1,0,1:0:0:0:
256,192,9583,1,0,1:0:0:0:
256,192,9664,1,8,1:0:0:0:
256,192,9824,1,0,1:0:0:0:
256,192,9904,1,8,1:0:0:0:
256,192,9984,1,8,1:0:0:0:
256,192,10145,1,0,1:0:0:0:
256,192,10305,1,8,1:0:0:0:
256,192,10386,1,0,1:0:0:0:
256,192,10466,1,0,1:0:0:0:
256,192,10626,1,8,1:0:0:0:
256,192,10706,1,8,1:0:0:0:
256,192,10787,1,0,1:0:0:0:
256,192,10867,1,0,1:0:0:0:
256,192,10947,1,8,1:0:0:0:
256,192,11107,1,0,1:0:0:0:
256,192,11188,1,0,1:0:0:0:
256,192,11268,1,8,1:0:0:0:
256,192,11428,1,0,1:0:0:0:
256,192,11589,1,8,1:0:0:0:
256,192,11749,1,0,1:0:0:0:
256,192,11910,1,8,1:0:0:0:
256,192,11990,1,8,1:0:0:0:
256,192,12070,1,0,1:0:0:0:
256,192,12230,1,8,1:0:0:0:
256,192,12311,1,8,1:0:0:0:
256,192,12391,1,8,1:0:0:0:
256,192,12471,1,8,1:0:0:0:
256,192,12551,1,0,1:0:0:0:
256,192,12712,1,8,1:0:0:0:
256,192,12872,1,0,1:0:0:0:
256,192,13033,1,8,1:0:0:0:
256,192,13193,1,0,1:0:0:0:
256,192,13273,1,0,1:0:0:0:
256,192,13353,1,0,1:0:0:0:
256,192,13434,1,0,1:0:0:0:
256,192,13514,1,8,1:0:0:0:
256,192,13674,1,0,1:0:0:0:
256,192,13755,1,0,1:0:0:0:
256,192,13835,1,8,1:0:0:0:
256,192,13995,1,0,1:0:0:0:
256,192,14156,1,8,1:0:0:0:
256,192,14236,1,0,1:0:0:0:
256,192,14316,1,0,1:0:0:0:
256,192,14476,1,8,1:0:0:0:
256,192,14637,1,0,1:0:0:0:
256,192,14717,1,0,1:0:0:0:
256,192,14797,1,8,1:0:0:0:
256,192,14878,1,0,1:0:0:0:
256,192,14958,1,8,1:0:0:0:
256,192,15038,1,8,1:0:0:0:
256,192,15118,1,0,1:0:0:0:
256,192,15198,1,0,1:0:0:0:
256,192,15279,1,8,1:0:0:0:
256,192,15439,1,0,1:0:0:0:
256,192,15519,1,0,1:0:0:0:
256,192,15599,1,0,1:0:0:0:
256,192,15760,1,8,1:0:0:0:
256,192,15840,1,0,1:0:0:0:
256,192,15920,1,0,1:0:0:0:
256,192,16001,1,0,1:0:0:0:
256,192,16081,1,8,1:0:0:0:
256,192,16241,1,0,1:0:0:0:
256,192,16321,1,0,1:0:0:0:
256,192,16402,1,8,1:0:0:0:
256,192,16562,1,0,1:0:0:0:
256,192,16722,1,8,1:0:0:0:
256,192,16883,1,0,1:0:0:0:
256,192,17043,1,8,1:0:0:0:
256,192,17124,1,8,1:0:0:0:
256,192,17204,1,8,1:0:0:0:
256,192,17364,1,0,1:0:0:0:
256,192,17444,1,0,1:0:0:0:
256,192,17525,1,8,1:0:0:0:
256,192,17605,1,8,1:0:0:0:
256,192,17685,1,0,1:0:0:0:
256,192,17765,1,0,1:0:0:0:
256,192,17845,1,0,1:0:0:0:
256,192,17926,1,0,1:0:0:0:
256,192,18006,1,8,1:0:0:0:
256,192,18166,1,0,1:0:0:0:
256,192,18327,1,8,1:0:0:0:
256,192,18407,1,8,1:0:0:0:
256,192,18487,1,8,1:0:0:0:
256,192,18567,1,8,1:0:0:0:
256,192,18648,1,0,1:0:0:0:
256,192,18808,1,8,1:0:0:0:
256,192,18888,1,8,1:0:0:0:
256,192,18968,1,0,1:0:0:0:
256,192,19129,1,8,1:0:0:0:
256,192,19289,1,0,1:0:0:0:
256,192,19369,1,0,1:0:0:0:
256,192,19450,1,8,1:0:0:0:
256,192,19610,1,0,1:0:0:0:
256,192,19771,1,8,1:0:0:0:
256,192,19851,1,0,1:0:0:0:
256,192,19931,1,8,1:0:0:0:
256,192,20011,1,8,1:0:0:0:
256,192,20091,1,0,1:0:0:0:
256,192,20172,1,0,1:0:0:0:
256,192,20252,1,8,1:0:0:0:
256,192,20332,1,0,1:0:0:0:
256,192,20412,1,8,1:0:0:0:
256,192,20573,1,0,1:0:0:0:
256,192,20653,1,0,1:0:0:0:
256,192,20733,1,0,1:0:0:0:
256,192,20894,1,8,1:0:0:0:
256,192,20974,1,8,1:0:0:0:
256,192,21054,1,0,1:0:0:0:
256,192,21134,1,0,1:0:0:0:
256,192,21214,1,8,1:0:0:0:
256,192,21375,1,0,1:0:0:0:
256,192,21455,1,0,1:0:0:0:
256,192,21535,1,8,1:0:0:0:
256,192,21696,1,0,1:0:0:0:
256,192,21856,1,8,1:0:0:0:
256,192,22017,1,0,1:0:0:0:
256,192,22177,1,8,1:0:0:0:
256,192,22257,1,8,1:0:0:0:
256,192,22337,1,0,1:0:0:0:
256,192,22498,1,8,1:0:0:0:
256,192,22578,1,8,1:0:0:0:
256,192,22658,1,8,1:0:0:0:
256,192,22738,1,8,1:0:0:0:
256,192,22819,1,0,1:0:0:0:
256,192,22979,1,0,1:0:0:0:
256,192,23140,1,8,1:0:0:0:
256,192,23300,1,0,1:0:0:0:
256,192,23460,1,8,1:0:0:0:
256,192,23541,1,0,1:0:0:0:
256,192,23701,1,0,1:0:0:0:
256,192,23781,1,8,1:0:0:0:
256,192,23942,1,0,1:0:0:0:
256,192,24022,1,0,1:0:0:0:
256,192,24102,1,8,1:0:0:0:
256,192,24263,1,0,1:0:0:0:
256,192,24423,1,8,1:0:0:0:
256,192,24503,1,8,1:0:0:0:
256,192,24583,1,0,1:0:0:0:
256,192,24744,1,8,1:0:0:0:
256,192,24904,1,0,1:0:0:0:
256,192,24984,1,0,1:0:0:0:
256,192,25065,1,8,1:0:0:0:
256,192,25145,1,8,1:0:0:0:
256,192,25225,1,0,1:0:0:0:
256,192,25305,1,0,1:0:0:0:
256,192,25386,1,0,1:0:0:0:
256,192,25466,1,0,1:0:0:0:
256,192,25546,1,8,1:0:0:0:
256,192,25706,1,0,1:0:0:0:
256,192,25787,1,0,1:0:0:0:
256,192,25867,1,0,1:0:0:0:
256,192,26027,1,8,1:0:0:0:
256,192,26107,1,8,1:0:0:0:
256,192,26188,1,0,1:0:0:0:
256,192,26268,1,0,1:0:0:0:
256,192,26348,1,8,1:0:0:0:
256,192,26509,1,0,1:0:0:0:
256,192,26589,1,0,1:0:0:0:
256,192,26669,1,8,1:0:0:0:
256,192,26829,1,0,1:0:0:0:
256,192,26990,1,8,1:0:0:0:
256,192,27150,1,0,1:0:0:0:
256,192,27311,1,8,1:0:0:0:
256,192,27391,1,8,1:0:0:0:
256,192,27471,1,8,1:0:0:0:
256,192,27632,1,0,1:0:0:0:
256,192,27712,1,0,1:0:0:0:
256,192,27792,1,0,1:0:0:0:
256,192,27872,1,0,1:0:0:0:
256,192,27952,1,8,1:0:0:0:
256,192,28033,1,8,1:0:0:0:
256,192,28113,1,0,1:0:0:0:
256,192,28193,1,0,1:0:0:0:
256,192,28273,1,8,1:0:0:0:
256,192,28434,1,0,1:0:0:0:
256,192,28594,1,8,1:0:0:0:
256,192,28674,1,8,1:0:0:0:
256,192,28755,1,8,1:0:0:0:
256,192,28835,1,8,1:0:0:0:
256,192,28915,1,0,1:0:0:0:
256,192,29075,1,8,1:0:0:0:
256,192,29156,1,8,1:0:0:0:
256,192,29236,1,0,1:0:0:0:
256,192,29396,1,0,1:0:0:0:
256,192,29557,1,8,1:0:0:0:
256,192,29717,1,0,1:0:0:0:
256,192,29878,1,8,1:0:0:0:
256,192,29958,1,8,1:0:0:0:
256,192,30038,1,0,1:0:0:0:
256,192,30198,1,8,1:0:0:0:
256,192,30279,1,0,1:0:0:0:
256,192,30359,1,8,1:0:0:0:
256,192,30439,1,0,1:0:0:0:
256,192,30519,1,8,1:0:0:0:
256,192,30599,1,8,1:0:0:0:
256,192,30680,1,0,1:0:0:0:
256,192,30760,1,0,1:0:0:0:
256,192,30840,1,8,1:0:0:0:
256,192,31001,1,0,1:0:0:0:
256,192,31161,1,8,1:0:0:0:
256,192,31241,1,0,1:0:0:0:
256,192,31321,1,0,1:0:0:0:
256,192,31402,1,0,1:0:0:0:
256,192,31482,1,8,1:0:0:0:
256,192,31642,1,0,1:0:0:0:
256,192,31722,1,0,1:0:0:0:
256,192,31803,1,0,1:0:0:0:
256,192,31963,1,8,1:0:0:0:
256,192,32124,1,0,1:0:0:0:
256,192,32284,1,8,1:0:0:0:
256,192,32444,1,0,1:0:0:0:
256,192,32525,1,0,1:0:0:0:
256,192,32605,1,8,1:0:0:0:
256,192,32765,1,0,1:0:0:0:
256,192,32845,1,0,1:0:0:0:
256,192,32926,1,8,1:0:0:0:
256,192,33006,1,8,1:0:0:0:
256,192,33086,1,0,1:0:0:0:
256,192,33166,1,0,1:0:0:0:
256,192,33246,1,8,1:0:0:0:
256,192,33327,1,0,1:0:0:0:
256,192,33407,1,8,1:0:0:0:
256,192,33567,1,0,1:0:0:0:
256,192,33728,1,8,1:0:0:0:
256,192,33808,1,8,1:0:0:0:
256,192,33888,1,0,1:0:0:0:
256,192,33968,1,0,1:0:0:0:
256,192,34049,1,8,1:0:0:0:
256,192,34209,1,0,1:0:0:0:
256,192,34289,1,0,1:0:0:0:
256,192,34369,1,8,1:0:0:0:
256,192,34530,1,0,1:0:0:0:
256,192,34690,1,8,1:0:0:0:
256,192,34851,1,0,1:0:0:0:
256,192,35011,1,8,1:0:0:0:
256,192,35091,1,8,1:0:0:0:
256,192,35172,1,0,1:0:0:0:
256,192,35332,1,8,1:0:0:0:
256,192,35412,1,8,1:0:0:0:
256,192,35492,1,8,1:0:0:0:
256,192,35573,1,8,1:0:0:0:
256,192,35653,1,0,1:0:0:0:
256,192,35733,1,0,1:0:0:0:
256,192,35813,1,8,1:0:0:0:
256,192,35894,1,0,1:0:0:0:
256,192,35974,1,8,1:0:0:0:
256,192,36054,1,8,0:0:0:0:
256,192,36134,1,0,0:0:0:0:
256,192,36295,1,8,1:0:0:0:
256,192,36375,1,0,1:0:0:0:
256,192,36455,1,0,1:0:0:0:
256,192,36535,1,0,1:0:0:0:
256,192,36615,1,8,1:0:0:0:
256,192,36776,1,0,1:0:0:0:
256,192,36856,1,0,1:0:0:0:
256,192,36936,1,8,1:0:0:0:
256,192,37097,1,0,1:0:0:0:
256,192,37257,1,8,1:0:0:0:
256,192,37418,1,0,1:0:0:0:
256,192,37578,1,8,1:0:0:0:
256,192,37658,1,8,1:0:0:0:
256,192,37738,1,8,1:0:0:0:
256,192,37899,1,0,1:0:0:0:
256,192,37979,1,0,1:0:0:0:
256,192,38059,1,8,1:0:0:0:
256,192,38140,1,8,1:0:0:0:
256,192,38220,1,0,1:0:0:0:
256,192,38300,1,0,1:0:0:0:
256,192,38380,1,8,1:0:0:0:
256,192,38460,1,8,1:0:0:0:
256,192,38541,1,8,1:0:0:0:
255,191,38621,1,8,0:0:0:0:
256,192,38701,1,0,1:0:0:0:
256,192,38861,1,8,1:0:0:0:
256,192,38942,1,8,1:0:0:0:
256,192,39022,1,0,1:0:0:0:
256,192,39102,1,0,1:0:0:0:
256,192,39182,1,12,1:0:0:0:
256,192,39503,1,0,1:0:0:0:
256,192,39664,1,0,1:0:0:0:
256,192,39824,1,8,1:0:0:0:
256,192,40145,1,0,1:0:0:0:
256,192,40466,1,8,1:0:0:0:
256,192,40626,1,8,1:0:0:0:
256,192,40787,1,0,1:0:0:0:
256,192,40947,1,8,1:0:0:0:
256,192,41107,1,0,1:0:0:0:
256,192,41268,1,0,1:0:0:0:
256,192,41428,1,8,1:0:0:0:
256,192,41749,1,0,1:0:0:0:
256,192,42070,1,8,1:0:0:0:
256,192,42230,1,0,1:0:0:0:
256,192,42551,1,0,1:0:0:0:
256,192,42712,1,8,1:0:0:0:
256,192,42872,1,8,1:0:0:0:
256,192,43033,1,0,1:0:0:0:
256,192,43353,1,8,1:0:0:0:
256,192,43674,1,0,1:0:0:0:
256,192,43835,1,8,1:0:0:0:
256,192,43995,1,0,1:0:0:0:
256,192,44049,1,0,1:0:0:0:
256,192,44102,1,8,1:0:0:0:
256,192,44156,1,8,1:0:0:0:
256,192,44209,1,0,1:0:0:0:
256,192,44263,1,0,1:0:0:0:
256,192,44316,1,8,1:0:0:0:
256,192,44637,1,0,1:0:0:0:
256,192,44797,1,0,1:0:0:0:
256,192,44958,1,8,1:0:0:0:
256,192,45279,1,0,1:0:0:0:
256,192,45599,1,8,1:0:0:0:
256,192,45760,1,0,1:0:0:0:
256,192,45920,1,0,1:0:0:0:
256,192,46081,1,8,1:0:0:0:
256,192,46241,1,0,1:0:0:0:
256,192,46402,1,0,1:0:0:0:
256,192,46562,1,8,1:0:0:0:
256,192,46883,1,0,1:0:0:0:
256,192,47204,1,8,1:0:0:0:
256,192,47364,1,0,1:0:0:0:
256,192,47685,1,0,1:0:0:0:
256,192,47845,1,8,1:0:0:0:
256,192,48006,1,0,1:0:0:0:
256,192,48166,1,8,1:0:0:0:
256,192,48487,1,0,1:0:0:0:
256,192,48808,1,8,1:0:0:0:
256,192,48968,1,0,1:0:0:0:
256,192,49129,1,8,1:0:0:0:
256,192,49289,1,0,1:0:0:0:
256,192,49369,1,0,1:0:0:0:
256,192,49450,1,12,1:0:0:0:
256,192,49610,1,0,1:0:0:0:
256,192,49690,1,8,1:0:0:0:
256,192,49771,1,8,1:0:0:0:
256,192,49931,1,0,1:0:0:0:
256,192,50091,1,8,1:0:0:0:
256,192,50172,1,0,1:0:0:0:
256,192,50252,1,0,1:0:0:0:
256,192,50412,1,8,1:0:0:0:
256,192,50573,1,0,1:0:0:0:
256,192,50653,1,0,1:0:0:0:
256,192,50733,1,8,1:0:0:0:
256,192,50894,1,0,1:0:0:0:
256,192,50974,1,8,1:0:0:0:
256,192,51054,1,8,1:0:0:0:
256,192,51214,1,0,1:0:0:0:
256,192,51375,1,8,1:0:0:0:
256,192,51455,1,8,1:0:0:0:
256,192,51535,1,0,1:0:0:0:
256,192,51696,1,8,1:0:0:0:
256,192,51776,1,8,1:0:0:0:
256,192,51856,1,0,1:0:0:0:
256,192,51936,1,0,1:0:0:0:
256,192,52017,1,12,1:0:0:0:
256,192,52177,1,0,1:0:0:0:
256,192,52257,1,0,1:0:0:0:
256,192,52337,1,8,1:0:0:0:
256,192,52498,1,0,1:0:0:0:
256,192,52658,1,8,1:0:0:0:
256,192,52819,1,0,1:0:0:0:
256,192,52979,1,8,1:0:0:0:
256,192,53059,1,8,1:0:0:0:
256,192,53140,1,8,1:0:0:0:
256,192,53300,1,0,1:0:0:0:
256,192,53380,1,0,1:0:0:0:
256,192,53460,1,8,1:0:0:0:
256,192,53541,1,8,1:0:0:0:
256,192,53621,1,0,1:0:0:0:
256,192,53781,1,0,1:0:0:0:
256,192,53942,1,8,1:0:0:0:
256,192,54022,1,8,1:0:0:0:
256,192,54102,1,0,1:0:0:0:
256,192,54263,1,8,1:0:0:0:
256,192,54343,1,8,1:0:0:0:
256,192,54423,1,8,1:0:0:0:
256,192,54503,1,8,1:0:0:0:
256,192,54583,1,4,1:0:0:0:
256,192,54744,1,8,1:0:0:0:
256,192,54824,1,8,1:0:0:0:
256,192,54904,1,0,1:0:0:0:
256,192,55065,1,0,1:0:0:0:
256,192,55225,1,8,1:0:0:0:
256,192,55386,1,0,1:0:0:0:
256,192,55546,1,8,1:0:0:0:
256,192,55626,1,0,1:0:0:0:
256,192,55706,1,0,1:0:0:0:
256,192,55867,1,8,1:0:0:0:
256,192,55947,1,8,1:0:0:0:
256,192,56027,1,0,1:0:0:0:
256,192,56107,1,0,1:0:0:0:
256,192,56188,1,8,1:0:0:0:
256,192,56348,1,0,1:0:0:0:
256,192,56509,1,8,1:0:0:0:
256,192,56589,1,8,1:0:0:0:
256,192,56669,1,8,1:0:0:0:
256,192,56829,1,0,1:0:0:0:
256,192,56910,1,0,1:0:0:0:
256,192,56990,1,8,1:0:0:0:
256,192,57070,1,8,1:0:0:0:
256,192,57150,1,4,1:0:0:0:
256,192,57311,1,8,1:0:0:0:
256,192,57391,1,8,1:0:0:0:
256,192,57471,1,8,1:0:0:0:
256,192,57632,1,0,1:0:0:0:
256,192,57792,1,8,1:0:0:0:
256,192,57952,1,0,1:0:0:0:
256,192,58113,1,8,1:0:0:0:
256,192,58193,1,8,1:0:0:0:
256,192,58273,1,0,1:0:0:0:
256,192,58434,1,8,1:0:0:0:
256,192,58514,1,0,1:0:0:0:
256,192,58594,1,0,1:0:0:0:
256,192,58674,1,0,1:0:0:0:
256,192,58755,1,8,1:0:0:0:
256,192,58915,1,0,1:0:0:0:
256,192,59075,1,8,1:0:0:0:
256,192,59156,1,0,1:0:0:0:
256,192,59236,1,0,1:0:0:0:
256,192,59396,1,8,1:0:0:0:
256,192,59476,1,8,1:0:0:0:
256,192,59557,1,0,1:0:0:0:
256,192,59637,1,0,1:0:0:0:
256,192,59717,1,12,1:0:0:0:
256,192,59878,1,0,1:0:0:0:
256,192,59958,1,0,1:0:0:0:
256,192,60038,1,8,1:0:0:0:
256,192,60198,1,0,1:0:0:0:
256,192,60359,1,8,1:0:0:0:
256,192,60519,1,0,1:0:0:0:
256,192,60680,1,8,1:0:0:0:
256,192,60760,1,8,1:0:0:0:
256,192,60840,1,8,1:0:0:0:
256,192,61001,1,0,1:0:0:0:
256,192,61081,1,0,1:0:0:0:
256,192,61161,1,0,1:0:0:0:
256,192,61242,1,0,1:0:0:0:
256,192,61322,1,8,1:0:0:0:
256,192,61402,1,8,1:0:0:0:
256,192,61482,1,0,1:0:0:0:
256,192,61642,1,8,1:0:0:0:
256,192,61803,1,0,1:0:0:0:
256,192,61963,1,8,1:0:0:0:
256,192,62043,1,8,1:0:0:0:
256,192,62124,1,0,1:0:0:0:
256,192,62204,1,0,1:0:0:0:
256,192,62284,1,12,1:0:0:0:
256,192,62444,1,0,1:0:0:0:
256,192,62525,1,8,1:0:0:0:
256,192,62605,1,8,1:0:0:0:
256,192,62765,1,0,1:0:0:0:
256,192,62926,1,8,1:0:0:0:
256,192,63086,1,0,1:0:0:0:
256,192,63246,1,8,1:0:0:0:
256,192,63327,1,0,1:0:0:0:
256,192,63407,1,0,1:0:0:0:
256,192,63567,1,8,1:0:0:0:
256,192,63648,1,8,1:0:0:0:
256,192,63728,1,0,1:0:0:0:
256,192,63808,1,0,1:0:0:0:
256,192,63888,1,8,1:0:0:0:
256,192,63968,1,8,1:0:0:0:
256,192,64049,1,0,1:0:0:0:
256,192,64209,1,8,1:0:0:0:
256,192,64369,1,0,1:0:0:0:
256,192,64530,1,8,1:0:0:0:
256,192,64610,1,8,1:0:0:0:
256,192,64690,1,0,1:0:0:0:
256,192,64771,1,0,1:0:0:0:
256,192,64851,1,12,1:0:0:0:
256,192,65011,1,0,1:0:0:0:
256,192,65091,1,0,1:0:0:0:
256,192,65172,1,8,1:0:0:0:
256,192,65332,1,0,1:0:0:0:
256,192,65492,1,8,1:0:0:0:
256,192,65653,1,0,1:0:0:0:
256,192,65813,1,8,1:0:0:0:
256,192,65894,1,8,1:0:0:0:
256,192,65974,1,8,1:0:0:0:
256,192,66134,1,0,1:0:0:0:
256,192,66214,1,0,1:0:0:0:
256,192,66295,1,8,1:0:0:0:
256,192,66375,1,0,1:0:0:0:
256,192,66455,1,8,1:0:0:0:
256,192,66535,1,8,1:0:0:0:
256,192,66615,1,0,1:0:0:0:
256,192,66776,1,8,1:0:0:0:
256,192,66936,1,0,1:0:0:0:
256,192,67097,1,8,1:0:0:0:
256,192,67177,1,8,1:0:0:0:
256,192,67257,1,0,1:0:0:0:
256,192,67337,1,0,1:0:0:0:
256,192,67418,1,12,1:0:0:0:
256,192,67578,1,0,1:0:0:0:
256,192,67658,1,0,1:0:0:0:
256,192,67738,1,8,1:0:0:0:
256,192,67899,1,0,1:0:0:0:
256,192,68059,1,8,1:0:0:0:
256,192,68220,1,0,1:0:0:0:
256,192,68380,1,8,1:0:0:0:
256,192,68460,1,8,1:0:0:0:
256,192,68541,1,0,1:0:0:0:
256,192,68701,1,8,1:0:0:0:
256,192,68781,1,8,1:0:0:0:
256,192,68861,1,8,1:0:0:0:
256,192,68942,1,8,1:0:0:0:
256,192,69022,1,0,1:0:0:0:
256,192,69102,1,0,1:0:0:0:
256,192,69182,1,8,1:0:0:0:
256,192,69343,1,0,1:0:0:0:
256,192,69503,1,8,1:0:0:0:
256,192,69664,1,0,1:0:0:0:
256,192,69744,1,0,1:0:0:0:
256,192,69824,1,0,1:0:0:0:
256,192,69904,1,0,1:0:0:0:
256,192,69984,1,12,1:0:0:0:
256,192,70145,1,0,1:0:0:0:
256,192,70305,1,8,1:0:0:0:
256,192,70466,1,0,1:0:0:0:
256,192,70626,1,8,1:0:0:0:
256,192,70787,1,8,1:0:0:0:
256,192,70947,1,0,1:0:0:0:
256,192,71107,1,0,1:0:0:0:
256,192,71268,1,8,1:0:0:0:
256,192,71428,1,8,1:0:0:0:
256,192,71589,1,0,1:0:0:0:
256,192,71749,1,0,1:0:0:0:
256,192,71910,1,8,1:0:0:0:
256,192,72070,1,0,1:0:0:0:
256,192,72230,1,8,1:0:0:0:
256,192,72391,1,0,1:0:0:0:
256,192,72551,1,12,1:0:0:0:
256,192,72712,1,0,1:0:0:0:
256,192,72792,1,0,1:0:0:0:
256,192,72872,1,0,1:0:0:0:
256,192,73033,1,12,1:0:0:0:
256,192,73193,1,0,1:0:0:0:
256,192,73353,1,0,1:0:0:0:
256,192,73514,1,12,1:0:0:0:
256,192,73674,1,0,1:0:0:0:
256,192,73755,1,0,1:0:0:0:
256,192,73835,1,0,1:0:0:0:
256,192,73915,1,0,1:0:0:0:
256,192,73995,1,12,1:0:0:0:
256,192,74156,1,0,1:0:0:0:
256,192,74316,1,0,1:0:0:0:
256,192,74476,1,12,1:0:0:0:
256,192,74637,1,0,1:0:0:0:
256,192,74797,1,12,1:0:0:0:
256,192,74958,1,0,1:0:0:0:
256,192,75118,1,12,1:0:0:0:
256,192,75279,1,0,1:0:0:0:
256,192,75439,1,8,1:0:0:0:
256,192,75599,1,0,1:0:0:0:
256,192,75760,1,8,1:0:0:0:
256,192,75920,1,8,1:0:0:0:
256,192,76081,1,0,1:0:0:0:
256,192,76241,1,8,0:0:0:0:
256,192,76402,1,0,1:0:0:0:
256,192,76562,1,0,1:0:0:0:
256,192,76722,1,8,1:0:0:0:
256,192,76883,1,0,1:0:0:0:
256,192,77043,1,8,1:0:0:0:
256,192,77204,1,8,1:0:0:0:
256,192,77364,1,0,1:0:0:0:
256,192,77525,1,0,0:0:0:0:
256,192,77685,1,8,1:0:0:0:
256,192,77845,1,8,0:0:0:0:
256,192,78006,1,0,1:0:0:0:
256,192,78166,1,8,1:0:0:0:
256,192,78327,1,0,1:0:0:0:
256,192,78407,1,0,1:0:0:0:
256,192,78487,1,8,1:0:0:0:
256,192,78648,1,0,1:0:0:0:
256,192,78808,1,8,1:0:0:0:
256,192,78968,1,0,1:0:0:0:
256,192,79129,1,8,1:0:0:0:
256,192,79209,1,0,1:0:0:0:
256,192,79289,1,8,1:0:0:0:
256,192,79369,1,8,1:0:0:0:
256,192,79450,1,0,1:0:0:0:
256,192,79610,1,8,1:0:0:0:
256,192,79690,1,8,1:0:0:0:
256,192,79771,1,8,1:0:0:0:
256,192,79851,1,8,1:0:0:0:
256,192,79931,1,0,1:0:0:0:
256,192,80011,1,0,1:0:0:0:
256,192,80091,1,0,1:0:0:0:
256,192,80172,1,0,1:0:0:0:
256,192,80252,1,12,1:0:0:0:
256,192,80412,1,0,1:0:0:0:
256,192,80573,1,8,1:0:0:0:
256,192,80733,1,8,1:0:0:0:
256,192,80894,1,0,1:0:0:0:
256,192,81054,1,0,1:0:0:0:
256,192,81214,1,8,1:0:0:0:
256,192,81535,1,0,1:0:0:0:
256,192,81696,1,8,1:0:0:0:
256,192,81856,1,0,1:0:0:0:
256,192,82017,1,0,1:0:0:0:
256,192,82177,1,8,1:0:0:0:
256,192,82337,1,8,1:0:0:0:
256,192,82498,1,0,1:0:0:0:
256,192,82819,1,8,1:0:0:0:
256,192,82979,1,8,1:0:0:0:
256,192,83140,1,0,1:0:0:0:
256,192,83300,1,8,1:0:0:0:
256,192,83460,1,0,1:0:0:0:
256,192,83621,1,0,1:0:0:0:
256,192,83781,1,8,1:0:0:0:
256,192,84102,1,0,1:0:0:0:
256,192,84263,1,0,1:0:0:0:
256,192,84423,1,8,1:0:0:0:
256,192,84583,1,0,1:0:0:0:
256,192,84744,1,8,1:0:0:0:
256,192,84904,1,8,1:0:0:0:
256,192,85065,1,0,1:0:0:0:
256,192,85145,1,0,1:0:0:0:
256,192,85225,1,0,1:0:0:0:
256,192,85305,1,0,1:0:0:0:
256,192,85386,1,12,1:0:0:0:
