osu file format v14

[General]
AudioFilename: audio.mp3
AudioLeadIn: 0
PreviewTime: 13140
Countdown: 0
SampleSet: Normal
StackLeniency: 0.7
Mode: 1
LetterboxInBreaks: 0
WidescreenStoryboard: 1

[Editor]
Bookmarks: 310,3247,8380,13514,23781,39182,49450,59717,69984,75118,80252,85386
DistanceSpacing: 0.6
BeatDivisor: 4
GridSize: 32
TimelineZoom: 1.350003

[Metadata]
Title:Battle! (Champion)
TitleUnicode:戦闘!チャンピオン
Artist:Junichi Masuda
ArtistUnicode:増田順一
Creator:nevqr
Version:Futsuu
Source:ポケットモンスター ダイヤモンド・パール
Tags:sentou! sentō! sento! cynthia シロナ shirona no gaburias cynthia's cynthias garchomp シロナのガブリアス ガブリアス pokémon pokemon ポケモン pocket monsters poketto monsuta monsutā ポケットモンスター ost original soundtrack track 145 disk 2 67 ichinose go gō gou hitomi sato satō satou 佐藤仁美 junichi jun'ichi masuda 増田順一 diamond and & pearl platinum version ポケットモンスタープラチナ d p pt dp dppt black and & white 2 version bw bw2 ポケットモンスター ブラック・ホワイト ポケットモンスター ブラック2・ホワイト2 brilliant diamond and & shining pearl version bdsp ポケットモンスター ブリリアントダイヤモンド・シャイニングパール gen generation four 4 iv 第四世代 five 5 v 第五世代 eight 8 viii 第八世代 sinnoh シンオウ unova isshu イッシュ undella town sazanami town サザナミタウン elite 4 four 任天堂 四天王 shitenno shitennō shitennou theme sinnoh league champion videogame video game vgm instrumental electronic gamefreak game freak nintendo ds nds 任天堂 ニンテンドーDS ポケモン ダイヤモンド&パール スーパーミュージックコレクション super music collection complete
BeatmapID:4270848
BeatmapSetID:2046043

[Difficulty]
HPDrainRate:7
CircleSize:2
OverallDifficulty:4
ApproachRate:9
SliderMultiplier:1.4
SliderTickRate:1

[Events]
//Background and Video events
0,0,"cynthia.jpg",0,50
//Break Periods
//Storyboard Layer 0 (Background)
//Storyboard Layer 1 (Fail)
//Storyboard Layer 2 (Pass)
//Storyboard Layer 3 (Foreground)
//Storyboard Layer 4 (Overlay)
//Storyboard Sound Samples

[TimingPoints]
333,727.272727272727,4,1,0,60,1,0
333,-43.859649122807,4,1,0,60,0,0
1777,-43.859649122807,4,1,0,62,0,0
2141,-43.859649122807,4,1,0,65,0,0
2322,-43.859649122807,4,1,0,67,0,0
2504,-43.859649122807,4,1,0,69,0,0
2868,-43.859649122807,4,1,0,75,0,0
3241,731.707317073171,4,1,0,75,1,8
3247,320.855614973262,4,1,0,90,1,0
3407,-100,4,1,0,70,0,0
8380,-100,4,1,0,90,0,0
8541,-100,4,1,0,80,0,0
13343,-100,4,1,0,85,0,0
13514,-100,4,1,0,90,0,1
23460,-100,4,1,0,90,0,0
23781,-100,4,1,0,90,0,1
39182,-100,4,1,0,80,0,0
39814,-100,4,1,0,70,0,0
44146,-100,4,1,0,75,0,0
44306,-100,4,1,0,80,0,0
44948,-100,4,1,0,70,0,0
49119,-100,4,1,0,74,0,0
49279,-100,4,1,0,76,0,0
49440,-100,4,1,0,80,0,0
50081,-100,4,1,0,70,0,0
52007,-100,4,1,0,80,0,0
52648,-100,4,1,0,70,0,0
54573,-100,4,1,0,80,0,0
55215,-100,4,1,0,70,0,0
57140,-100,4,1,0,80,0,0
57782,-100,4,1,0,70,0,0
59707,-100,4,1,0,90,0,0
60028,-100,4,1,0,80,0,0
62274,-100,4,1,0,90,0,0
62595,-100,4,1,0,80,0,0
64841,-100,4,1,0,90,0,0
65162,-100,4,1,0,80,0,0
67408,-100,4,1,0,90,0,0
67728,-100,4,1,0,80,0,0
69814,-100,4,1,0,85,0,0
69984,-100,4,1,0,90,0,1
72541,-100,4,1,0,100,0,1
72702,-100,4,1,0,90,0,1
73023,-100,4,1,0,100,0,1
73664,-100,4,1,0,90,0,1
73985,-100,4,1,0,100,0,1
75118,-100,4,1,0,100,0,0
75750,-100,4,1,0,70,0,0
77996,-100,4,1,0,72,0,0
78317,-100,4,1,0,74,0,0
78477,-100,4,1,0,76,0,0
78638,-100,4,1,0,77,0,0
78958,-100,4,1,0,79,0,0
79119,-100,4,1,0,80,0,0
79279,-100,4,1,0,82,0,0
79600,-100,4,1,0,84,0,0
79921,-100,4,1,0,87,0,0
80081,-100,4,1,0,89,0,0
80242,-100,4,1,0,90,0,0
80884,-100,4,1,0,60,0,0
85215,-100,4,1,0,75,0,0
85386,-100,4,1,0,90,0,0

[HitObjects]
256,192,333,5,8,1:0:0:0:
256,192,514,1,8,1:0:0:0:
256,192,696,1,0,1:0:0:0:
256,192,1060,1,8,1:0:0:0:
256,192,1242,1,0,1:0:0:0:
256,192,1605,1,0,1:0:0:0:
256,192,1787,1,8,1:0:0:0:
256,192,2151,1,0,1:0:0:0:
256,192,2332,1,8,1:0:0:0:
256,192,2514,1,0,1:0:0:0:
256,192,2878,1,8,1:0:0:0:
256,192,3247,1,4,1:0:0:0:
256,192,3407,1,8,1:0:0:0:
256,192,3728,1,8,1:0:0:0:
256,192,4049,1,8,1:0:0:0:
256,192,4369,1,8,1:0:0:0:
256,192,4690,1,8,1:0:0:0:
256,192,5011,1,8,1:0:0:0:
256,192,5332,1,8,1:0:0:0:
256,192,5653,1,8,1:0:0:0:
256,192,5974,1,8,1:0:0:0:
256,192,6295,1,8,1:0:0:0:
256,192,6615,1,8,1:0:0:0:
256,192,6936,1,8,1:0:0:0:
256,192,7257,1,8,1:0:0:0:
256,192,7578,1,8,1:0:0:0:
256,192,7899,1,8,1:0:0:0:
256,192,8059,1,0,1:0:0:0:
256,192,8220,1,0,1:0:0:0:
256,192,8380,1,12,1:0:0:0:
256,192,8701,1,0,1:0:0:0:
256,192,8861,1,8,1:0:0:0:
256,192,9022,1,0,1:0:0:0:
256,192,9343,1,8,1:0:0:0:
256,192,9503,1,8,1:0:0:0:
256,192,9664,1,0,1:0:0:0:
256,192,9984,1,0,1:0:0:0:
256,192,10305,1,8,1:0:0:0:
256,192,10947,1,8,1:0:0:0:
256,192,11268,1,0,1:0:0:0:
256,192,11428,1,0,1:0:0:0:
256,192,11589,1,8,1:0:0:0:
256,192,11910,1,0,1:0:0:0:
256,192,12230,1,8,1:0:0:0:
256,192,12391,1,8,1:0:0:0:
256,192,12551,1,0,1:0:0:0:
256,192,12872,1,0,1:0:0:0:
256,192,13193,1,8,1:0:0:0:
256,192,13353,1,0,1:0:0:0:
256,192,13514,1,8,1:0:0:0:
256,192,13835,1,0,1:0:0:0:
256,192,13995,1,8,1:0:0:0:
256,192,14156,1,0,1:0:0:0:
256,192,14476,1,8,1:0:0:0:
256,192,14797,1,0,1:0:0:0:
256,192,14958,1,0,1:0:0:0:
256,192,15118,1,8,1:0:0:0:
256,192,15279,1,8,1:0:0:0:
256,192,15439,1,0,1:0:0:0:
256,192,15760,1,8,0:0:0:0:
256,192,15920,1,0,0:0:0:0:
256,192,16081,1,8,1:0:0:0:
256,192,16402,1,0,1:0:0:0:
256,192,16562,1,0,1:0:0:0:
256,192,16722,1,8,1:0:0:0:
256,192,17043,1,0,1:0:0:0:
256,192,17364,1,8,1:0:0:0:
256,192,17525,1,8,1:0:0:0:
256,192,17685,1,0,1:0:0:0:
256,192,17845,1,0,1:0:0:0:
256,192,18006,1,8,1:0:0:0:
256,192,18327,1,0,0:0:0:0:
256,192,18487,1,8,0:0:0:0:
256,192,18648,1,0,1:0:0:0:
256,192,18968,1,8,1:0:0:0:
256,192,19129,1,0,1:0:0:0:
256,192,19289,1,8,1:0:0:0:
256,192,19610,1,0,1:0:0:0:
256,192,19931,1,8,1:0:0:0:
256,192,20091,1,0,1:0:0:0:
256,192,20252,1,8,1:0:0:0:
256,192,20412,1,8,1:0:0:0:
256,192,20573,1,0,1:0:0:0:
256,192,21214,1,0,1:0:0:0:
256,192,21535,1,8,1:0:0:0:
256,192,21696,1,8,1:0:0:0:
256,192,21856,1,0,1:0:0:0:
256,192,22177,1,8,1:0:0:0:
256,192,22498,1,0,1:0:0:0:
256,192,22658,1,8,1:0:0:0:
256,192,22819,1,0,1:0:0:0:
256,192,22979,1,0,1:0:0:0:
256,192,23140,1,8,1:0:0:0:
256,192,23781,1,0,1:0:0:0:
256,192,24102,1,8,1:0:0:0:
256,192,24263,1,0,1:0:0:0:
256,192,24423,1,8,1:0:0:0:
256,192,24744,1,0,1:0:0:0:
256,192,25065,1,8,1:0:0:0:
256,192,25225,1,8,1:0:0:0:
256,192,25386,1,0,1:0:0:0:
256,192,25546,1,0,1:0:0:0:
256,192,25706,1,8,1:0:0:0:
256,192,26027,1,0,0:0:0:0:
256,192,26188,1,0,0:0:0:0:
256,192,26348,1,8,1:0:0:0:
256,192,26669,1,0,1:0:0:0:
256,192,26829,1,8,1:0:0:0:
256,192,26990,1,0,1:0:0:0:
256,192,27311,1,8,1:0:0:0:
256,192,27632,1,0,1:0:0:0:
256,192,27792,1,8,1:0:0:0:
256,192,27952,1,0,1:0:0:0:
256,192,28113,1,0,1:0:0:0:
256,192,28273,1,8,1:0:0:0:
256,192,28594,1,0,0:0:0:0:
256,192,28755,1,8,0:0:0:0:
256,192,28915,1,0,1:0:0:0:
256,192,29236,1,8,1:0:0:0:
256,192,29396,1,8,1:0:0:0:
256,192,29557,1,0,1:0:0:0:
256,192,29878,1,8,1:0:0:0:
256,192,30198,1,0,1:0:0:0:
256,192,30359,1,0,1:0:0:0:
256,192,30519,1,8,1:0:0:0:
256,192,30680,1,8,1:0:0:0:
256,192,30840,1,0,1:0:0:0:
256,192,31482,1,8,1:0:0:0:
256,192,31803,1,0,1:0:0:0:
256,192,31963,1,0,1:0:0:0:
256,192,32124,1,8,1:0:0:0:
256,192,32444,1,0,1:0:0:0:
256,192,32765,1,8,1:0:0:0:
256,192,32926,1,0,1:0:0:0:
256,192,33086,1,8,1:0:0:0:
256,192,33246,1,8,1:0:0:0:
256,192,33407,1,0,1:0:0:0:
256,192,34049,1,0,1:0:0:0:
256,192,34369,1,8,1:0:0:0:
256,192,34530,1,0,1:0:0:0:
256,192,34690,1,8,1:0:0:0:
256,192,35011,1,0,1:0:0:0:
256,192,35332,1,8,1:0:0:0:
256,192,35492,1,8,1:0:0:0:
256,192,35653,1,0,1:0:0:0:
256,192,35813,1,0,1:0:0:0:
256,192,35974,1,8,1:0:0:0:
256,192,36615,1,8,1:0:0:0:
256,192,36936,1,0,1:0:0:0:
256,192,37097,1,8,1:0:0:0:
256,192,37257,1,0,1:0:0:0:
256,192,37578,1,8,1:0:0:0:
256,192,37899,1,0,1:0:0:0:
256,192,38059,1,0,1:0:0:0:
256,192,38220,1,8,1:0:0:0:
256,192,38380,1,8,1:0:0:0:
256,192,38541,1,0,1:0:0:0:
256,192,38861,1,8,1:0:0:0:
256,192,39022,1,0,1:0:0:0:
256,192,39182,1,12,1:0:0:0:
256,192,39824,1,8,1:0:0:0:
256,192,40145,1,0,1:0:0:0:
256,192,40466,1,8,1:0:0:0:
256,192,40787,1,0,1:0:0:0:
256,192,40947,1,8,1:0:0:0:
256,192,41268,1,8,1:0:0:0:
256,192,41428,1,0,1:0:0:0:
256,192,41749,1,8,1:0:0:0:
256,192,41910,1,0,1:0:0:0:
256,192,42230,1,8,1:0:0:0:
256,192,42551,1,0,1:0:0:0:
256,192,42712,1,8,1:0:0:0:
256,192,42872,1,8,0:0:0:0:
256,192,43033,1,0,1:0:0:0:
256,192,43353,1,8,1:0:0:0:
256,192,43674,1,0,1:0:0:0:
256,192,43995,1,8,1:0:0:0:
256,192,44156,1,0,1:0:0:0:
256,192,44316,1,8,1:0:0:0:
256,192,44958,1,8,1:0:0:0:
256,192,45279,1,0,1:0:0:0:
256,192,45599,1,8,1:0:0:0:
256,192,45920,1,0,1:0:0:0:
256,192,46081,1,8,1:0:0:0:
256,192,46402,1,0,1:0:0:0:
256,192,46562,1,8,1:0:0:0:
256,192,46883,1,8,1:0:0:0:
256,192,47043,1,0,1:0:0:0:
256,192,47364,1,8,1:0:0:0:
256,192,47685,1,0,1:0:0:0:
256,192,47845,1,8,1:0:0:0:
256,192,48166,1,8,1:0:0:0:
256,192,48327,1,0,1:0:0:0:
256,192,48648,1,0,1:0:0:0:
256,192,48808,1,8,1:0:0:0:
256,192,49129,1,0,1:0:0:0:
256,192,49289,1,0,0:0:0:0:
256,192,49450,1,12,1:0:0:0:
256,192,50091,1,0,1:0:0:0:
256,192,50252,1,0,1:0:0:0:
256,192,50412,1,8,1:0:0:0:
256,192,50733,1,0,1:0:0:0:
256,192,51054,1,8,1:0:0:0:
256,192,51214,1,0,1:0:0:0:
256,192,51375,1,8,1:0:0:0:
256,192,51696,1,0,1:0:0:0:
256,192,52017,1,12,1:0:0:0:
256,192,52658,1,8,1:0:0:0:
256,192,52819,1,8,1:0:0:0:
256,192,52979,1,0,1:0:0:0:
256,192,53300,1,8,1:0:0:0:
256,192,53621,1,0,1:0:0:0:
256,192,53781,1,8,1:0:0:0:
256,192,53942,1,0,1:0:0:0:
256,192,54263,1,8,1:0:0:0:
256,192,54583,1,4,1:0:0:0:
256,192,55225,1,8,1:0:0:0:
256,192,55386,1,0,1:0:0:0:
256,192,55546,1,8,1:0:0:0:
256,192,55867,1,0,1:0:0:0:
256,192,56188,1,8,1:0:0:0:
256,192,56348,1,8,1:0:0:0:
256,192,56509,1,0,1:0:0:0:
256,192,56829,1,8,1:0:0:0:
256,192,57150,1,4,1:0:0:0:
256,192,57792,1,0,1:0:0:0:
256,192,57952,1,8,1:0:0:0:
256,192,58113,1,0,1:0:0:0:
256,192,58434,1,8,1:0:0:0:
256,192,58755,1,0,1:0:0:0:
256,192,58915,1,0,1:0:0:0:
256,192,59075,1,8,1:0:0:0:
256,192,59396,1,0,1:0:0:0:
256,192,59717,1,12,1:0:0:0:
256,192,60038,1,0,0:0:0:0:
256,192,60198,1,8,1:0:0:0:
256,192,60680,1,8,1:0:0:0:
256,192,60840,1,8,1:0:0:0:
256,192,61001,1,0,1:0:0:0:
256,192,61321,1,8,1:0:0:0:
257,192,61482,1,0,1:0:0:0:
257,192,61642,1,8,1:0:0:0:
256,192,61963,1,0,0:0:0:0:
257,192,62284,1,12,1:0:0:0:
257,192,62605,1,0,0:0:0:0:
257,192,62765,1,8,1:0:0:0:
256,192,63246,1,0,1:0:0:0:
256,192,63407,1,0,1:0:0:0:
256,192,63567,1,8,1:0:0:0:
256,192,63888,1,0,1:0:0:0:
256,192,64049,1,8,1:0:0:0:
256,192,64209,1,0,1:0:0:0:
256,192,64530,1,0,0:0:0:0:
256,192,64851,1,12,1:0:0:0:
256,192,65172,1,0,0:0:0:0:
256,192,65332,1,8,1:0:0:0:
256,192,65813,1,8,1:0:0:0:
256,192,65974,1,0,1:0:0:0:
256,192,66134,1,8,1:0:0:0:
256,192,66455,1,0,1:0:0:0:
256,192,66615,1,0,1:0:0:0:
256,192,66776,1,8,1:0:0:0:
256,192,67097,1,0,0:0:0:0:
256,192,67418,1,12,1:0:0:0:
256,192,67738,1,0,0:0:0:0:
256,192,67899,1,8,1:0:0:0:
256,192,68380,1,0,1:0:0:0:
256,192,68541,1,8,1:0:0:0:
256,192,68701,1,0,1:0:0:0:
256,192,69022,1,8,1:0:0:0:
256,192,69182,1,8,1:0:0:0:
256,192,69343,1,0,1:0:0:0:
256,192,69664,1,0,1:0:0:0:
256,192,69824,1,0,1:0:0:0:
256,192,69984,1,12,1:0:0:0:
256,192,70626,1,8,1:0:0:0:
256,192,70787,1,0,1:0:0:0:
256,192,70947,1,8,1:0:0:0:
256,192,71268,1,0,1:0:0:0:
256,192,71589,1,8,1:0:0:0:
256,192,71910,1,0,1:0:0:0:
256,192,72070,1,8,1:0:0:0:
256,192,72230,1,0,1:0:0:0:
256,192,72551,1,12,1:0:0:0:
256,192,72872,1,0,1:0:0:0:
256,192,73033,1,12,1:0:0:0:
256,192,73514,1,12,1:0:0:0:
256,192,73835,1,0,1:0:0:0:
256,192,73995,1,12,1:0:0:0:
256,192,74476,1,12,1:0:0:0:
256,192,74797,1,12,1:0:0:0:
256,192,75118,1,12,1:0:0:0:
256,192,75760,1,0,1:0:0:0:
256,192,76081,1,8,1:0:0:0:
256,192,76402,1,0,1:0:0:0:
256,192,76562,1,0,1:0:0:0:
256,192,76722,1,8,1:0:0:0:
256,192,77043,1,0,1:0:0:0:
256,192,77364,1,8,1:0:0:0:
256,192,77685,1,0,1:0:0:0:
256,192,78006,1,8,1:0:0:0:
256,192,78327,1,0,1:0:0:0:
256,192,78487,1,8,1:0:0:0:
256,192,78648,1,0,1:0:0:0:
256,192,78968,1,8,1:0:0:0:
256,192,79129,1,8,1:0:0:0:
256,192,79289,1,0,1:0:0:0:
256,192,79610,1,8,1:0:0:0:
256,192,79931,1,0,1:0:0:0:
256,192,80091,1,0,1:0:0:0:
256,192,80252,1,12,1:0:0:0:
256,192,80894,1,0,1:0:0:0:
256,192,81214,1,8,1:0:0:0:
256,192,81535,1,0,1:0:0:0:
256,192,82177,1,8,1:0:0:0:
256,192,82498,1,0,1:0:0:0:
256,192,82819,1,8,1:0:0:0:
256,192,83460,1,0,1:0:0:0:
256,192,83781,1,8,1:0:0:0:
256,192,84102,1,0,1:0:0:0:
256,192,84744,1,8,1:0:0:0:
256,192,85065,1,0,1:0:0:0:
256,192,85225,1,0,1:0:0:0:
256,192,85386,1,12,1:0:0:0:
