osu file format v14

[General]
AudioFilename: 023--TEENAGER.mp3
AudioLeadIn: 0
PreviewTime: 60999
Countdown: 0
SampleSet: Soft
StackLeniency: 0.7
Mode: 0
LetterboxInBreaks: 0
WidescreenStoryboard: 0

[Editor]
Bookmarks: 130936,155686
DistanceSpacing: 1.11
BeatDivisor: 2
GridSize: 4
TimelineZoom: 2.5

[Metadata]
Title:TEENAGER
TitleUnicode:TEENAGER
Artist:Jung Joon Young
ArtistUnicode:정준영
Creator:HabiHolic
Version:Insane
Source:
Tags:CJ E&M MMO Gaia
BeatmapID:451043
BeatmapSetID:189288

[Difficulty]
HPDrainRate:7
CircleSize:4
OverallDifficulty:7
ApproachRate:9
SliderMultiplier:1.73
SliderTickRate:2

[Events]
//Background and Video events
0,0,"BG.jpg",0,0
//Break Periods
2,84449,107649
//Storyboard Layer 0 (Background)
//Storyboard Layer 1 (Fail)
//Storyboard Layer 2 (Pass)
//Storyboard Layer 3 (Foreground)
//Storyboard Sound Samples

[TimingPoints]
249,375,4,2,0,30,1,0
12249,-133.333333333333,4,2,0,30,0,0
36249,-133.333333333333,4,2,1,50,0,0
57249,-133.333333333333,4,2,1,60,0,0
58561,-133.333333333333,4,2,1,70,0,0
59686,-100,4,2,1,75,0,0
60249,-100,4,2,2,80,0,0
108249,-133.333333333333,4,2,0,30,0,0
132249,-133.333333333333,4,2,1,50,0,0
153249,-133.333333333333,4,2,1,60,0,0
154749,-133.333333333333,4,2,1,70,0,0
155686,-100,4,2,1,75,0,0
156249,-100,4,2,2,80,0,0
228249,-90.9090909090909,4,2,2,80,0,0
240249,-133.333333333333,4,2,0,50,0,0
241374,-133.333333333333,4,2,0,40,0,0
242499,-133.333333333333,4,2,0,30,0,0
243249,-133.333333333333,4,2,0,20,0,0
244936,-133.333333333333,4,2,0,15,0,0
246249,-133.333333333333,4,2,0,10,0,0
246811,-133.333333333333,4,2,0,5,0,0

[Colours]
Combo1 : 126,4,6
Combo2 : 47,36,40

[HitObjects]
256,192,9249,12,0,11499,0:0:0:0:
16,131,12249,6,0,P|78:121|131:156,1,129.75000494957,0|2,0:0|0:0,0:0:0:0:
144,172,12999,2,0,L|156:104,1,64.8750024747849,0|0,0:0|0:0,0:0:0:0:
108,28,13374,1,2,0:0:0:0:
240,136,13561,6,0,L|304:124,1,64.8750024747849,0|0,0:0|0:0,0:0:0:0:
432,64,13936,2,0,L|368:52,1,64.8750024747849,0|2,0:0|0:0,0:0:0:0:
292,216,14311,1,0,0:0:0:0:
396,292,14499,2,0,L|416:156,1,129.75000494957,2|2,0:0|0:0,0:0:0:0:
284,192,15061,1,0,0:0:0:0:
312,332,15249,6,0,B|216:320|216:388|116:368,1,194.625007424355,0|2,0:0|0:0,0:0:0:0:
104,355,16374,2,0,P|137:266|102:178,1,194.625007424355,0|2,0:0|0:0,0:0:0:0:
32,116,17124,1,0,0:0:0:0:
32,116,17499,1,2,0:0:0:0:
104,40,17686,1,0,0:0:0:0:
136,144,17874,1,0,0:0:0:0:
32,116,18061,1,0,0:0:0:0:
208,72,18249,6,0,B|272:64|272:96|340:84,1,129.75000494957,2|0,0:0|0:0,0:0:0:0:
416,24,18811,1,0,0:0:0:0:
484,96,18999,2,0,L|472:164,2,64.8750024747849,2|0|0,0:0|0:0|0:0,0:0:0:0:
360,144,19561,6,0,L|384:280,1,129.75000494957,2|0,0:0|0:0,0:0:0:0:
320,352,20124,1,0,0:0:0:0:
320,352,20311,2,0,L|252:340,1,64.8750024747849,2|0,0:0|0:0,0:0:0:0:
128,256,20686,2,0,L|196:244,1,64.8750024747849,0|0,0:0|0:0,0:0:0:0:
248,168,21061,1,0,0:0:0:0:
101,63,21249,6,0,L|129:263,1,194.625007424355,0|2,0:0|0:0,0:0:0:0:
132,284,22374,2,0,B|224:276|220:356|312:340,1,194.625007424355,0|2,0:0|0:0,0:0:0:0:
380,272,23124,1,0,0:0:0:0:
380,272,23499,1,0,0:0:0:0:
380,172,23686,1,0,0:0:0:0:
464,216,23874,1,2,0:0:0:0:
464,216,24249,6,0,L|484:84,1,129.75000494957,0|2,0:0|0:0,0:0:0:0:
424,20,24811,1,0,0:0:0:0:
292,132,24999,2,0,L|224:120,1,64.8750024747849,0|0,0:0|0:0,0:0:0:0:
164,48,25374,1,2,0:0:0:0:
104,215,25561,6,0,P|165:201|215:239,1,129.75000494957,0|0,0:0|0:0,0:0:0:0:
284,308,26124,1,2,0:0:0:0:
284,308,26311,2,0,L|356:292,1,64.8750024747849,0|2,0:0|0:0,0:0:0:0:
484,216,26686,2,0,L|412:200,1,64.8750024747849,0|2,0:0|0:0,0:0:0:0:
316,160,27061,1,0,0:0:0:0:
342,48,27249,6,0,P|416:107|420:201,1,194.625007424355,0|2,0:0|0:0,0:0:0:0:
408,228,28374,2,0,B|332:216|332:216|288:236|288:236|220:224,1,194.625007424355,0|2,0:0|0:0,0:0:0:0:
156,152,29124,1,0,0:0:0:0:
156,151,29499,2,0,P|172:107|157:61,1,97.3125037121774,2|0,0:0|0:0,0:0:0:0:
144,48,29874,2,0,L|212:64,1,64.8750024747849,2|0,0:0|0:0,0:0:0:0:
415,71,30249,6,0,P|372:26|309:27,1,129.75000494957,0|2,0:0|0:0,0:0:0:0:
272,124,30811,1,0,0:0:0:0:
272,124,30999,2,0,L|288:192,1,64.8750024747849,0|0,0:0|0:0,0:0:0:0:
392,204,31374,1,2,0:0:0:0:
392,204,31561,6,0,L|372:336,1,129.75000494957,0|2,0:0|0:0,0:0:0:0:
284,368,32124,1,0,0:0:0:0:
208,227,32311,2,0,P|240:228|269:241,1,64.8750024747849,0|2,0:0|0:0,0:0:0:0:
276,348,32686,1,0,0:0:0:0:
120,280,32874,2,0,L|104:208,1,64.8750024747849,2|0,0:0|0:0,0:0:0:0:
24,72,33249,6,0,B|120:56|108:136|216:112,1,194.625007424355,0|2,0:0|0:0,0:0:0:0:
232,100,34374,2,0,B|220:152|220:152|244:248|244:248|264:200,1,194.625007424355,0|2,0:0|0:0,0:0:0:0:
312,40,35124,1,0,0:0:0:0:
312,40,35499,2,0,L|380:48,1,64.8750024747849,2|0,0:0|0:0,0:0:0:0:
500,172,35874,2,0,L|400:160,1,97.3125037121774,2|0,0:0|0:0,0:0:0:0:
380,156,36249,6,0,P|399:216|376:275,1,129.75000494957,4|2,0:0|0:0,0:0:0:0:
152,200,36999,2,0,B|216:188|216:228|288:212,1,129.75000494957,8|2,0:0|0:0,0:0:0:0:
256,128,37561,1,2,0:0:0:0:
176,292,37749,6,0,L|192:368,2,64.8750024747849,0|2|2,0:0|0:0|0:0,0:0:0:0:
308,216,38311,1,0,0:0:0:0:
175,292,38499,2,0,P|113:301|61:266,1,129.75000494957,8|2,0:0|0:0,0:0:0:0:
156,124,39061,1,0,0:0:0:0:
156,124,39249,6,0,L|140:196,1,64.8750024747849,2|0,0:0|0:0,0:0:0:0:
264,160,39624,2,0,L|240:24,2,129.75000494957,2|8|2,0:0|0:0|0:0,0:0:0:0:
336,220,40561,1,2,0:0:0:0:
240,332,40749,5,2,0:0:0:0:
260,164,40936,1,0,0:0:0:0:
328,368,41124,1,2,0:0:0:0:
328,368,41499,2,0,L|396:356,1,64.8750024747849,8|0,0:0|0:0,0:0:0:0:
488,236,41874,2,0,L|420:248,1,64.8750024747849,2|0,0:0|0:0,0:0:0:0:
336,200,42249,6,0,B|316:156|316:156|332:72,1,129.75000494957,4|2,0:0|0:0,0:0:0:0:
168,16,42999,2,0,B|188:60|188:60|172:144,1,129.75000494957,8|2,0:0|0:0,0:0:0:0:
92,192,43561,1,2,0:0:0:0:
164,264,43749,6,0,L|236:252,1,64.8750024747849,2|0,0:0|0:0,0:0:0:0:
348,172,44124,2,0,L|276:160,1,64.8750024747849,2|0,0:0|0:0,0:0:0:0:
416,112,44499,2,0,L|396:248,1,129.75000494957,8|2,0:0|0:0,0:0:0:0:
328,304,45061,1,0,0:0:0:0:
328,304,45249,6,0,P|389:288|443:320,2,129.75000494957,2|2|8,0:0|0:0|0:0,0:0:0:0:
260,360,46186,1,0,0:0:0:0:
296,184,46374,1,2,0:0:0:0:
200,288,46561,1,2,0:0:0:0:
260,88,46749,5,0,0:0:0:0:
136,216,46936,2,0,L|60:204,1,64.8750024747849,2|2,0:0|0:0,0:0:0:0:
56,204,47499,1,8,0:0:0:0:
112,128,47686,1,2,0:0:0:0:
24,24,47874,2,0,L|36:96,1,64.8750024747849,2|2,0:0|0:0,0:0:0:0:
176,224,48249,6,0,B|244:216|236:248|304:236,1,129.75000494957,4|2,0:0|0:0,0:0:0:0:
376,168,48811,1,0,0:0:0:0:
292,72,48999,2,0,L|280:140,1,64.8750024747849,8|0,0:0|0:0,0:0:0:0:
396,332,49374,2,0,L|384:268,1,64.8750024747849,2|2,0:0|0:0,0:0:0:0:
192,180,49749,5,0,0:0:0:0:
236,312,49936,1,2,0:0:0:0:
200,144,50124,1,2,0:0:0:0:
199,144,50499,2,0,P|142:172|79:161,1,129.75000494957,8|0,0:0|0:0,0:0:0:0:
16,84,51061,1,0,0:0:0:0:
80,164,51249,6,0,L|64:296,2,129.75000494957,2|2|8,0:0|0:0|0:0,0:0:0:0:
12,48,52186,1,0,0:0:0:0:
160,144,52374,1,2,0:0:0:0:
24,20,52561,1,2,0:0:0:0:
184,56,52749,5,0,0:0:0:0:
264,104,52936,1,2,0:0:0:0:
320,28,53124,1,2,0:0:0:0:
320,28,53499,2,0,L|392:16,1,64.8750024747849,8|2,0:0|0:0,0:0:0:0:
496,116,53874,2,0,L|424:104,1,64.8750024747849,2|2,0:0|0:0,0:0:0:0:
348,152,54249,6,0,B|336:216|368:216|352:280,1,129.75000494957,4|2,0:0|0:0,0:0:0:0:
196,368,54999,2,0,B|180:304|212:304|200:240,1,129.75000494957,8|2,0:0|0:0,0:0:0:0:
124,172,55561,1,2,0:0:0:0:
292,240,55749,5,0,0:0:0:0:
196,48,55936,2,0,L|208:124,1,64.8750024747849,2|2,0:0|0:0,0:0:0:0:
300,148,56311,1,0,0:0:0:0:
400,40,56499,2,0,P|463:36|512:80,1,129.75000494957,0|0,1:0|0:0,0:0:0:0:
424,260,57061,1,0,0:0:0:0:
424,260,57249,6,0,B|408:216|408:216|432:136,1,129.75000494957,2|2,0:0|0:0,0:0:0:0:
496,208,57811,1,0,0:0:0:0:
332,288,57999,2,0,L|260:276,1,64.8750024747849,8|2,0:0|0:0,0:0:0:0:
120,196,58374,2,0,L|192:184,1,64.8750024747849,8|0,0:0|0:0,0:0:0:0:
256,96,58749,5,2,0:0:0:0:
96,168,58936,1,8,0:0:0:0:
196,16,59124,1,10,0:0:0:0:
160,256,59311,1,0,0:0:0:0:
112,80,59499,1,8,0:0:0:0:
236,192,59686,5,8,0:0:0:0:
278,191,59779,1,2,0:0:0:0:
311,218,59874,1,8,0:0:0:0:
329,257,59967,1,2,0:0:0:0:
362,283,60061,1,8,0:0:0:0:
404,292,60155,1,2,0:0:0:0:
446,281,60249,6,0,L|464:108,1,173,4|8,0:0|0:0,0:0:0:0:
384,32,60811,1,0,0:0:0:0:
240,180,60999,2,0,L|152:164,1,86.5,2|2,0:0|0:0,0:0:0:0:
116,72,61374,1,8,0:0:0:0:
172,260,61561,1,0,0:0:0:0:
128,36,61749,5,2,0:0:0:0:
88,312,61936,2,0,L|4:296,1,86.5,2|8,0:0|0:0,0:0:0:0:
72,208,62311,1,0,0:0:0:0:
168,368,62499,1,2,0:0:0:0:
132,128,62686,1,2,0:0:0:0:
176,340,62874,1,8,0:0:0:0:
216,184,63061,1,2,0:0:0:0:
328,288,63249,6,0,B|416:280|400:340|496:328,1,173,2|8,0:0|0:0,0:0:0:0:
472,236,63811,1,0,0:0:0:0:
256,348,63999,2,0,L|231:259,1,86.5,2|2,0:0|0:0,0:0:0:0:
304,84,64374,2,0,L|292:176,1,86.5,8|0,0:0|0:0,0:0:0:0:
140,227,64749,6,0,P|68:216|36:124,1,173,2|8,0:0|0:0,0:0:0:0:
120,144,65311,1,0,0:0:0:0:
196,284,65499,1,2,0:0:0:0:
152,64,65686,1,2,0:0:0:0:
228,200,65874,1,8,0:0:0:0:
348,148,66061,1,2,0:0:0:0:
348,148,66155,1,2,0:0:0:0:
348,148,66249,6,0,B|404:168|404:168|436:212|436:212|500:236,1,173,4|8,0:0|0:0,0:0:0:0:
488,136,66811,1,0,0:0:0:0:
348,244,66999,1,2,0:0:0:0:
448,52,67186,1,2,0:0:0:0:
400,320,67374,1,8,0:0:0:0:
264,192,67561,6,0,L|176:176,1,86.5,0|2,0:0|0:0,0:0:0:0:
16,104,67936,2,0,L|104:88,1,86.5,2|8,0:0|0:0,0:0:0:0:
176,16,68311,1,2,0:0:0:0:
144,232,68499,1,0,0:0:0:0:
164,32,68686,1,2,0:0:0:0:
216,172,68874,1,8,0:0:0:0:
80,80,69061,1,0,0:0:0:0:
280,104,69249,6,0,B|368:96|360:152|452:136,1,173,2|8,0:0|0:0,0:0:0:0:
424,48,69811,1,0,0:0:0:0:
304,200,69999,2,0,L|324:288,1,86.5,2|2,0:0|0:0,0:0:0:0:
412,360,70374,2,0,L|431:275,1,86.5,8|0,0:0|0:0,0:0:0:0:
232,284,70749,5,2,0:0:0:0:
400,184,70936,1,2,0:0:0:0:
296,360,71124,1,8,0:0:0:0:
352,100,71311,1,2,0:0:0:0:
304,344,71499,1,8,0:0:0:0:
168,168,71686,5,2,0:0:0:0:
127,154,71779,1,2,0:0:0:0:
84,159,71873,1,8,0:0:0:0:
48,182,71967,1,2,0:0:0:0:
26,218,72061,1,2,0:0:0:0:
21,261,72154,1,2,0:0:0:0:
36,301,72249,6,0,L|216:276,1,173,4|8,0:0|0:0,0:0:0:0:
300,332,72811,1,0,0:0:0:0:
256,164,72999,1,2,0:0:0:0:
376,280,73186,1,2,0:0:0:0:
276,72,73374,1,8,0:0:0:0:
416,192,73561,6,0,L|504:180,1,86.5,0|2,0:0|0:0,0:0:0:0:
448,92,73936,1,2,0:0:0:0:
476,280,74124,1,8,0:0:0:0:
296,200,74311,2,0,L|312:112,1,86.5,0|2,0:0|0:0,0:0:0:0:
164,36,74686,2,0,L|179:121,1,86.5,2|8,0:0|0:0,0:0:0:0:
160,340,75061,1,0,0:0:0:0:
207,256,75249,6,0,P|292:249|356:304,1,173,2|8,0:0|0:0,0:0:0:0:
504,224,75811,1,0,0:0:0:0:
504,224,75999,2,0,L|412:208,1,86.5,2|2,0:0|0:0,0:0:0:0:
360,112,76374,1,8,0:0:0:0:
408,308,76561,1,0,0:0:0:0:
284,176,76749,5,2,0:0:0:0:
396,344,76936,1,0,0:0:0:0:
220,320,77124,2,0,L|308:308,1,86.5,8|0,0:0|0:0,0:0:0:0:
352,84,77499,1,2,0:0:0:0:
184,228,77686,1,2,0:0:0:0:
288,16,77874,1,8,0:0:0:0:
136,152,78061,1,2,0:0:0:0:
136,152,78155,1,8,0:0:0:0:
136,151,78249,6,0,P|52:147|8:77,1,173,4|8,0:0|0:0,0:0:0:0:
100,68,78811,1,0,0:0:0:0:
232,128,78999,1,2,0:0:0:0:
116,32,79186,1,2,0:0:0:0:
200,220,79374,1,8,0:0:0:0:
224,104,79561,6,0,L|316:88,1,86.5,0|2,0:0|0:0,0:0:0:0:
464,208,79936,2,0,L|372:192,1,86.5,2|8,0:0|0:0,0:0:0:0:
436,108,80311,1,0,0:0:0:0:
400,292,80499,1,2,0:0:0:0:
416,76,80686,1,2,0:0:0:0:
288,264,80874,2,0,L|304:364,1,86.5,8|0,0:0|0:0,0:0:0:0:
224,172,81249,5,8,0:0:0:0:
344,28,81436,1,2,0:0:0:0:
212,192,81624,2,0,L|108:176,1,86.5,8|2,0:0|0:0,0:0:0:0:
68,96,81999,5,8,0:0:0:0:
100,268,82186,1,2,0:0:0:0:
152,40,82374,1,2,0:0:0:0:
88,296,82561,6,0,B|144:300|184:328|184:328|256:312,1,173,8|2,0:0|0:0,0:0:0:0:
312,232,83124,1,8,0:0:0:0:
424,320,83311,1,2,0:0:0:0:
352,144,83499,1,8,0:0:0:0:
348,368,83686,1,8,0:0:0:0:
348,368,83780,1,8,0:0:0:0:
348,368,83874,1,8,3:0:0:0:
224,216,84061,1,4,3:0:0:0:
436,296,84249,5,4,0:0:0:0:
44,280,108249,6,0,B|68:240|68:240|56:148,1,129.75000494957,0|2,0:0|0:0,0:0:0:0:
208,28,108999,2,0,B|184:68|184:68|196:160,1,129.75000494957,0|2,0:0|0:0,0:0:0:0:
264,208,109561,1,0,0:0:0:0:
264,207,109749,2,0,P|325:195|373:235,1,129.75000494957,0|2,0:0|0:0,0:0:0:0:
316,364,110311,1,0,0:0:0:0:
316,364,110499,2,0,L|304:292,1,64.8750024747849,2|0,0:0|0:0,0:0:0:0:
352,96,110874,1,2,0:0:0:0:
351,96,111249,6,0,P|257:102|182:43,1,194.625007424355,0|2,0:0|0:0,0:0:0:0:
176,24,112374,2,0,L|160:152,1,129.75000494957,2|0,0:0|0:0,0:0:0:0:
88,224,112936,2,0,L|100:288,1,64.8750024747849,0|0,0:0|0:0,0:0:0:0:
104,304,113499,5,2,0:0:0:0:
192,248,113686,1,0,0:0:0:0:
192,352,113874,2,0,L|256:344,1,64.8750024747849,2|0,0:0|0:0,0:0:0:0:
376,244,114249,2,0,P|439:240|487:282,2,129.75000494957,2|2|2,0:0|0:0|0:0,0:0:0:0:
316,64,115374,6,0,B|212:52|232:120|128:108,1,194.625007424355,0|0,0:0|0:0,0:0:0:0:
32,84,116124,2,0,L|44:160,1,64.8750024747849,2|0,0:0|0:0,0:0:0:0:
128,200,116499,2,0,L|108:336,1,129.75000494957,2|2,0:0|0:0,0:0:0:0:
108,351,117249,6,0,P|187:301|275:335,1,194.625007424355,0|2,0:0|0:0,0:0:0:0:
472,280,118374,2,0,B|452:236|452:236|464:152,1,129.75000494957,2|0,0:0|0:0,0:0:0:0:
420,68,118936,1,0,0:0:0:0:
332,108,119124,1,0,0:0:0:0:
332,108,119499,2,0,L|264:96,1,64.8750024747849,0|0,0:0|0:0,0:0:0:0:
200,32,119874,1,2,0:0:0:0:
199,31,120249,6,0,P|136:27|88:69,1,129.75000494957,2|0,0:0|0:0,0:0:0:0:
152,240,120811,2,0,B|176:200|176:200|164:108,1,129.75000494957,2|0,0:0|0:0,0:0:0:0:
76,168,121374,1,2,0:0:0:0:
76,168,121936,1,0,0:0:0:0:
32,252,122124,1,0,0:0:0:0:
32,251,122499,2,0,P|95:256|141:299,1,129.75000494957,2|0,0:0|0:0,0:0:0:0:
151,319,123249,6,0,P|242:343|311:280,1,194.625007424355,2|2,0:0|0:0,0:0:0:0:
320,268,124374,2,0,B|308:224|308:224|320:136,1,129.75000494957,2|0,0:0|0:0,0:0:0:0:
392,72,124936,1,0,0:0:0:0:
240,100,125124,1,0,0:0:0:0:
240,100,125499,2,0,L|176:88,1,64.8750024747849,2|0,0:0|0:0,0:0:0:0:
32,48,125874,2,0,L|96:36,1,64.8750024747849,2|0,0:0|0:0,0:0:0:0:
192,188,126249,6,0,L|64:168,2,129.75000494957,0|2|0,0:0|0:0|0:0,0:0:0:0:
256,260,127186,1,0,0:0:0:0:
360,100,127374,1,2,0:0:0:0:
360,100,127936,1,0,0:0:0:0:
420,172,128124,1,2,0:0:0:0:
420,172,128499,2,0,L|404:304,1,129.75000494957,2|0,0:0|0:0,0:0:0:0:
400,328,129249,6,0,P|312:296|242:356,1,194.625007424355,2|2,0:0|0:0,0:0:0:0:
80,292,130374,2,0,P|142:301|189:260,1,129.75000494957,2|0,0:0|0:0,0:0:0:0:
212,168,130936,1,0,0:0:0:0:
184,72,131124,1,2,0:0:0:0:
184,72,131499,6,0,L|280:88,1,97.3125037121774,2|0,0:0|0:0,0:0:0:0:
316,64,131874,1,2,0:0:0:0:
284,216,132061,1,0,0:0:0:0:
304,24,132249,6,0,P|353:64|416:64,1,129.75000494957,4|2,0:0|0:0,0:0:0:0:
496,24,132811,1,2,0:0:0:0:
416,156,132999,2,0,L|432:228,1,64.8750024747849,8|0,0:0|0:0,0:0:0:0:
356,276,133374,1,0,0:0:0:0:
356,276,133561,6,0,L|228:248,1,129.75000494957,2|2,0:0|0:0,0:0:0:0:
148,308,134124,1,2,0:0:0:0:
148,308,134311,2,0,L|164:384,1,64.8750024747849,0|8,0:0|0:0,0:0:0:0:
76,252,134686,2,0,L|89:188,1,64.8750024747849,0|0,0:0|0:0,0:0:0:0:
52,103,135061,1,0,0:0:0:0:
52,103,135249,6,0,P|115:99|166:137,1,129.75000494957,2|2,0:0|0:0,0:0:0:0:
335,292,135999,2,0,P|272:296|221:258,1,129.75000494957,8|0,0:0|0:0,0:0:0:0:
400,232,136561,6,0,L|376:376,1,129.75000494957,2|2,0:0|0:0,0:0:0:0:
340,144,137124,1,2,0:0:0:0:
340,144,137499,1,8,0:0:0:0:
412,76,137687,1,2,0:0:0:0:
432,176,137874,2,0,L|496:164,1,64.8750024747849,0|0,0:0|0:0,0:0:0:0:
268,256,138249,6,0,L|136:232,1,129.75000494957,2|2,0:0|0:0,0:0:0:0:
60,284,138811,1,0,0:0:0:0:
60,284,138999,2,0,L|76:360,1,64.8750024747849,8|0,0:0|0:0,0:0:0:0:
136,140,139374,2,0,L|120:64,1,64.8750024747849,0|2,0:0|0:0,0:0:0:0:
204,24,139749,6,0,L|232:164,1,129.75000494957,0|2,0:0|0:0,0:0:0:0:
304,208,140311,1,2,0:0:0:0:
304,207,140499,2,0,P|366:197|417:235,1,129.75000494957,8|0,0:0|0:0,0:0:0:0:
344,296,141061,1,0,0:0:0:0:
196,360,141249,6,0,B|176:324|176:324|188:228,1,129.75000494957,2|2,0:0|0:0,0:0:0:0:
316,24,141999,2,0,B|336:60|336:60|324:156,1,129.75000494957,8|0,0:0|0:0,0:0:0:0:
256,208,142561,6,0,P|317:192|368:229,1,129.75000494957,2|2,0:0|0:0,0:0:0:0:
424,308,143124,1,2,0:0:0:0:
424,308,143499,2,0,L|412:384,1,64.8750024747849,8|2,0:0|0:0,0:0:0:0:
488,228,143874,2,0,L|477:163,1,64.8750024747849,2|2,0:0|0:0,0:0:0:0:
388,16,144249,6,0,L|368:148,1,129.75000494957,4|2,0:0|0:0,0:0:0:0:
288,204,144811,1,0,0:0:0:0:
288,204,144999,2,0,L|304:272,1,64.8750024747849,8|0,0:0|0:0,0:0:0:0:
240,336,145374,1,0,0:0:0:0:
184,216,145561,6,0,L|198:152,1,64.8750024747849,2|0,0:0|0:0,0:0:0:0:
116,56,145936,2,0,L|101:119,1,64.8750024747849,2|2,0:0|0:0,0:0:0:0:
12,276,146311,1,0,0:0:0:0:
12,275,146499,2,0,P|74:266|126:301,1,129.75000494957,8|0,0:0|0:0,0:0:0:0:
192,368,147061,1,0,0:0:0:0:
192,368,147249,6,0,L|336:352,1,129.75000494957,2|2,0:0|0:0,0:0:0:0:
503,252,147999,2,0,P|442:266|390:231,1,129.75000494957,8|0,0:0|0:0,0:0:0:0:
440,40,148561,2,0,B|464:64|464:64|456:160,1,129.75000494957,2|2,0:0|0:0,0:0:0:0:
288,208,149124,1,2,0:0:0:0:
288,208,149499,2,0,L|220:196,1,64.8750024747849,8|0,0:0|0:0,0:0:0:0:
104,136,149874,2,0,L|172:124,1,64.8750024747849,2|2,0:0|0:0,0:0:0:0:
40,80,150249,6,0,L|64:212,1,129.75000494957,4|2,0:0|0:0,0:0:0:0:
140,272,150811,1,0,0:0:0:0:
140,272,150999,2,0,L|128:336,2,64.8750024747849,8|0|0,0:0|0:0|0:0,0:0:0:0:
148,132,151561,1,0,0:0:0:0:
236,264,151749,5,2,0:0:0:0:
132,100,151936,1,0,0:0:0:0:
292,184,152124,1,2,0:0:0:0:
208,28,152311,2,0,L|272:44,1,64.8750024747849,0|8,0:0|0:0,0:0:0:0:
384,144,152686,2,0,L|452:132,1,64.8750024747849,0|0,0:0|0:0,0:0:0:0:
504,216,153061,1,0,0:0:0:0:
403,367,153249,6,0,P|381:308|400:247,1,129.75000494957,4|2,0:0|0:0,0:0:0:0:
476,308,153811,1,2,0:0:0:0:
292,340,153999,2,0,B|224:336|232:368|152:360,1,129.75000494957,8|8,0:0|0:0,0:0:0:0:
96,296,154561,1,0,0:0:0:0:
96,296,154749,6,0,L|112:224,1,64.8750024747849,2|8,0:0|0:0,0:0:0:0:
40,128,155124,2,0,L|24:200,1,64.8750024747849,8|2,0:0|0:0,0:0:0:0:
136,72,155499,1,8,0:0:0:0:
232,212,155686,5,2,0:0:0:0:
232,212,155780,1,2,0:0:0:0:
232,212,155874,2,0,L|224:256,1,43.25,8|2,0:0|0:0,0:0:0:0:
132,272,156061,2,0,L|144:320,1,43.25,2|2,0:0|0:0,0:0:0:0:
228,352,156249,6,0,B|312:336|308:384|400:364,1,173,4|8,0:0|0:0,0:0:0:0:
476,284,156811,1,0,0:0:0:0:
332,168,156999,1,2,0:0:0:0:
488,256,157186,1,2,0:0:0:0:
384,72,157374,1,8,0:0:0:0:
284,260,157561,6,0,L|192:240,1,86.5,0|2,0:0|0:0,0:0:0:0:
32,156,157936,2,0,L|124:136,1,86.5,2|8,0:0|0:0,0:0:0:0:
184,52,158311,1,0,0:0:0:0:
92,232,158499,1,2,0:0:0:0:
160,28,158686,1,2,0:0:0:0:
172,280,158874,1,8,0:0:0:0:
236,128,159061,1,0,0:0:0:0:
224,360,159249,6,0,B|284:348|284:348|332:360|332:360|400:340,1,173,2|8,0:0|0:0,0:0:0:0:
464,264,159811,1,0,0:0:0:0:
332,156,159999,1,2,0:0:0:0:
484,224,160186,1,2,0:0:0:0:
448,40,160374,2,0,L|432:132,1,86.5,8|0,0:0|0:0,0:0:0:0:
240,208,160749,6,0,B|156:196|160:256|64:232,1,173,2|8,0:0|0:0,0:0:0:0:
100,144,161311,1,0,0:0:0:0:
208,296,161499,1,2,0:0:0:0:
108,120,161686,1,2,0:0:0:0:
140,360,161874,1,8,0:0:0:0:
292,232,162061,1,2,0:0:0:0:
292,232,162155,1,2,0:0:0:0:
292,232,162249,6,0,B|376:224|376:272|464:260,1,173,4|8,0:0|0:0,0:0:0:0:
428,160,162811,1,0,0:0:0:0:
328,328,162999,1,2,0:0:0:0:
384,76,163186,1,2,0:0:0:0:
300,304,163374,1,8,0:0:0:0:
216,220,163561,6,0,L|128:208,1,86.5,0|2,0:0|0:0,0:0:0:0:
0,80,163936,2,0,L|88:92,1,86.5,2|8,0:0|0:0,0:0:0:0:
180,32,164311,1,2,0:0:0:0:
40,176,164499,1,0,0:0:0:0:
168,8,164686,1,2,0:0:0:0:
112,248,164874,1,8,0:0:0:0:
96,80,165061,1,0,0:0:0:0:
244,152,165249,6,0,B|304:144|304:144|356:160|356:160|420:148,1,173,2|8,0:0|0:0,0:0:0:0:
368,64,165811,1,0,0:0:0:0:
292,232,165999,1,2,0:0:0:0:
352,36,166186,1,2,0:0:0:0:
364,300,166374,2,0,L|449:284,1,86.5,8|0,0:0|0:0,0:0:0:0:
392,196,166749,5,2,0:0:0:0:
420,376,166936,1,2,0:0:0:0:
464,144,167124,1,8,0:0:0:0:
424,360,167311,1,2,0:0:0:0:
380,104,167499,1,8,0:0:0:0:
204,204,167686,5,2,0:0:0:0:
165,177,167779,1,2,0:0:0:0:
118,177,167873,1,8,0:0:0:0:
80,204,167967,1,2,0:0:0:0:
65,249,168061,1,2,0:0:0:0:
78,294,168154,1,2,0:0:0:0:
115,323,168249,6,0,L|296:300,1,173,4|8,0:0|0:0,0:0:0:0:
360,228,168811,1,0,0:0:0:0:
344,376,168999,1,2,0:0:0:0:
352,200,169186,1,2,0:0:0:0:
484,304,169374,1,8,0:0:0:0:
496,132,169561,6,0,L|408:120,1,86.5,0|2,0:0|0:0,0:0:0:0:
248,52,169936,2,0,L|336:40,1,86.5,2|8,0:0|0:0,0:0:0:0:
332,196,170311,2,0,L|244:184,1,86.5,0|2,0:0|0:0,0:0:0:0:
72,128,170686,2,0,L|160:116,1,86.5,2|8,0:0|0:0,0:0:0:0:
248,52,171061,1,0,0:0:0:0:
196,280,171249,6,0,P|113:268|51:325,1,173,2|8,0:0|0:0,0:0:0:0:
140,360,171811,1,0,0:0:0:0:
284,320,171999,2,0,L|296:232,1,86.5,2|2,0:0|0:0,0:0:0:0:
160,96,172374,2,0,L|171:181,1,86.5,8|0,0:0|0:0,0:0:0:0:
320,116,172749,6,0,B|404:112|392:176|484:164,1,173,2|8,0:0|0:0,0:0:0:0:
460,76,173311,1,0,0:0:0:0:
340,204,173499,1,2,0:0:0:0:
472,40,173686,1,2,0:0:0:0:
384,280,173874,1,8,0:0:0:0:
256,136,174061,1,0,0:0:0:0:
332,352,174249,6,0,P|414:362|466:298,1,173,4|8,0:0|0:0,0:0:0:0:
436,204,174811,1,0,0:0:0:0:
264,284,174999,1,2,0:0:0:0:
348,64,175186,2,0,L|364:152,1,86.5,2|8,0:0|0:0,0:0:0:0:
248,252,175561,6,0,B|196:252|152:280|152:280|76:260,1,173,2|2,0:0|0:0,0:0:0:0:
20,328,176124,1,8,0:0:0:0:
136,180,176311,2,0,L|120:92,1,86.5,0|2,0:0|0:0,0:0:0:0:
32,32,176686,1,2,0:0:0:0:
220,76,176874,1,8,0:0:0:0:
220,76,177249,5,8,0:0:0:0:
144,256,177436,1,2,0:0:0:0:
136,28,177624,1,8,0:0:0:0:
164,288,177811,1,2,0:0:0:0:
280,192,177999,2,0,L|184:176,1,86.5,8|2,0:0|0:0,0:0:0:0:
40,236,178374,1,2,0:0:0:0:
236,356,178561,6,0,B|296:344|296:344|348:356|348:356|412:340,1,173,8|2,0:0|0:0,0:0:0:0:
476,276,179124,1,8,0:0:0:0:
336,136,179311,1,0,0:0:0:0:
496,188,179499,1,2,0:0:0:0:
380,44,179686,5,8,0:0:0:0:
338,34,179779,1,2,0:0:0:0:
296,43,179873,1,8,0:0:0:0:
261,68,179967,1,2,0:0:0:0:
239,105,180061,1,2,0:0:0:0:
192,216,180249,5,2,0:0:0:0:
160,244,180342,1,2,0:0:0:0:
119,257,180436,1,2,0:0:0:0:
76,253,180530,1,2,0:0:0:0:
39,231,180624,1,8,0:0:0:0:
15,195,180717,1,2,0:0:0:0:
7,153,180811,1,2,0:0:0:0:
18,111,180905,1,2,0:0:0:0:
45,78,180999,2,0,L|92:92,4,43.25,2|2|2|2|8,0:0|0:0|0:0|0:0|0:0,0:0:0:0:
208,140,181561,5,2,0:0:0:0:
208,140,181655,1,2,0:0:0:0:
208,140,181749,2,0,L|256:128,3,43.25,2|2|2|2,0:0|0:0|0:0|0:0,0:0:0:0:
304,64,182124,2,0,L|345:74,3,43.25,8|2|2|2,0:0|0:0|0:0|0:0,0:0:0:0:
424,28,182499,5,2,0:0:0:0:
463,44,182592,1,2,0:0:0:0:
491,77,182686,1,2,0:0:0:0:
501,119,182780,1,2,0:0:0:0:
491,161,182874,1,8,0:0:0:0:
396,256,183061,1,0,0:0:0:0:
280,176,183249,6,0,P|196:176|136:240,1,173,2|8,0:0|0:0,0:0:0:0:
240,276,183811,1,0,0:0:0:0:
168,72,183999,1,2,0:0:0:0:
220,300,184186,1,2,0:0:0:0:
280,176,184374,5,8,0:0:0:0:
310,206,184467,1,2,0:0:0:0:
349,223,184561,1,2,0:0:0:0:
392,223,184655,1,2,0:0:0:0:
432,207,184749,5,8,0:0:0:0:
463,177,184842,1,2,0:0:0:0:
479,138,184936,1,2,0:0:0:0:
480,95,185030,1,2,0:0:0:0:
464,55,185124,6,0,L|416:64,3,43.25,8|2|2|2,0:0|0:0|0:0|0:0,0:0:0:0:
344,112,185499,2,0,L|296:104,3,43.25,8|2|2|2,0:0|0:0|0:0|0:0,0:0:0:0:
232,44,185874,2,0,L|183:52,3,43.25,8|2|2|2,0:0|0:0|0:0|0:0,0:0:0:0:
120,112,186249,6,0,L|36:88,1,86.5,2|0,0:0|0:0,0:0:0:0:
184,212,186624,2,0,L|276:192,1,86.5,8|0,0:0|0:0,0:0:0:0:
336,260,186999,1,2,0:0:0:0:
292,112,187186,1,2,0:0:0:0:
324,292,187374,1,8,0:0:0:0:
384,48,187561,6,0,B|424:80|424:80|452:136|416:200,1,173,2|2,0:0|0:0,0:0:0:0:
232,236,188124,1,8,0:0:0:0:
388,344,188311,1,0,0:0:0:0:
260,340,188499,2,0,L|172:324,1,86.5,2|2,0:0|0:0,0:0:0:0:
24,248,188874,2,0,L|112:232,1,86.5,8|2,0:0|0:0,0:0:0:0:
292,151,189249,6,0,P|209:164|148:106,1,173,2|8,0:0|0:0,0:0:0:0:
240,72,189811,1,0,0:0:0:0:
368,196,189999,1,2,0:0:0:0:
308,16,190186,1,2,0:0:0:0:
308,16,190280,1,2,0:0:0:0:
308,16,190374,1,8,0:0:0:0:
464,140,190561,6,0,L|440:312,1,173,2|2,0:0|0:0,0:0:0:0:
356,360,191124,1,8,0:0:0:0:
264,184,191311,1,2,0:0:0:0:
336,376,191499,1,8,0:0:0:0:
196,244,191686,1,2,0:0:0:0:
196,244,191780,1,2,0:0:0:0:
196,244,191874,2,0,L|152:240,1,43.25,8|2,0:0|0:0,0:0:0:0:
40,120,192061,2,0,L|84:124,1,43.25,2|2,0:0|0:0,0:0:0:0:
152,72,192249,5,6,1:0:0:0:
288,192,192436,2,0,L|304:104,1,86.5,2|8,1:0|0:0,0:0:0:0:
236,24,192811,1,2,1:0:0:0:
380,208,192999,2,0,L|396:120,1,86.5,2|2,1:0|0:0,0:0:0:0:
196,152,193374,1,10,1:0:0:0:
348,296,193561,1,2,1:0:0:0:
144,240,193749,6,0,L|48:220,1,86.5,6|2,1:0|1:0,0:0:0:0:
128,84,194124,1,8,0:0:0:0:
59,222,194311,1,8,3:0:0:0:
59,222,194405,1,4,3:0:0:0:
59,222,194499,1,8,3:0:0:0:
56,24,194686,1,2,0:0:0:0:
16,304,194874,1,8,0:0:0:0:
236,192,195061,5,8,0:0:0:0:
236,192,195155,1,8,0:0:0:0:
236,192,195249,2,0,L|224:284,1,86.5,6|2,1:0|1:0,0:0:0:0:
160,112,195624,1,8,0:0:0:0:
344,140,195811,2,0,L|332:232,1,86.5,10|2,1:0|1:0,0:0:0:0:
228,40,196186,1,2,0:0:0:0:
428,104,196374,1,10,1:0:0:0:
248,64,196561,1,2,1:0:0:0:
396,20,196749,5,2,0:0:0:0:
256,160,196936,1,10,1:0:0:0:
472,260,197124,2,0,L|484:168,1,86.5,10|2,1:0|0:0,0:0:0:0:
336,112,197499,1,2,1:0:0:0:
428,340,197686,1,2,1:0:0:0:
348,80,197874,1,10,1:0:0:0:
320,284,198061,1,2,1:0:0:0:
164,196,198249,6,0,L|252:184,1,86.5,6|2,1:0|1:0,0:0:0:0:
304,320,198624,1,8,0:0:0:0:
72,256,198811,2,0,L|56:160,1,86.5,2|2,1:0|1:0,0:0:0:0:
136,100,199186,1,0,0:0:0:0:
92,348,199374,1,10,1:0:0:0:
148,128,199561,1,2,1:0:0:0:
252,280,199749,6,0,L|168:264,1,86.5,6|0,1:0|0:0,0:0:0:0:
228,184,200124,1,10,1:0:0:0:
192,356,200311,1,0,0:0:0:0:
352,296,200499,1,2,1:0:0:0:
288,112,200686,1,2,0:0:0:0:
344,324,200874,1,10,1:0:0:0:
344,324,201249,6,0,L|332:236,1,86.5,6|2,1:0|1:0,0:0:0:0:
392,156,201624,1,8,0:0:0:0:
244,248,201811,1,2,1:0:0:0:
368,68,201999,1,10,1:0:0:0:
168,148,202186,2,0,L|176:200,2,43.25,2|2|10,0:0|0:0|1:0,0:0:0:0:
292,12,202561,6,0,L|468:44,1,173,2|2,1:0|0:0,0:0:0:0:
504,128,203124,1,8,0:0:0:0:
360,216,203311,1,2,0:0:0:0:
492,148,203499,1,8,0:0:0:0:
408,296,203686,1,2,0:0:0:0:
400,96,203874,5,8,0:0:0:0:
368,124,203967,1,2,0:0:0:0:
326,131,204061,1,2,0:0:0:0:
287,115,204155,1,2,0:0:0:0:
263,80,204249,6,0,B|212:80|164:112|164:112|96:88,1,173,4|8,0:0|0:0,0:0:0:0:
16,148,204811,1,0,0:0:0:0:
92,288,204999,2,0,L|112:200,1,86.5,2|2,0:0|0:0,0:0:0:0:
8,176,205374,1,8,0:0:0:0:
19,368,205561,6,0,P|92:325|174:344,1,173,2|2,0:0|0:0,0:0:0:0:
256,288,206124,1,8,0:0:0:0:
144,160,206311,1,0,0:0:0:0:
272,256,206499,1,2,0:0:0:0:
208,72,206686,2,0,L|292:92,1,86.5,2|8,0:0|0:0,0:0:0:0:
372,32,207061,1,0,0:0:0:0:
355,208,207249,6,0,P|438:195|493:257,1,173,2|8,0:0|0:0,0:0:0:0:
408,280,207811,1,0,0:0:0:0:
288,360,207999,2,0,L|200:348,1,86.5,2|2,0:0|0:0,0:0:0:0:
36,240,208374,2,0,L|124:228,1,86.5,8|0,0:0|0:0,0:0:0:0:
320,167,208749,6,0,P|235:174|172:118,1,173,2|8,0:0|0:0,0:0:0:0:
268,76,209311,1,0,0:0:0:0:
236,256,209499,1,2,0:0:0:0:
252,40,209686,1,2,0:0:0:0:
304,316,209874,1,8,0:0:0:0:
176,108,210061,1,2,0:0:0:0:
176,108,210155,1,2,0:0:0:0:
176,108,210249,6,0,B|88:108|100:160|4:152,1,173,4|8,0:0|0:0,0:0:0:0:
36,64,210811,1,0,0:0:0:0:
152,208,210999,1,2,0:0:0:0:
56,28,211186,1,2,0:0:0:0:
128,292,211374,1,8,0:0:0:0:
180,120,211561,6,0,B|236:120|276:152|276:152|352:136,1,173,2|2,0:0|0:0,0:0:0:0:
408,60,212124,1,8,0:0:0:0:
368,228,212311,1,0,0:0:0:0:
392,32,212499,1,2,0:0:0:0:
504,164,212686,2,0,L|408:148,1,86.5,2|8,0:0|0:0,0:0:0:0:
276,176,213061,1,0,0:0:0:0:
332,324,213249,6,0,B|388:316|388:316|444:336|444:336|512:320,1,173,2|8,0:0|0:0,0:0:0:0:
456,240,213811,1,0,0:0:0:0:
320,140,213999,1,2,0:0:0:0:
464,212,214186,1,2,0:0:0:0:
488,52,214374,2,0,L|392:40,1,86.5,8|0,0:0|0:0,0:0:0:0:
252,32,214749,5,2,0:0:0:0:
376,216,214936,1,2,0:0:0:0:
172,168,215124,2,0,L|268:160,1,86.5,8|0,0:0|0:0,0:0:0:0:
360,112,215499,1,8,0:0:0:0:
224,260,215686,1,2,0:0:0:0:
340,24,215874,5,8,0:0:0:0:
382,22,215967,1,2,0:0:0:0:
421,41,216061,1,2,0:0:0:0:
446,75,216155,1,2,0:0:0:0:
453,117,216249,6,0,B|432:300,1,173,4|8,0:0|0:0,0:0:0:0:
352,352,216811,1,0,0:0:0:0:
236,208,216999,1,2,0:0:0:0:
344,368,217186,1,2,0:0:0:0:
280,116,217374,1,8,0:0:0:0:
184,292,217561,6,0,L|96:272,1,86.5,0|2,0:0|0:0,0:0:0:0:
0,172,217936,2,0,L|88:152,1,86.5,2|8,0:0|0:0,0:0:0:0:
136,60,218311,1,2,0:0:0:0:
164,216,218499,1,0,0:0:0:0:
120,40,218686,1,2,0:0:0:0:
248,168,218874,1,8,0:0:0:0:
64,116,219061,1,0,0:0:0:0:
232,148,219249,6,0,B|288:140|288:140|340:156|340:156|404:144,1,173,2|8,0:0|0:0,0:0:0:0:
352,64,219811,1,0,0:0:0:0:
280,232,219999,1,2,0:0:0:0:
336,32,220186,1,2,0:0:0:0:
352,296,220374,2,0,L|452:280,1,86.5,8|0,0:0|0:0,0:0:0:0:
208,340,220749,6,0,B|168:316|168:316|136:256|172:192,1,173,2|8,0:0|0:0,0:0:0:0:
208,112,221311,1,0,0:0:0:0:
72,184,221499,1,2,0:0:0:0:
192,24,221686,1,2,0:0:0:0:
56,156,221874,1,8,0:0:0:0:
260,208,222061,1,2,0:0:0:0:
260,208,222155,1,2,0:0:0:0:
260,208,222249,6,0,B|344:200|344:256|432:236,1,173,4|8,0:0|0:0,0:0:0:0:
400,144,222811,1,0,0:0:0:0:
296,300,222999,1,2,0:0:0:0:
344,64,223186,1,2,0:0:0:0:
368,360,223374,1,8,0:0:0:0:
224,232,223561,6,0,B|168:248|168:248|132:288|132:288|72:300,1,173,2|2,0:0|0:0,0:0:0:0:
84,204,224124,1,8,0:0:0:0:
271,143,224311,2,0,P|321:211|302:292,1,173,2|2,0:0|0:0,0:0:0:0:
216,356,224874,1,8,0:0:0:0:
216,356,225249,5,8,0:0:0:0:
56,248,225436,1,2,0:0:0:0:
180,164,225624,2,0,L|164:260,1,86.5,8|2,0:0|0:0,0:0:0:0:
28,148,225999,1,8,0:0:0:0:
196,64,226186,1,2,0:0:0:0:
16,124,226374,1,2,0:0:0:0:
216,168,226561,6,0,B|272:160|272:160|324:176|324:176|388:164,1,173,8|2,0:0|0:0,0:0:0:0:
336,80,227124,1,8,0:0:0:0:
264,256,227311,1,2,0:0:0:0:
316,44,227499,1,8,0:0:0:0:
136,152,227686,5,2,0:0:0:0:
136,152,227780,1,2,0:0:0:0:
136,152,227874,2,0,L|144:200,1,43.25,8|2,0:0|0:0,0:0:0:0:
212,248,228061,2,0,L|200:300,1,43.25,2|2,0:0|0:0,0:0:0:0:
111,352,228249,6,0,P|197:319|271:372,1,190.300005807495,4|8,0:0|0:0,0:0:0:0:
380,220,228811,1,0,0:0:0:0:
256,140,228999,1,2,0:0:0:0:
364,248,229186,2,0,L|472:236,1,95.1500029037476,2|8,0:0|0:0,0:0:0:0:
212,48,229561,6,0,B|168:80|168:80|140:144|180:216,1,190.300005807495,2|2,0:0|0:0,0:0:0:0:
260,272,230124,1,8,0:0:0:0:
460,120,230311,2,0,B|364:104|372:164|268:140,1,190.300005807495,2|2,0:0|0:0,0:0:0:0:
320,56,230874,1,8,0:0:0:0:
428,212,231061,1,0,0:0:0:0:
274,141,231249,6,0,L|170:125,1,95.1500029037476,2|2,0:0|0:0,0:0:0:0:
40,56,231624,2,0,L|144:40,1,95.1500029037476,8|0,0:0|0:0,0:0:0:0:
128,216,231999,1,2,0:0:0:0:
16,80,232186,1,2,0:0:0:0:
80,292,232374,1,8,0:0:0:0:
184,136,232561,6,0,B|276:128|268:200|376:176,1,190.300005807495,2|2,0:0|0:0,0:0:0:0:
340,88,233124,1,8,0:0:0:0:
208,236,233311,1,2,0:0:0:0:
276,28,233499,1,8,0:0:0:0:
252,324,233686,1,0,0:0:0:0:
160,144,233874,1,8,0:0:0:0:
332,264,234061,1,8,0:0:0:0:
148,104,234249,6,0,B|104:136|104:136|72:204|112:268,1,190.300005807495,4|8,0:0|0:0,0:0:0:0:
192,344,234811,1,0,0:0:0:0:
348,172,234999,2,0,L|248:160,1,95.1500029037476,2|2,0:0|0:0,0:0:0:0:
253,160,235280,1,2,0:0:0:0:
253,160,235374,1,8,0:0:0:0:
320,52,235561,1,2,0:0:0:0:
132,136,235749,6,0,L|144:244,1,95.1500029037476,2|2,0:0|0:0,0:0:0:0:
142,230,236030,1,0,0:0:0:0:
142,230,236124,1,8,0:0:0:0:
176,48,236311,1,2,0:0:0:0:
48,192,236499,1,2,0:0:0:0:
240,268,236686,1,2,0:0:0:0:
132,136,236874,1,8,0:0:0:0:
132,136,237249,5,8,0:0:0:0:
224,56,237436,1,2,0:0:0:0:
240,180,237624,1,2,0:0:0:0:
40,80,237811,5,8,0:0:0:0:
148,320,237999,2,0,L|160:216,1,95.1500029037476,2|2,0:0|0:0,0:0:0:0:
56,256,238374,5,8,0:0:0:0:
248,280,238561,1,0,0:0:0:0:
168,124,238749,1,2,0:0:0:0:
328,216,238936,5,8,0:0:0:0:
224,36,239124,2,0,L|128:28,1,95.1500029037476,2|2,0:0|0:0,0:0:0:0:
56,96,239499,5,8,0:0:0:0:
208,220,239686,1,2,0:0:0:0:
208,220,239780,1,2,0:0:0:0:
208,220,239874,1,8,3:0:0:0:
8,176,240061,6,0,L|24:228,1,47.5750014518738,4|8,3:0|3:0,0:0:0:0:
52,296,240249,5,4,0:0:0:0:
116,360,240436,1,0,0:0:0:0:
136,272,240623,1,2,0:0:0:0:
168,148,240811,5,0,0:0:0:0:
244,200,240999,1,0,0:0:0:0:
248,104,241186,1,2,0:0:0:0:
64,68,241374,5,0,0:0:0:0:
12,136,241561,1,0,0:0:0:0:
96,148,241749,6,0,L|84:216,1,64.8750024747849,2|0,0:0|0:0,0:0:0:0:
176,196,242124,2,0,L|164:264,1,64.8750024747849,0|2,0:0|0:0,0:0:0:0:
260,244,242499,2,0,L|248:312,2,64.8750024747849,0|0|2,0:0|0:0|0:0,0:0:0:0:
248,48,243249,5,0,0:0:0:0:
272,136,243436,1,0,0:0:0:0:
336,72,243624,1,2,0:0:0:0:
312,256,243811,5,0,0:0:0:0:
248,320,243999,1,0,0:0:0:0:
336,344,244186,1,2,0:0:0:0:
192,180,244374,5,0,0:0:0:0:
108,224,244561,1,0,0:0:0:0:
116,132,244749,1,2,0:0:0:0:
256,56,244936,5,0,0:0:0:0:
324,128,245124,2,0,L|304:204,1,64.8750024747849,0|0,0:0|0:0,0:0:0:0:
400,188,245499,2,0,L|380:264,1,64.8750024747849,2|0,0:0|0:0,0:0:0:0:
476,248,245874,2,0,L|456:324,1,64.8750024747849,2|0,0:0|0:0,0:0:0:0:
256,296,246249,5,0,0:0:0:0:
184,360,246436,1,0,0:0:0:0:
160,268,246624,1,2,0:0:0:0:
332,220,246811,5,0,0:0:0:0:
316,120,246999,1,0,0:0:0:0:
408,152,247186,1,2,0:0:0:0:
372,312,247374,5,0,0:0:0:0:
304,368,247561,1,0,0:0:0:0:
232,308,247749,6,0,L|248:232,1,64.8750024747849,2|0,0:0|0:0,0:0:0:0:
156,248,248124,2,0,L|172:172,1,64.8750024747849,0|2,0:0|0:0,0:0:0:0:
80,176,248499,2,0,L|96:100,1,64.8750024747849,0|0,0:0|0:0,0:0:0:0:
160,40,248874,1,2,0:0:0:0:
160,40,249249,6,0,L|232:56,1,64.8750024747849,2|2,0:0|0:0,0:0:0:0:
288,120,249624,2,0,L|352:112,1,64.8750024747849,2|2,0:0|0:0,0:0:0:0:
484,272,250186,5,2,0:0:0:0:
484,272,250561,1,2,0:0:0:0:
484,272,250936,1,2,0:0:0:0:
256,352,251499,5,2,0:0:0:0:
